#TITLE:concon;
#SUBTITLE:(picom'n'bass rmx);
#ARTIST:kamome sano;
#TITLETRANSLIT:;
#SUBTITLETRANSLIT:;
#ARTISTTRANSLIT:;
#GENRE:;
#CREDIT:;
#BANNER:Concon (picom'n'bass rmx).png;
#BACKGROUND:Concon (picom'n'bass rmx)-bg.png;
#LYRICSPATH:;
#CDTITLE:;
#MUSIC:concon (picom'n'bass rmx).mp3;
#OFFSET:-0.642000;
#SAMPLESTART:69.765709;
#SAMPLELENGTH:9.896904;
#SELECTABLE:YES;
#DISPLAYBPM:194.000000;
#BPMS:0.000000=194.000000
,270.000000=388.000000
,271.000000=194.000000
;
#STOPS:125.500000=0.619000,
270.000000=0.155000
;
#BGCHANGES:;
#KEYSOUNDS:;
#ATTACKS:;

//---------------dance-single - ----------------
#NOTES:
     dance-single:
     :
     Hard:
     12:
     0.594267,0.747822,0.257220,0.310438,0.017739,469.000000,440.000000,29.000000,35.000000,0.000000,0.000000,0.594267,0.747822,0.257220,0.310438,0.017739,469.000000,440.000000,29.000000,35.000000,0.000000,0.000000:
// measure 0
0000
0000
0000
0000
,  // measure 1
0000
0000
0000
0000
,  // measure 2
0000
0000
0000
0000
,  // measure 3
0000
0000
0000
0000
,  // measure 4
0000
0000
0000
0000
,  // measure 5
0000
0000
0000
0000
,  // measure 6
0000
0000
0000
0000
,  // measure 7
0000
0000
0000
0000
,  // measure 8
0200
0000
1000
0000
0010
0001
0000
0001
,  // measure 9
0000
1000
0301
0000
0010
0000
0110
0000
,  // measure 10
2000
0000
0001
0000
0010
0100
0000
0001
,  // measure 11
0000
0100
3010
0000
0001
0000
0011
0000
,  // measure 12
0020
0000
0100
0000
0001
1000
0000
1000
,  // measure 13
0000
0100
0031
0000
0100
0000
0101
0000
,  // measure 14
0002
0000
0010
0000
1000
0100
0000
0100
,  // measure 15
0000
0010
1003
0000
0100
0120
0000
0000
,  // measure 16
1030
0000
0100
0000
0010
0100
0010
0001
,  // measure 17
0000
1000
0001
1000
0000
0100
0001
0000
,  // measure 18
0100
0000
0010
0000
0100
1000
0010
1000
,  // measure 19
0000
0001
0100
0001
0000
0010
0010
0000
,  // measure 20
1000
0000
0010
0000
0100
0001
1000
0001
,  // measure 21
0000
0100
0010
1000
0000
0001
1000
0000
,  // measure 22
0001
0000
0010
0000
0100
1000
0001
0100
,  // measure 23
0000
0100
0010
0000
0001
0001
0001
0000
,  // measure 24
0020
0000
0031
1000
0000
0010
0000
2000
,  // measure 25
0000
0001
3010
0001
0000
0200
0000
1000
,  // measure 26
0301
0000
0100
0002
0000
0100
0013
1000
,  // measure 27
0020
0000
0130
1000
0000
0010
1002
0000
,  // measure 28
0010
0100
1000
0100
0003
0010
0000
0001
,  // measure 29
0000
1000
0100
0000
0010
0001
0010
0000
,  // measure 30
1000
0001
1000
0100
0000
0010
0000
0001
,  // measure 31
0000
1000
0010
0110
2000
0000
3010
0100
,  // measure 32
0000
0001
0000
0002
0000
0100
1003
0100
,  // measure 33
0000
0020
0000
0001
0130
0000
0001
0200
,  // measure 34
0000
0010
1300
0010
2000
0000
3001
0010
,  // measure 35
0000
0001
1200
0000
0010
0001
0010
1000
,  // measure 36
0300
0001
0000
0100
0000
1000
0010
0000
,  // measure 37
0100
0000
0100
0000
0001
0100
0010
0100
,  // measure 38
0000
1000
0000
0010
0100
0010
0001
0010
,  // measure 39
0100
0100
0000
0001
0200
0000
0000
0010
,  // measure 40
0320
0000
0001
0100
0031
0000
0000
0100
,  // measure 41
0100
1000
0100
0010
0002
0000
0000
0100
,  // measure 42
0203
0000
0010
1000
0310
0000
0000
0001
,  // measure 43
0001
0100
0010
0100
1000
0100
0010
0001
,  // measure 44
0000
0001
0100
0010
0100
1000
0000
1000
,  // measure 45
0010
0100
0001
0100
1000
0010
1000
0001
,  // measure 46
0000
0001
0010
1000
0010
0001
0000
0100
,  // measure 47
0001
1000
0100
0010
2000
0000
0000
0001
,  // measure 48
3200
0000
0010
0001
1300
0000
0000
1000
,  // measure 49
0001
0100
0010
0100
0002
0000
0000
1000
,  // measure 50
0023
0000
0100
0001
0130
0000
0000
1000
,  // measure 51
0010
0100
0001
1000
0010
1000
0010
0001
,  // measure 52
0000
0100
0010
0100
0001
1000
0000
0010
,  // measure 53
0100
0001
1000
0010
0001
1000
0100
0001
,  // measure 54
1000
0100
0010
1000
1000
1000
1001
0001
,  // measure 55
0001
0021
0000
0130
1000
0000
0100
0002
,  // measure 56
0000
0000
0003
0010
0100
1000
0000
0001
,  // measure 57
0000
0110
0000
0010
0100
0000
1000
0200
,  // measure 58
0000
0000
0300
0001
0010
0100
0000
0010
,  // measure 59
0000
0001
1000
0001
0100
0000
0010
1000
,  // measure 60
0000
0010
0000
0100
0000
1000
1010
0000
,  // measure 61
0000
0010
0100
0010
1000
0001
0000
0100
,  // measure 62
0000
0100
0001
0000
1000
0010
1000
0100
,  // measure 63
0001
0000
0011
0000
0001
0000
0100
2000
,  // measure 64
0000
0000
3000
0001
0100
0010
0000
0001
,  // measure 65
0000
1010
0000
0100
0010
0000
1000
0010
,  // measure 66
0000
0000
0100
0000
0001
0000
0100
0000
1000
0000
0000
1100
0000
0000
0100
0000
,  // measure 67
0000
0101
0000
0000
0010
0000
0100
0000
0100
0000
0000
0000
1010
0000
1000
0000
,  // measure 68
0000
0010
0000
0100
0000
0001
0100
0000
,  // measure 69
0001
0010
0100
0010
1000
0100
0010
0010
,  // measure 70
0000
0001
0010
0100
0200
0000
1000
0000
,  // measure 71
1300
0001
2020
0030
,  // measure 72
0001
0001
0100
0001
,  // measure 73
3100
0000
0001
0110
0000
0220
0000
0300
,  // measure 74
1000
0000
1000
0000
0130
0001
0000
1010
,  // measure 75
0000
1001
0000
0201
0000
0000
1300
0000
,  // measure 76
1000
0010
0100
0000
0001
1000
0010
0001
,  // measure 77
0000
0010
0010
0000
0001
1000
0010
0000
,  // measure 78
0100
0010
0001
0000
1000
0001
1000
0001
,  // measure 79
0100
0010
0011
0000
1000
0010
1000
0000
,  // measure 80
0100
0000
0000
0010
0000
0000
1000
0000
0000
0000
0001
0000
0010
0000
0001
0000
,  // measure 81
0000
0010
0100
0010
0010
0000
1000
0000
,  // measure 82
0001
0000
0000
0100
0000
0000
0010
0000
0000
0000
0010
0000
0001
0000
1000
0000
,  // measure 83
0000
0100
0010
0000
1000
0000
0001
0100
,  // measure 84
0000
1000
0100
0000
0001
0010
0000
1000
,  // measure 85
0010
0100
0010
0000
0011
0000
1010
0000
,  // measure 86
1100
0000
0101
0000
0100
0001
0100
0010
,  // measure 87
1000
0001
0001
0000
0100
0010
0001
1000
,  // measure 88
0000
0100
0000
0011
0000
0100
1001
0000
;

//---------------dance-single - ----------------
#NOTES:
     dance-single:
     :
     Challenge:
     18:
     0.857822,1.298850,0.656354,0.461222,0.408004,677.000000,603.000000,74.000000,52.000000,0.000000,0.000000,0.857822,1.298850,0.656354,0.461222,0.408004,677.000000,603.000000,74.000000,52.000000,0.000000,0.000000:
0000
0000
0000
0000
,
0000
0000
0000
0000
,
0000
0000
0000
0000
,
0000
0000
0000
0000
,
0000
0000
0000
0000
,
0000
0000
0000
0000
,
0000
0000
0000
0000
,
0000
0000
0000
0000
,
0010
0100
0010
1100
0000
0001
0000
1010
,
0000
1000
0110
0002
0203
2300
3200
0320
,
1030
0001
1000
1010
0000
0100
0000
1001
,
0000
0100
1100
0020
0230
0320
2030
3002
,
0013
0100
0001
1001
0000
0010
0000
0110
,
0000
0100
0011
2000
3200
0320
0230
0302
,
1003
0100
0010
0011
0000
0100
0000
1001
,
0000
0010
0010
0200
2300
0040
0000
3000
,
0130
0010
0001
1000
0000
0010
0100
0010
,
0000
0001
1000
0010
0000
0001
0100
0001
,
1000
0010
1000
0100
0000
0010
0001
0010
,
0000
0100
1000
0100
0000
0010
0010
0001
,
1000
0100
0010
0100
0000
0010
0100
1000
,
0000
0001
0100
0010
0000
1000
0100
1000
,
0001
0010
1000
0010
0000
1000
0010
0100
,
0000
0010
1000
0001
0000
1000
1000
0010
,
0110
0000
0010
1000
0000
0001
0000
1010
,
0000
0100
0010
0100
0000
0011
0000
0010
,
0100
0000
1000
1100
0000
0100
0001
0100
,
1010
0000
0010
1000
0000
0001
2001
0000
,
0010
0100
0010
0001
0000
0100
0000
0010
,
0000
3010
0001
0200
2300
3200
0320
0230
,
0301
1000
0010
0110
0000
1000
0000
1001
,
0000
0010
1000
0110
0011
0000
0100
1000
,
0000
0010
0000
0011
0000
1000
0010
1000
,
0000
1100
0000
0001
0100
0000
1000
0101
,
0000
0010
0001
0100
1001
0000
0100
0001
,
0000
0100
0120
0000
1000
0100
0001
0100
,
0000
1000
0000
0001
0000
1030
0100
0020
,
0032
2003
3200
2300
3001
0010
1000
0001
,
0000
0110
0000
1000
0100
0010
0100
0001
,
0010
0010
0000
0010
2200
0000
3300
0001
,
0201
0000
0010
1000
0002
0000
0003
1000
,
1300
1000
0100
0010
0202
0000
0303
1000
,
1002
0000
0010
0100
0020
0000
0030
0100
,
0103
1000
0010
0001
0100
0010
0100
0110
,
0000
0001
1000
0010
0001
0011
0000
0100
,
1000
0001
0010
0001
0100
0010
1000
1010
,
0000
1000
0001
1000
0010
0101
0000
0010
,
0001
0010
0100
0010
2002
0000
3003
0100
,
2100
0000
0001
0100
0020
0000
0030
0001
,
3010
0010
0001
0100
0022
0000
0033
1000
,
1020
0000
1000
0100
2000
0000
3000
0001
,
0031
0001
1000
0100
0010
0100
0001
0010
,
0000
1000
0010
0100
0010
0100
0000
0001
,
1000
0010
0100
0001
0010
0100
1000
0100
,
1000
0000
0001
0000
0100
0000
0010
0001
0010
0100
1000
0100
1000
0000
0001
1000
,
0010
0200
0020
0000
0330
0000
1000
0000
0010
0000
0000
0001
0010
0000
0200
0000
,
0000
0000
0300
0010
1000
0100
0000
0011
,
0000
0000
0101
0000
0000
0000
1000
0000
0010
0000
0000
1000
0100
0000
2000
0000
,
0000
0000
0000
3000
0000
0000
1000
0000
0100
0000
0010
0000
0000
0000
0110
0000
,
0000
1100
0100
0010
0001
0000
0010
0001
,
0000
1000
0000
0010
0000
0100
0110
0000
,
0001
0010
0001
0010
0100
0001
0000
0101
,
0000
0000
0100
0000
1001
0000
1000
0100
1000
0000
0100
0001
0100
0000
0010
1000
,
0010
0000
0100
0000
1100
0000
0010
0000
0001
0000
0000
0100
1000
0000
0002
0000
,
0000
0000
0003
1000
0100
0001
0000
1010
,
0000
0000
0101
0000
0000
0000
0100
0000
0010
0000
1000
0100
1000
0000
0001
0000
,
0100
0001
0100
0000
0001
0000
0100
0000
1100
0000
0000
0101
0000
0000
1010
0000
,
0000
0011
0000
0000
1001
0000
0110
0000
0110
0000
0000
0000
1100
0000
0100
0000
,
0000
0010
0000
0100
0000
0010
1010
0000
,
0001
0010
0100
0010
0002
1000
0010
1000
,
0003
0010
1000
0100
0200
0000
0010
0000
,
0001
0010
0310
0000
1000
0100
1000
0010
,
0100
0000
0001
0010
0000
1000
0100
1000
0010
0100
0010
1000
0100
0010
1000
0100
,
0001
0000
0010
1000
0001
0100
1000
0100
0010
0000
0100
0000
1000
0000
0010
0000
,
0001
0000
0010
0001
0000
0100
1000
0010
1000
0100
0010
1000
0001
1000
0100
0001
,
0000
0000
0100
0010
1000
0000
0001
0000
0010
0001
0010
0000
0100
0000
1000
0100
,
1000
0000
0100
0000
0001
0100
0001
0000
0010
0000
0100
0010
0100
0000
1000
0000
,
0001
1000
0100
0010
0001
1000
0100
0010
1000
0000
0010
1000
0010
0000
0010
0000
,
0001
0100
0001
0000
0001
0010
0100
1000
0010
1000
0100
0010
0100
0010
1000
0001
,
0010
0100
1000
0100
1001
0000
0000
0000
0100
0000
1000
0000
0100
0000
0010
0000
,
1000
0000
0001
0010
0000
0100
0010
0100
0010
1000
0001
0100
1000
0100
0010
1000
,
0100
0000
0100
0001
1000
0010
1000
0010
0001
0100
1000
0010
0100
0010
0100
1000
,
0001
0000
1000
0010
0000
0010
1000
0001
0100
0010
0001
1000
0100
1000
0100
0010
,
0001
0100
1000
0100
0010
1000
0001
0100
1000
0010
1000
0000
0110
0000
0001
1000
,
0001
0000
1010
0000
0010
1000
0010
0000
0110
0000
0100
0001
0100
0000
1001
0000
,
0010
1000
0100
1000
0010
0001
1000
0100
0011
0000
0011
0000
1100
0000
1100
0000
,
0101
0000
0101
0000
0110
0000
0110
0000
0001
0100
0010
0100
0001
1000
0001
0100
,
1000
0010
1000
0100
0001
0010
1000
0001
0010
0000
1000
0000
0100
0000
1100
0000
,
0000
0010
0000
0110
0000
0001
1010
0000
;

//---------------dance-single - ----------------
#NOTES:
     dance-single:
     :
     Medium:
     10:
     0.508104,0.551027,0.230611,0.310438,0.000000,401.000000,375.000000,26.000000,35.000000,0.000000,0.000000,0.508104,0.551027,0.230611,0.310438,0.000000,401.000000,375.000000,26.000000,35.000000,0.000000,0.000000:
0000
0000
0000
0000
,
0000
0000
0000
0000
,
0000
0000
0000
0000
,
0000
0000
0000
0000
,
0000
0000
0000
0000
,
0000
0000
0000
0000
,
0000
0000
0000
0000
,
0000
0000
0000
0000
,
0010
0000
1010
0000
1000
0000
0001
0100
,
0000
0100
0001
0000
1000
0001
1000
0000
,
0001
0000
0101
0000
0100
0000
0010
0001
,
0000
0001
0010
0000
0100
0001
0100
0000
,
1000
0000
1001
0000
0001
0000
1000
0010
,
0000
0010
1000
0000
0001
0010
0001
0000
,
0100
0000
0110
0000
0010
0000
0100
1000
,
0000
1000
0100
0000
1001
0000
1001
0000
,
2000
0000
0010
0000
3001
0000
0001
0010
,
0000
0100
0000
0010
0001
0000
1000
0000
,
0020
0000
0100
0000
1030
0000
0100
0001
,
0000
0010
0000
0100
0010
0000
1000
0000
,
0002
0000
0010
0000
0103
0000
1000
0010
,
0000
0001
0000
0100
0010
0000
0001
0000
,
0200
0000
0001
0000
0310
0000
0100
0001
,
0000
0010
0000
1000
0100
1000
0001
0000
,
0110
0000
0001
0000
0010
0000
0100
1000
,
0000
0100
1000
0000
0001
0000
0001
0000
,
0100
0000
1000
0000
0100
0000
0010
0001
,
0000
0010
0001
0000
0100
0000
0110
0000
,
2000
0000
0000
0001
0000
0001
0000
0010
,
3000
0001
1000
0000
0100
0000
0100
0000
,
0001
0000
0100
0001
0000
0010
0000
0001
,
0000
1000
0100
1000
0011
0000
1000
0000
,
0001
0000
0100
0010
0000
0100
0010
0000
,
0001
0001
1000
0100
,
0010
0000
1000
0001
0000
1000
0001
0000
,
0010
0000
0011
0000
0200
0000
0000
1000
,
0000
1000
0000
0001
0300
1000
0010
0000
,
1000
0000
1000
0000
0010
0000
1000
0100
,
0000
0001
0000
0100
0010
0000
0001
0000
,
1000
0100
1000
0000
0202
0000
0303
0000
,
0100
0000
1000
0000
0001
0000
0010
0100
,
0010
0010
2002
3003
,
0100
0000
0010
0000
0010
0000
1000
0001
,
1000
0110
0020
0001
,
0130
0000
0020
0000
1000
0030
0100
0000
,
1000
0001
1000
0000
0200
0000
0001
0000
,
1300
0200
1000
0310
,
0010
1000
0010
0000
2200
0000
3300
0000
,
0001
0000
0100
0000
0010
0000
1000
0100
,
1000
1000
0022
0033
,
0100
0000
0010
0000
1000
0000
0010
0001
,
0010
0011
2000
0010
,
3001
2000
0010
3100
,
0010
0100
0010
0000
0200
0000
0310
0000
,
0020
0000
0031
0000
1000
0001
0100
0001
,
0010
1001
0001
0010
,
1000
0010
1000
0000
0100
0000
0100
0001
,
0000
0001
0100
0000
0001
0000
0010
0000
,
0100
0010
0100
0000
1000
0000
1000
0100
,
0000
0100
1000
0000
0001
0000
1000
0000
,
0001
0010
0000
0100
0000
0010
0001
0000
,
0100
0100
0001
0011
,
0010
0000
1010
0000
1000
0000
0100
0010
,
0001
0100
1000
0000
0010
0000
0100
0000
,
0001
0100
0001
0000
0010
0000
0010
1000
,
0000
1000
0010
0000
0001
0000
1000
0000
,
0100
0010
0100
0000
0002
0000
0203
0000
,
0320
0000
2030
0001
3001
0000
0110
0000
,
0010
0001
0010
0000
1000
0000
1000
0001
,
0000
0001
1000
0000
0100
0000
0100
0001
,
0010
0000
0010
0100
1000
0100
1000
0000
,
1001
0110
0020
0030
,
0100
0100
1000
0001
,
0010
0000
1000
0100
0000
0200
0000
0300
,
0010
0000
0001
0000
0010
0001
0000
0100
,
0000
1000
0000
0021
0000
0000
1030
0000
,
0100
1000
0010
0100
,
0100
0001
0001
0000
0010
0000
1000
0000
,
0010
0000
0001
0000
0100
0000
0100
1000
,
0100
0001
0010
0000
2002
0000
3003
0000
,
0010
0000
0100
0000
0001
0010
0001
0000
,
0100
0000
1000
0000
0001
0100
0001
0000
,
0010
0000
0100
1000
0000
1000
0001
0000
,
1000
0100
1000
0000
0001
0000
0001
0100
,
0000
0100
0010
0000
0010
1000
0000
1000
,
0100
0001
0200
2300
,
3020
0000
0032
0000
0103
0010
0100
0010
,
1000
1001
0010
0001
,
0010
0100
0000
1000
0000
0010
0110
0000
;

//---------------dance-single - ----------------
#NOTES:
     dance-single:
     :
     Easy:
     6:
     0.318040,0.354232,0.115305,0.150784,0.000000,251.000000,238.000000,13.000000,17.000000,0.000000,0.000000,0.318040,0.354232,0.115305,0.150784,0.000000,251.000000,238.000000,13.000000,17.000000,0.000000,0.000000:
0000
0000
0000
0000
,
0000
0000
0000
0000
,
0000
0000
0000
0000
,
0000
0000
0000
0000
,
0000
0000
0000
0000
,
0000
0000
0000
0000
,
0000
0000
0000
0000
,
0000
0000
0000
0000
,
0200
0300
1000
0010
,
1000
1000
0100
0000
,
0020
0030
0001
0100
,
1000
0100
0010
0000
,
2000
3000
0100
0100
,
0001
0100
0010
0000
,
0002
0003
0010
1000
,
1000
0000
0110
0000
,
0100
0000
0010
1000
,
0001
1000
0010
0000
,
0001
0000
0100
0010
,
0001
0100
0010
0000
,
1000
0000
0010
0001
,
0010
1000
0100
0000
,
0001
0000
0100
0010
,
1000
1000
0010
0000
,
1001
0000
0010
0000
,
0100
0100
1000
0000
,
0010
0001
0100
1000
,
0100
0000
0100
0000
,
0010
1000
0100
0000
,
1000
0001
1000
0000
,
0100
0010
0100
0001
,
1000
0000
0110
0000
,
1000
0010
1000
0010
,
0001
0000
1000
0010
,
0100
1000
0010
0000
,
0010
0000
0001
0100
,
0001
0000
0010
0100
,
0010
0000
0001
0100
,
0010
0100
1000
0000
,
1001
0000
0002
0000
,
0003
0010
0100
0010
,
1000
0000
2000
0000
,
3000
0001
0010
0100
,
0010
0000
1000
0000
,
1000
0010
0000
0010
,
0001
0010
0001
0000
,
0001
0100
0000
0100
,
1000
0100
2000
0000
,
3000
0010
0100
0100
,
0001
0000
0020
0000
,
0030
0001
0010
1000
,
1000
0000
0110
0000
,
0010
1000
0000
1000
,
0100
0100
0010
0001
,
1000
0100
2002
0000
,
0000
3003
0010
0000
,
0010
0100
1000
0100
,
0001
0000
1000
0000
,
1000
0100
0010
0001
,
0001
0000
0100
0000
,
0100
0010
1000
0100
,
0001
0000
0001
1000
,
0001
0100
0100
0000
,
1001
0000
0100
0010
,
0001
0000
1000
0010
,
0100
0000
0010
0001
,
0010
0100
0001
0100
,
1000
1000
0000
0100
,
0010
0100
0010
0001
,
1000
0000
0100
0000
,
0010
0001
0100
0010
,
0001
0000
2002
3003
,
0001
0000
0100
1000
,
0100
0000
0110
0000
,
1000
0010
1000
0010
,
0010
0000
0002
0003
,
0001
0100
0020
0030
,
0001
0100
0200
0300
,
1000
0010
1000
0010
,
0002
0003
1001
0000
,
0001
0100
1000
0010
,
1000
0000
0100
0010
,
0100
1000
0100
0001
,
0001
0000
0010
0000
,
0110
0000
1000
0000
,
1001
0000
0001
0100
,
1000
0100
0020
0000
,
1000
1030
0100
0000
,
0001
0100
0100
1001
;
