#TITLE:bluemoon;
#SUBTITLE:;
#ARTIST:Hideyuki Ono;
#TITLETRANSLIT:;
#SUBTITLETRANSLIT:;
#ARTISTTRANSLIT:;
#GENRE:;
#CREDIT:;
#MUSIC:bluemoon.ogg;
#BANNER:bluemoon.png;
#BACKGROUND:bluemoon-bg.png;
#CDTITLE:;
#SAMPLESTART:14.218;
#SAMPLELENGTH:13.714;
#SELECTABLE:YES;
#OFFSET:-0.557;
#BPMS:0.000=140.000;
#STOPS:125.250=0.857;
#ORIGIN:;
#PREVIEWVID:;
#JACKET:;
#CDIMAGE:;
#DISCIMAGE:;
#BGCHANGES:0.000=bluemoon.avi=1.000=0=0=0=StretchNoLoop====,
99999.000=-nosongbg-=1.000=0=0=0=StretchNoLoop====
;
#FGCHANGES:;

//--------------- dance-single - ----------------
#NOTES:
     dance-single:
     :
     Beginner:
     2:
     0.121789,0.165996,0.049184,0.114763,0,104,98,6,14,0,0,0,0,0,0.121789,0.165996,0.049184,0.114763,0,104,98,6,14,0,0,0,0,0:
0000
0000
0000
0000
,
0000
0000
0000
0000
,
0000
0000
0000
0000
,
0000
0000
0000
0000
,
0100
0000
0000
0000
,
0100
0000
0000
0000
,
0010
0000
0000
0000
,
0010
0000
0000
0000
,
2000
0000
0000
0000
,
3000
0000
0001
0000
,
0001
0000
0000
0000
,
1000
0000
0000
0000
,
0020
0000
0000
0000
,
0030
0000
0100
0000
,
0100
0000
0000
0000
,
0010
0000
0000
0000
,
1000
0000
1000
0000
,
0001
0000
0001
0000
,
1000
0000
0001
0000
,
2002
0000
3003
0000
,
0010
0000
0010
0000
,
0100
0000
0100
0000
,
0001
0000
0001
0000
,
1000
0000
1000
0000
,
0020
0000
0000
0000
,
0030
0000
0000
0000
,
2000
0000
0000
0000
,
3000
0000
0000
0000
,
0200
0000
0000
0000
,
0300
0000
0000
0000
,
0002
0000
0000
0000
,
0003
0000
0010
0000
,
0010
0000
0100
0000
,
0100
0000
0010
0000
,
0100
0000
0010
0000
,
0100
0000
0001
0000
,
0001
0000
1000
0000
,
1000
0000
0001
0000
,
1000
0000
0001
0000
,
1000
0000
1001
0000
,
0000
0000
0110
0000
,
0000
0000
1001
0000
,
0000
0000
0010
0010
,
0010
0000
0100
0000
,
0100
0000
0010
0000
,
0010
0000
0100
0000
,
0010
0000
0100
0000
,
0010
0000
2000
0000
,
3000
0000
1000
0000
,
1000
0000
0002
0000
,
0003
0000
0001
0000
,
0001
0000
0220
0000
,
0330
0000
0100
0000
,
0100
0000
0010
0000
,
0010
0000
0100
0000
,
0010
0000
1000
0000
,
1000
0000
0001
0000
,
0001
0000
1000
0000
,
0001
0000
1000
0000
,
0001
0000
0200
0000
,
0300
0000
0200
0000
,
0300
0000
0010
0000
,
0100
0000
0010
0000
,
0010
0000
1000
1000
,
1000
0000
0001
0000
,
1000
0000
0001
0000
,
0001
0000
0100
0000
,
0010
0000
1001
0000
;

//--------------- dance-single - ----------------
#NOTES:
     dance-single:
     :
     Easy:
     5:
     0.238894,0.248994,0.073776,0.409866,0,204,195,9,50,0,0,0,0,0,0.238894,0.248994,0.073776,0.409866,0,204,195,9,50,0,0,0,0,0:
0000
0000
0000
0000
,
0000
0000
0000
0000
,
0000
0000
0000
0000
,
0000
0000
0000
0000
,
0010
0001
0020
0030
,
0100
0001
0200
0300
,
0010
0010
2000
3000
,
0001
0001
2000
3000
,
0220
0030
0010
0000
,
0010
0300
1000
0001
,
2000
3000
0200
0300
,
0010
0001
2000
3000
,
2002
3000
1000
0000
,
1000
0003
0010
0100
,
0020
0030
0002
0003
,
0100
0010
0200
0300
,
1000
1000
0001
0001
,
0010
0100
0010
0100
,
0002
0003
0200
0300
,
0010
0010
0020
0030
,
1000
0001
2000
3000
,
0100
1000
0200
0300
,
0001
0010
0002
0003
,
0010
1000
0020
0030
,
0110
0000
0001
1000
,
0010
0010
0100
0000
,
1001
0000
0100
0001
,
1000
1000
0010
0000
,
0110
0000
0100
0001
,
1000
0010
0001
0000
,
1001
0000
0100
1000
,
0010
0010
0200
0300
,
0001
0010
0020
0030
,
1000
0100
0200
0300
,
0001
1000
0100
0010
,
2000
3000
0100
1000
,
0100
0010
0100
0100
,
0001
1000
0002
0003
,
0020
0030
0100
0001
,
0020
0030
2000
0000
,
0100
3000
0002
0000
,
0010
0003
0100
1000
,
0010
0010
0001
1000
,
2002
3003
0010
0010
,
0001
0001
0100
0001
,
1000
1000
0020
0130
,
0200
0301
0010
1000
,
0020
0030
0200
0000
,
0001
0300
0010
0001
,
0010
0100
2000
0000
,
0001
3000
0100
0001
,
0100
1000
0020
0030
,
0200
0300
0002
1000
,
1000
0003
1000
0100
,
0001
0100
0010
0010
,
1000
0001
2000
3000
,
0200
0300
0002
0003
,
0020
0030
0100
1000
,
0010
1000
0001
0010
,
0100
0000
0220
0330
,
0001
1000
0001
0001
,
0020
0030
0100
0001
,
0100
0010
1000
0100
,
0002
0003
1000
0100
,
1000
0010
0001
0001
,
0200
0300
0010
0001
,
1000
0010
0100
0100
,
0200
0300
1001
0000
;

//--------------- dance-single - ----------------
#NOTES:
     dance-single:
     :
     Medium:
     9:
     0.384103,0.41499,0.131157,0.401669,0.032789,328,312,16,49,0,0,0,0,0,0.384103,0.41499,0.131157,0.401669,0.032789,328,312,16,49,0,0,0,0,0:
0000
0000
0000
0000
,
0000
0000
0000
0000
,
0000
0000
0000
0000
,
0000
0000
0000
0000
,
0100
0000
0001
0000
1000
0000
0001
0010
,
1000
0000
0100
0000
1000
0000
0010
1000
,
0100
0000
0001
1000
0001
0000
0100
0010
,
1000
0010
0001
0000
1000
1000
0100
0000
,
2002
0003
0010
0010
,
0020
0000
0000
0000
3030
0000
0100
0000
1000
0000
0000
0000
0001
0000
0000
0100
,
0000
0020
0000
0000
1000
0000
1030
0000
,
0001
0000
0001
1000
0100
1000
0010
0000
,
2020
3000
0001
0001
,
0002
0000
0000
0000
0033
0000
1000
0000
0100
0000
0000
0000
0001
0000
0000
0100
,
0000
2000
0000
0000
0100
0000
3100
0000
,
0010
0000
0010
0001
0100
0001
1000
0000
,
0010
0000
1000
0000
0100
0000
1000
0100
,
0000
0001
0000
0101
0000
0001
0100
0000
,
0010
0000
0010
1000
0000
1000
0100
0000
,
0001
1000
0001
1000
0100
0000
0110
0000
,
0002
1000
0100
1003
,
0020
0100
0001
0130
,
2000
0010
0001
3010
,
0200
0001
1000
1300
,
0022
0030
0200
0300
,
1000
1000
2000
3003
,
0200
0001
0010
1000
,
0010
0010
0020
0330
,
0002
0103
2000
3100
,
0020
2030
3200
0302
,
0013
1000
0010
0000
0001
0100
0001
0010
,
0000
0000
0000
0000
0000
0000
0000
0000
0000
0000
0000
0000
0001
0000
0000
0000
0000
0000
0000
0000
0000
0000
0000
0000
0000
0000
0000
0000
0000
0000
0000
0000
0000
0000
0000
0000
1000
0000
0000
0000
0000
0000
0000
0000
0000
0000
0000
0000
0000
0000
0000
0000
0000
0000
0000
0000
0000
0000
0000
0000
2002
3003
0000
0000
0000
0000
0000
0000
0000
0000
0000
0000
0000
0000
0000
0000
0000
0000
0000
0000
0000
0000
0000
0000
0000
0000
0000
0000
0000
0000
0000
0000
0000
0000
0000
0000
0010
0000
0000
0000
0000
0000
0000
0000
0000
0000
0000
0000
0000
0000
0000
0000
0000
0000
0000
0000
0000
0000
0000
0000
0000
0000
0000
0000
0000
0000
0000
0000
0000
0000
0000
0000
0000
0000
0000
0000
0000
0000
0000
0000
0000
0000
0000
0000
0100
0000
0000
0000
0000
0000
0000
0000
0000
0000
0000
0000
0000
0000
0000
0000
0000
0000
0000
0000
0000
0000
0000
0000
0000
0000
0000
0000
0000
0000
0000
0000
0000
0000
0000
0000
0000
0000
0000
0000
0000
0000
0000
0000
0000
0000
0000
0000
,
1000
0000
0100
1000
0100
0000
0001
1000
,
0001
0100
0010
0000
0100
0010
1000
0010
,
0001
0000
1000
0010
0100
0000
0001
0100
,
0001
0100
1000
0000
0010
0000
0011
0000
,
1000
0000
1100
0000
0010
0100
0010
0001
,
0100
0000
0110
0000
0100
0001
0010
0000
,
0010
1000
0001
0000
1000
1000
0100
0100
,
0001
1001
0200
1000
,
1000
0310
2000
0100
,
0100
0000
0000
0000
3001
0000
0000
0000
0010
0000
0000
0100
0000
0010
0000
0000
,
2000
0000
0000
0002
0000
0000
3003
0000
0010
0000
0100
0000
0010
0000
1000
0000
,
2020
0000
3030
0000
1000
0100
1000
0000
,
0100
0001
0100
0000
0010
0001
1000
0001
,
0100
0010
0010
0000
0200
0000
0310
1000
,
0002
0000
0103
1000
0100
0001
0010
0000
,
0001
0100
0001
0000
0200
0000
0000
0000
,
0301
1000
0010
0010
,
0100
0000
0100
1000
0020
0000
0000
0000
,
1030
0001
2000
3200
,
2300
3001
0220
0030
,
0002
0003
1000
0001
,
1000
1300
0020
1030
,
0200
0000
1300
0000
0001
0010
0001
0010
,
1000
0100
0010
0000
0200
0000
0301
0010
,
0200
0000
0310
1000
0001
0100
1000
0000
,
1000
0001
0010
0000
1000
0000
0100
0100
,
0001
0000
0010
0010
1000
0010
0100
0001
,
1000
1100
2002
3003
,
0100
0000
0001
0000
0001
0000
1000
0100
,
1000
0010
0100
0000
0010
0000
0010
0100
,
0001
0000
0001
1000
0100
0010
0100
0000
,
1000
0001
1000
0000
0100
1000
0100
0001
,
0100
0010
0200
0000
0301
0000
1000
0000
,
0001
0000
0011
0000
1000
0000
1000
0010
,
0001
0000
0001
0010
0100
0000
0100
0001
,
0100
0010
1000
0000
0110
0000
0000
0000
;

//--------------- dance-single - ----------------
#NOTES:
     dance-single:
     :
     Hard:
     12:
     0.471932,0.663983,0.221328,0.254117,0.286906,403,376,27,31,0,0,0,0,0,0.471932,0.663983,0.221328,0.254117,0.286906,403,376,27,31,0,0,0,0,0:
0000
0000
0000
0000
,
0000
0000
0000
0000
,
0000
0000
0000
0000
,
0000
0000
0000
0000
,
1000
0000
0100
0000
1000
0000
0100
0000
0010
0000
0000
0001
0000
0000
0000
0000
,
0010
0000
0100
0000
0010
0000
0100
0000
0001
0000
0000
1000
0000
0000
0000
0000
,
0001
0000
1000
0000
0001
0000
0010
0000
0001
0000
0000
0100
0000
0000
0000
0000
,
0100
0000
0001
0000
0100
0000
1000
0000
0100
0000
0000
0010
0000
0000
0000
0000
,
2020
0030
0010
0010
,
0100
0000
0000
0000
3010
0000
0001
0000
0001
0000
0100
0000
0001
0010
0000
2000
,
0000
0200
3000
0300
0010
0000
0001
0000
,
1000
0000
0010
0000
0100
0000
0010
0000
1000
0000
0000
0100
0000
0000
0000
0000
,
0022
0003
0001
1000
,
0001
0000
0000
0000
0130
0000
1000
0000
0100
0000
0001
0000
0001
0010
0000
2000
,
0000
0002
3000
0003
0100
0000
1000
0000
,
1000
0000
0001
0000
0001
0000
1000
0000
0010
0000
0000
0001
0000
0000
0000
0000
,
1001
0000
0000
0000
0000
0000
0000
0000
0001
0000
0000
0000
0000
0000
0000
0001
0000
0000
0000
0000
0000
0000
0000
0000
0010
0000
0000
0000
0000
0000
0000
0000
0100
0000
0000
0000
0000
0000
0000
0000
0000
0000
0101
0000
0000
0000
0000
0000
,
0000
1010
0000
1100
0000
0010
1000
0010
,
0200
0000
0300
0002
0000
0010
0103
0010
,
1000
1000
0100
0100
1100
0000
1001
0000
,
0000
0000
0100
0000
0000
0100
0000
0000
0010
0000
0000
0011
0000
0000
0000
0000
,
0000
0000
1000
0000
0000
1000
0000
0000
0100
0000
0000
0110
0000
0000
0000
0000
,
0000
0000
0010
0000
0000
0001
0000
0000
0010
0000
0000
1100
0000
0000
0000
0000
,
0000
0000
0100
0000
0000
1000
0000
0000
1000
0000
0001
0000
0001
0010
1000
0000
,
0022
0000
0000
0000
0033
0000
0000
0000
0010
0000
0000
1000
0000
0000
0001
0000
,
0200
0000
0000
0020
0000
0000
0300
0030
,
0100
0000
0000
0000
1000
0000
1000
0000
0001
0000
0000
1000
0000
0000
0010
0000
,
2000
0000
0000
0000
3000
0000
0010
0001
0020
0000
0000
0000
0030
0000
0000
0000
,
0100
0000
1000
0000
0010
0000
0000
0000
0002
0000
0000
0100
0003
0000
1000
0000
,
0200
0000
0000
1000
0300
0000
0010
0000
0200
0000
0000
0001
0000
0000
0300
0000
,
1000
0000
0000
0000
0001
0000
0100
0000
0100
0000
0000
0010
0000
0000
1000
0000
,
0000
0000
1001
0000
0000
0000
1001
0000
0000
0000
2002
3003
0000
0000
0000
0000
0001
0000
0000
0000
0010
0000
0000
0000
0100
0000
0000
0000
0001
0000
0000
0000
,
0100
0000
0000
0010
0000
0000
1000
0000
1000
0000
0100
0000
1000
0000
0010
0000
,
0100
0000
0000
0001
0000
0000
0010
0000
0100
0000
0010
0000
0001
0000
1000
0000
,
0001
0000
0000
1000
0000
0000
0100
0000
0100
0000
0100
0000
0001
0000
0010
0000
,
0001
0000
0000
0100
0000
0000
0000
0000
0010
0000
0000
0010
0000
0000
0100
0000
,
0010
0000
0100
0000
1000
0000
0001
0000
0010
0000
0000
1000
0000
0000
0100
0000
,
0100
0000
0001
0000
0100
0000
0000
0000
1000
0000
0000
1000
0000
0000
0100
0000
,
0010
0000
0001
0000
0010
0000
0100
0000
0010
0000
0000
0001
0000
0000
0100
0000
,
1000
0000
0000
1010
0000
0000
0000
0000
0000
0100
0010
0100
,
0010
0001
0010
0100
1000
0001
0010
0100
0010
0001
0010
0100
,
1000
0000
0000
0000
0100
0000
0000
0000
0010
0000
0000
0000
1000
0000
0000
0000
0010
0000
0000
0000
1000
0000
0000
0000
0001
0000
0000
0000
0000
0000
0001
0000
0000
0010
0000
0000
0000
0000
0000
0100
0000
0000
0000
0000
0000
0000
0000
0000
,
1000
0000
0000
0100
0000
0000
0001
0000
0010
0000
0010
0000
0100
0000
0100
0000
,
0110
0000
0000
0000
1010
0000
0000
0000
0100
0000
0010
0000
0100
0001
0000
0000
,
0001
0000
0001
0000
1000
0001
0000
0000
0010
0000
0100
0000
1000
0000
0010
0000
,
0001
0000
0100
0000
1000
0010
0000
0000
0100
0000
0100
0000
1000
0000
0100
0000
,
0010
0001
0010
0100
0000
0100
0010
0001
,
0100
1000
0001
0000
2020
0000
3030
0000
,
0010
0000
0000
0001
0000
0100
0000
0000
0010
0000
0100
0000
0000
0000
1001
0000
,
0000
0000
0100
0000
0001
0000
0010
0000
0200
0000
0000
2000
0000
0000
0300
0000
,
0010
0000
3010
0002
0000
1000
1003
0100
,
0010
0100
0001
0120
0000
0000
0001
0000
,
1000
1000
1030
0000
0010
1000
0100
1000
,
0010
0001
0010
0000
0100
0010
0001
0000
,
0001
0100
1000
0000
0010
1000
0100
1000
,
0100
0000
0011
0000
0100
0010
0001
0010
,
1000
0100
0010
0000
0010
0001
0010
1000
,
0010
0100
1000
0000
0100
0100
1100
0000
,
0010
0010
1010
0000
0010
0100
0010
0001
,
1000
0000
0000
0100
0000
0010
0000
0000
0022
0000
0000
0000
0030
0000
0000
0000
,
0100
0000
0000
0100
0003
0000
0100
0000
0010
0000
0001
0000
1000
0000
0001
0000
,
0100
0000
0000
0010
0000
0000
0000
0000
0010
0000
0100
0000
0010
0000
0100
0000
,
0010
0001
0010
0100
1000
0000
0100
1000
,
0000
0000
0010
0000
1000
0000
0000
0000
0001
0010
0000
0100
0000
0010
0000
1000
,
0000
0100
0000
0000
2000
0000
0000
0000
3001
0000
0000
0000
0010
0000
0001
0000
,
0020
0000
0000
0100
0000
0000
0030
0000
1000
0000
0100
0000
1000
0000
0001
0000
,
0010
0100
0001
0000
0100
0000
0100
1000
,
0000
0101
1001
0000
;

//--------------- dance-single - ----------------
#NOTES:
     dance-single:
     :
     Challenge:
     14:
     0.452024,0.719315,0.21313,0.319696,0.487741,386,360,26,39,52,0,9,0,0,0.452024,0.719315,0.21313,0.319696,0.487741,386,360,26,39,52,0,9,0,0:
0000
0000
0000
0000
,
0000
0000
0000
0000
,
0000
0000
0000
0000
,
0000
0000
0000
0000
,
MMMM
0000
0001
0000
0000
0001
0000
0000
1000
0000
0000
0001
0000
0000
0000
0000
,
MMMM
0000
0100
0000
0000
0100
0000
0000
0010
0000
0000
0100
0000
0000
0000
0000
,
MMMM
0000
1000
0000
0000
1000
0000
0000
0100
0000
0000
1000
0000
0000
0000
0000
,
MMMM
0000
0010
0000
0000
0010
0000
0000
1000
0000
0000
0010
0000
0000
0000
0000
,
0220
0000
0000
0000
,
0030
0000
0000
0000
0300
0000
0001
0000
0100
0000
0001
0000
0010
0100
0000
1000
,
0000
1001
0000
0000
0100
0000
0010
0000
,
0100
0001
1000
0010
,
2200
0000
0000
0000
,
0300
0000
0000
0000
3000
0000
0010
0000
1000
0000
0100
0000
1000
0001
0000
0100
,
0000
0110
0000
0000
0001
0000
1000
0000
,
0010
0100
0010
0001
,
0100
0000
0000
0000
0000
0000
0000
0000
1000
0000
0000
0000
0000
0000
0000
0001
0000
0000
0000
0000
0000
0000
0000
0000
0010
0000
0000
0000
0000
0000
0000
0000
0100
0000
0000
0000
0000
0000
0000
0000
0000
0000
1002
0000
0000
0000
0000
0000
,
0000
0023
0000
0230
0000
1300
0001
0100
,
0020
0000
0000
0000
0030
0000
0001
0000
0000
0000
0100
0000
0100
0010
1000
0010
,
1000
1000
0001
0001
0202
0000
0303
0000
,
MMMM
0000
1000
0000
0000
1000
0000
0000
0100
0000
0000
1000
0000
0000
0000
0000
,
MMMM
0000
0010
0000
0000
0010
0000
0000
1000
0000
0000
0010
0000
0000
0000
0000
,
MMMM
0000
0100
0000
0000
0100
0000
0000
0010
0000
0000
0100
0000
0000
0000
0000
,
MMMM
0000
0001
0000
0000
0001
0000
0000
0100
0000
0010
0000
0010
1000
0100
0000
,
1200
0000
0000
0000
0010
0000
0000
0000
1300
0000
0000
0001
0000
0000
0100
0000
,
0020
0000
0100
2000
0000
0030
3001
1000
,
1000
0000
0000
0000
0010
0000
1000
0000
0001
0000
0000
0010
0000
0000
0100
0000
,
0002
0000
0000
0000
1003
0000
0100
1000
0200
0000
0000
0000
0310
0000
0001
0000
,
0001
0000
1000
0000
0100
0000
1000
0000
0010
0000
0000
0100
0010
0000
0001
0000
,
1000
0000
0000
0010
1000
0000
0100
0000
0001
0000
0000
0100
0001
0000
0010
0000
,
0010
0000
0100
0000
1000
0000
0100
0000
1000
0000
0000
0010
0000
0000
0100
0000
,
0000
0000
0101
0000
0000
0000
0110
0000
0000
0000
2200
3300
0000
0000
0000
0000
MMMM
0000
0000
0000
2001
0000
0000
0000
0000
0000
0000
0000
3100
0000
0000
0000
,
0100
0000
1000
0000
0010
1000
0000
0001
0000
0000
1000
0000
0100
0010
0001
0100
,
0000
0000
1000
0000
0000
0000
0010
0000
0100
0000
0100
0002
0000
0000
0000
0000
,
0003
0000
0000
0000
0000
1000
0010
0000
0110
0000
0000
0000
0101
0000
0001
0200
,
0000
0000
0000
0000
0300
0000
0000
0000
MMMM
0000
0000
0000
0000
0010
0001
0010
,
1000
0000
0100
0000
1000
0000
0001
0000
0010
0000
0000
0000
0010
1000
0001
0100
,
0001
1000
0010
0100
1000
0010
0100
0010
0000
0001
0000
0100
0000
1000
0000
0010
,
0000
4000
0400
0000
0000
0000
0000
0000
0000
0000
0000
3300
0000
0000
1001
0000
,
0000
0000
0000
0001
0000
0000
0100
0000
0000
0000
0000
0000
MMMM
0000
0000
0000
0000
0000
0001
0000
1000
0000
0100
0000
,
0010
0100
1000
0001
0010
0100
1100
1000
0001
0010
0100
0010
,
1000
0000
0000
0000
0001
0000
0000
0000
0010
0000
0000
0000
0100
0000
0000
0000
1000
0000
0000
0000
0001
0000
0000
0000
0101
0000
0000
0000
0000
0000
0100
0000
0000
0010
0000
0000
0000
0000
0000
1000
0000
0000
0000
0000
0000
0000
0000
0000
,
0002
0000
0000
2000
0000
0000
3003
0000
0100
0000
0100
0000
0010
0000
0010
0000
,
1010
1000
0001
0100
0010
1000
0100
1000
0001
0000
0001
0000
0100
0001
0000
0000
,
0000
0000
1000
0000
1000
0010
0000
0000
0000
0000
0100
0000
0100
0000
0110
0000
,
0000
0000
0010
0000
0010
0100
0000
0000
0001
0000
1000
0001
0000
0010
0000
0000
,
0004
0040
0000
0000
0000
0000
0033
0000
0000
0010
0000
0000
0000
0000
0000
1010
0000
0000
0000
0000
0000
1010
0000
0000
,
0000
1000
0001
0100
0010
1000
0400
0000
0000
0000
0000
0000
,
1300
0000
0000
0001
0000
0010
0000
0000
0001
0000
0100
0000
0000
0000
0020
0000
,
0000
0000
1030
0000
0001
0000
1000
0000
0200
0000
0000
1000
0000
0000
0000
0000
,
0000
0300
0000
0002
0000
1003
1000
0010
,
0100
0010
1000
0010
0100
0010
1000
0004
0000
0000
4000
0000
0000
0000
0000
0000
,
0000
0000
0000
3003
0000
0000
0011
0000
0000
0000
0100
0000
0100
0000
1000
0000
,
1000
0001
0001
0100
0100
0010
0010
1000
,
0100
0000
0000
0010
0000
0000
0000
0000
0000
0001
0000
0000
0000
0000
0000
1000
0000
0000
0000
0000
0000
0010
0000
0000
0000
0000
0000
0000
0000
0000
0040
0000
4000
0000
0000
0000
0000
0000
0000
0000
0000
0000
3030
0000
0000
0000
0000
0000
,
2000
0000
0200
0000
0000
0000
3300
0000
MMMM
0000
0000
0000
1000
0010
0100
0001
,
0010
0100
1000
0100
0000
0001
0000
0012
0000
0000
0000
0010
0003
0000
0100
0000
,
1000
0000
0000
0010
0000
0000
0220
0000
0000
0000
0000
0000
0330
0000
1000
0000
,
0001
0000
0000
0001
0000
0100
0000
0000
0001
0000
0000
0100
0000
0000
0000
0000
,
1010
0000
0000
0010
0000
0100
0000
0000
2002
0000
0000
0000
3003
0000
0000
0000
,
0100
0000
0000
0001
0000
0000
0010
0000
0002
0000
0000
0000
0003
0000
0100
0000
,
0010
0000
0000
2000
0000
0000
0000
0000
3000
0000
0010
0000
0000
1000
0000
0000
,
0100
0000
0000
0001
0000
0000
0010
0000
0100
0000
0000
0000
0100
0000
0020
0000
,
0000
0000
0030
0000
0000
0000
1000
0000
0001
0100
0000
0010
0000
1000
0000
0100
,
0000
1000
0000
0000
0010
0000
0100
0000
0002
0000
0000
0000
0000
0000
1003
0000
,
0020
0000
0000
0100
0000
0000
0000
0000
0030
0000
0000
0000
0001
0000
1000
0000
,
0100
0000
0000
0100
0000
0000
1000
0000
0010
0000
0000
0000
0010
0000
0220
0000
,
0000
0330
MMMM
0000
;
