#TITLE:blue moon sea;
#SUBTITLE:;
#ARTIST:N.A.R.D. feat. Lala Moore;
#TITLETRANSLIT:;
#SUBTITLETRANSLIT:;
#ARTISTTRANSLIT:;
#GENRE:;
#CREDIT:;
#BANNER:blue moon sea.png;
#BACKGROUND:blue moon sea-bg.png;
#LYRICSPATH:;
#CDTITLE:;
#MUSIC:blue moon sea.ogg;
#OFFSET:-0.222305;
#SAMPLESTART:72.843086;
#SAMPLELENGTH:16.000000;
#SELECTABLE:YES;
#BPMS:0.000000=120.000000
,211.000000=119.585999
,219.000000=120.000000
;
#STOPS:144.000000=0.500000
;
#BGCHANGES:;
#KEYSOUNDS:;
#ATTACKS:;

//---------------dance-single - ----------------
#NOTES:
     dance-single:
     :
     Hard:
     10:
     0.321184,0.348513,0.059361,0.289384,0.029680,303.000000,295.000000,8.000000,39.000000,0.000000,0.000000,0.321184,0.348513,0.059361,0.289384,0.029680,303.000000,295.000000,8.000000,39.000000,0.000000,0.000000:
0000
0000
0000
0000
,
0000
0000
0000
0000
,
0000
0000
0000
0000
,
0000
0000
0000
0000
,
0010
0000
1000
0100
0000
1000
0001
0010
,
0001
0000
0100
0010
0100
0001
0010
0000
,
2000
0000
0100
0001
0000
0001
3010
0100
,
0020
0000
0100
0000
1000
0030
1100
0000
,
0001
0100
0010
2000
0000
0100
3010
0200
,
0000
0002
0000
0000
0000
0000
0303
0000
,
1000
0010
0100
0002
0000
0010
0103
2000
,
0000
0001
0020
0000
0000
0000
3030
0000
,
0100
0000
0001
0010
0000
0001
1000
0001
,
0000
0000
1000
0000
1000
0000
0000
0000
0010
0000
0000
0001
0000
0000
0100
0000
,
0020
0000
1030
0000
0100
0000
1000
0001
,
0000
0010
0001
0000
0001
0010
0100
2000
,
0000
0001
0010
3000
0100
0000
0100
0001
,
0000
1000
0010
0000
1000
0001
1000
0100
,
0010
0000
0100
1000
0000
1000
0001
0010
,
0000
0010
0100
0010
0000
0001
1000
0000
,
0110
0000
0010
1000
0000
1000
0100
0001
,
0000
0000
0001
0000
0010
0000
0000
0000
0100
0000
0000
1000
0000
0000
0100
0000
,
0200
0000
0010
0300
1000
0010
1000
0002
,
0000
0010
0100
0000
0103
0100
1000
0010
,
0001
0000
0100
0010
0000
0100
1000
0000
,
0001
0010
0001
0000
0100
0000
0010
1000
,
0010
0000
0001
0100
0000
0100
0010
1000
,
0000
1000
0010
0100
0001
0010
0001
0000
,
2000
0000
0001
0000
3200
0000
0310
0002
,
0000
1000
0000
0100
0100
0003
1000
0010
,
0100
0000
0000
1000
0000
0000
0010
0000
0100
0000
0000
0000
0001
0000
1000
0000
,
0001
0000
0010
0100
0000
0100
0010
0000
,
0002
0000
0000
0100
0003
0000
0100
0000
0020
0000
0000
0000
1000
0000
0000
0000
,
0100
0000
0100
0000
0031
0000
0010
0001
,
0010
0000
0000
1000
0000
0000
0001
0000
0010
0000
0000
0100
0000
0000
0001
0000
,
2000
0000
0001
0000
3001
0100
0010
0100
,
1100
0001
0100
0000
0011
0000
0020
0000
,
1000
0000
0100
0000
0130
2000
0000
0000
,
3002
0000
0010
1000
0003
0010
0100
0000
,
1000
0001
0000
1000
0000
0200
0000
0000
,
0010
0300
1000
0000
1001
0000
0002
0000
,
0103
0200
0000
1000
1000
0000
0310
0001
,
0000
0010
0000
0000
1000
0000
0000
0100
0000
0000
0010
0000
0010
0000
0000
0000
,
0001
0010
0000
0100
0010
0000
1000
0100
,
1000
0001
0010
0000
0110
0000
0002
0000
,
0010
0000
0100
1000
0103
0020
0000
1000
,
2030
0000
3001
0100
0010
0100
0200
0000
,
0301
0020
0000
2030
0000
3200
0000
0000
,
0010
0302
0000
1000
1003
0100
1000
0000
,
0010
0001
0000
0100
0001
0100
0000
0010
,
1000
0000
0100
0010
0100
1000
1000
0000
,
0001
0100
0000
0100
1000
0010
0000
0100
,
0001
0010
0001
0000
0110
0000
2020
0000
,
0000
0000
0000
0000
0030
0002
0000
0000
,
0000
0000
0000
0000
0000
0000
0000
0000
0000
3003
0000
0000
0100
0000
0000
0000
,
0010
0100
0000
0010
0000
2000
0000
0000
,
0001
0001
3000
0001
,
1000
0010
0000
1000
0000
0002
0000
0000
,
0100
0100
0003
0010
,
0100
1000
0000
0100
0000
0020
0000
0000
,
0001
0001
0130
1000
,
1000
0100
0000
0010
0001
2000
0000
0001
,
0000
0010
0100
0000
3001
0001
0000
0000
;

//---------------dance-single - ----------------
#NOTES:
     dance-single:
     :
     Medium:
     7:
     0.232143,0.278254,0.074201,0.319064,0.000000,219.000000,209.000000,10.000000,43.000000,0.000000,0.000000,0.232143,0.278254,0.074201,0.319064,0.000000,219.000000,209.000000,10.000000,43.000000,0.000000,0.000000:
0000
0000
0000
0000
,
0000
0000
0000
0000
,
0000
0000
0000
0000
,
0000
0000
0000
0000
,
2000
0010
0001
3001
,
0100
1000
0010
0001
,
0020
0000
0100
0130
,
0002
0010
0013
0110
,
0010
0000
1000
0010
0000
0001
0010
0000
,
0200
0001
0000
0001
,
1300
0000
0001
1000
0000
0100
1000
0002
,
0000
2000
0000
0000
0000
0000
3003
0000
,
0010
0100
1000
0200
,
0000
0010
0301
0001
,
2000
3000
0001
0010
,
0020
0000
0000
0100
0030
0000
1000
0100
,
0002
0003
1000
0010
,
0020
0030
0100
0001
,
0100
0000
0010
1000
0000
0001
1000
0000
,
0001
0100
0001
0000
0020
0000
0030
0000
,
0011
0100
1000
0002
,
0000
1000
0013
0010
,
0200
0300
0010
1000
,
2000
0000
3000
0000
0100
0000
0100
0010
,
0001
1000
0200
0000
,
0310
0001
0010
0010
,
1000
0000
0100
1000
,
1000
0100
0101
0000
,
0010
0010
0100
1000
,
0200
0000
0000
0001
0300
0000
0001
0100
,
0001
1000
0010
1000
,
0002
0000
0000
0010
0000
0000
0013
0000
,
0100
1000
0100
0010
,
0010
1000
0001
1000
,
0020
0031
0002
1003
,
0200
0302
2003
3010
,
1001
0100
0110
0002
,
0003
0010
1000
1000
,
0100
0010
0100
2000
,
3001
0001
0010
0200
,
0300
0010
0100
2000
,
3100
0200
0300
0020
,
0001
1000
0031
0010
,
0100
0001
0100
0000
1000
0010
1000
0000
,
0001
0000
0010
0100
0100
0000
2000
0000
,
3000
0100
0010
0010
,
0001
0000
0100
0010
0100
0000
1000
0000
,
0100
0001
0100
0020
,
0000
1000
1030
0100
,
1100
0000
0001
0000
1000
0100
2000
0000
,
0000
0010
3010
0001
,
0101
0000
1000
0000
0010
1000
0020
0000
,
0030
0100
1000
0022
,
0000
0000
0033
2002
,
0000
0000
3003
0100
,
0010
0100
0001
0020
,
0000
1000
0030
0001
,
1000
0010
1000
0200
,
0000
0001
0300
0010
,
0100
1000
0100
0002
,
0000
1000
0003
0010
,
0100
0001
0010
2000
,
3000
0220
0330
0000
;

//---------------dance-single - ----------------
#NOTES:
     dance-single:
     :
     Easy:
     4:
     0.173842,0.208690,0.044521,0.237443,0.000000,164.000000,158.000000,6.000000,32.000000,0.000000,0.000000,0.173842,0.208690,0.044521,0.237443,0.000000,164.000000,158.000000,6.000000,32.000000,0.000000,0.000000:
0000
0000
0000
0000
,
0000
0000
0000
0000
,
0000
0000
0000
0000
,
0000
0000
0000
0000
,
0010
0000
0001
0000
,
1000
0010
0010
0000
,
0100
0000
0001
1000
,
0001
1000
1000
0000
,
0200
0300
0010
0001
,
0020
0000
0000
0030
,
0002
0003
1000
0010
,
1000
0002
0000
0003
,
0110
0000
0010
1000
,
1000
0000
0001
0100
,
0010
0000
1000
0001
,
1000
0100
0100
0000
,
0010
0000
1000
0001
,
0001
0000
0010
1000
,
0001
1000
0100
0000
,
0100
1000
0001
0000
,
1001
0000
0010
0100
,
0100
0000
1000
0010
,
0001
0000
1000
0010
,
0001
0100
0010
0000
,
1000
0000
0001
0100
,
0010
0000
0100
1000
,
0001
0010
1000
0000
,
0100
1000
1000
0000
,
0020
0030
0200
0300
,
0002
0000
0003
0010
,
1000
0001
1000
0100
,
0200
0000
0000
0300
,
0010
0001
2000
3000
,
0100
0000
0100
0010
,
1000
0100
1000
0001
,
0020
0030
0200
0300
,
1001
0000
0000
0200
,
0000
0300
1000
0001
,
0010
0100
0100
0001
,
0010
1000
0010
0002
,
0003
1000
0001
2000
,
3000
0200
0300
0010
,
0001
1000
1000
0020
,
0030
0100
1000
1000
,
0001
0010
0000
0020
,
0000
0030
1000
0001
,
1000
0100
0100
0001
,
0010
0100
0001
2000
,
3000
2000
3000
0100
,
0010
0100
1000
0002
,
0003
0010
0010
1000
,
0010
0100
0001
0200
,
0300
2000
3000
0220
,
0000
0000
0330
2002
,
0000
0000
3003
1000
,
0000
0001
0000
0200
,
0000
0010
0300
0001
,
0000
0010
0000
2000
,
0000
0010
3000
0001
,
0000
0100
0000
0002
,
0000
1000
0003
0010
,
0000
0001
0000
2000
,
3000
2002
3003
0000
;

//---------------dance-single - ----------------
#NOTES:
     dance-single:
     :
     Beginner:
     2:
     0.108122,0.161666,0.037101,0.066781,0.000000,102.000000,97.000000,5.000000,9.000000,0.000000,0.000000,0.108122,0.161666,0.037101,0.066781,0.000000,102.000000,97.000000,5.000000,9.000000,0.000000,0.000000:
// measure 0
0000
0000
0000
0000
,  // measure 1
0000
0000
0000
0000
,  // measure 2
0000
0000
0000
0000
,  // measure 3
0000
0000
0000
0000
,  // measure 4
0010
0000
0000
0000
,  // measure 5
0100
0000
0001
0000
,  // measure 6
0100
0000
0000
0000
,  // measure 7
1000
0000
0000
0000
,  // measure 8
1001
0000
0000
0000
,  // measure 9
0000
0000
0000
0000
,  // measure 10
0110
0000
0000
0000
,  // measure 11
0000
0000
0000
0000
,  // measure 12
0001
0000
1000
0000
,  // measure 13
1000
0000
0000
0000
,  // measure 14
0010
0000
0100
0000
,  // measure 15
0100
0000
0000
0000
,  // measure 16
0001
0000
0000
0000
,  // measure 17
0010
0000
1000
0000
,  // measure 18
0010
0000
0010
0000
,  // measure 19
0001
0000
0000
0000
,  // measure 20
0100
0000
1000
0000
,  // measure 21
0100
0000
0100
0000
,  // measure 22
0010
0000
0001
0000
,  // measure 23
0010
0000
0010
0000
,  // measure 24
1000
1000
1000
0000
,  // measure 25
0100
0000
0100
0000
,  // measure 26
0001
0000
1000
0000
,  // measure 27
1000
0000
0000
0000
,  // measure 28
0010
0000
0010
0000
,  // measure 29
0020
0000
0030
0000
,  // measure 30
0100
0000
0100
0000
,  // measure 31
0200
0000
0300
0000
,  // measure 32
1000
0000
1000
0000
,  // measure 33
0001
0000
1000
0000
,  // measure 34
0010
0010
0010
0000
,  // measure 35
0100
0000
0001
0000
,  // measure 36
1001
0000
0000
0020
,  // measure 37
0000
0030
0000
0100
,  // measure 38
0000
1000
0000
0001
,  // measure 39
0000
0001
0000
1000
,  // measure 40
0000
1000
0000
0010
,  // measure 41
0000
0000
0100
0100
,  // measure 42
0000
0010
0000
1000
,  // measure 43
0000
0000
0001
0001
,  // measure 44
0000
0010
0000
1000
,  // measure 45
1000
1000
0000
0100
,  // measure 46
0000
0010
0000
0001
,  // measure 47
0000
0100
0000
0001
,  // measure 48
0000
0001
0000
0100
,  // measure 49
0100
0100
0000
0020
,  // measure 50
0000
0030
0000
0001
,  // measure 51
0001
0001
0000
0200
,  // measure 52
0000
0300
0000
0110
,  // measure 53
0000
0000
0000
1001
,  // measure 54
0000
0000
0000
0010
,  // measure 55
0000
0100
0000
0020
,  // measure 56
0000
0030
0000
1000
,  // measure 57
0000
0001
0000
2000
,  // measure 58
0000
3000
0000
0100
,  // measure 59
0000
0001
0000
0200
,  // measure 60
0000
0300
0000
0010
,  // measure 61
0000
1000
0000
0020
,  // measure 62
0000
0030
0000
0000
;
