#TITLE:bass 2 bass;
#SUBTITLE:(dj MAX STEROID Remix);
#ARTIST:dj MAX STEROID;
#TITLETRANSLIT:;
#SUBTITLETRANSLIT:;
#ARTISTTRANSLIT:;
#GENRE:;
#CREDIT:;
#BANNER:bass 2 bass (dj MAX STEROID Remix).png;
#BACKGROUND:bass 2 bass (dj MAX STEROID Remix)-bg.png;
#LYRICSPATH:;
#CDTITLE:;
#MUSIC:bass 2 bass (dj MAX STEROID Remix).ogg;
#OFFSET:0.012881;
#SAMPLESTART:25.934000;
#SAMPLELENGTH:15.000000;
#SELECTABLE:YES;
#DISPLAYBPM:92.500000:185.000000;
#BPMS:0.000000=92.500000
,7.500000=370.000000
,8.000000=185.000000
,168.000000=92.500000
,172.000000=185.000000
,268.000000=92.500000
,288.000000=185.000000
,352.000000=92.500000
;
#STOPS:7.500000=0.244000
;
#BGCHANGES:;
#KEYSOUNDS:;
#ATTACKS:;

//---------------dance-single - ----------------
#NOTES:
     dance-single:
     :
     Hard:
     14:
     0.687241,1.011059,0.244611,0.200136,0.203843,649.000000,616.000000,33.000000,27.000000,0.000000,0.000000,0.687241,1.011059,0.244611,0.200136,0.203843,649.000000,616.000000,33.000000,27.000000,0.000000,0.000000:
0000
0000
0000
0000
,
0000
0000
0000
0000
,
0010
0100
1000
0001
0000
0001
0010
0100
,
0010
0100
1000
0010
0000
0010
0001
1000
,
0001
0100
0010
1000
0000
1000
0100
0010
,
0100
1000
0001
0100
0000
0100
0001
0001
,
0010
0000
1000
0000
0010
0000
0100
0000
0000
0100
0000
0000
0001
0000
0010
0000
,
0001
0000
1000
0000
0100
0000
1000
0000
0000
1000
0000
0000
0100
0000
0001
0000
,
0010
0000
0100
0000
0001
0000
0010
0000
0000
1000
0000
0000
0010
0000
0010
0000
,
0100
0010
0001
0100
0000
1000
1010
0000
,
0001
0010
0001
0020
0000
1000
0130
1000
,
0100
0001
0100
0002
0000
0010
1003
0100
,
0010
0100
0010
0200
0000
0010
0301
1000
,
0010
1000
0010
2000
0000
0001
3100
0100
,
0010
1000
0010
0002
0000
0100
0013
1000
,
0001
0010
0011
0010
2000
0000
3100
0010
,
0100
0001
1000
0001
0000
0010
1000
0010
,
0100
0000
1100
1000
0000
0001
1001
0000
,
0001
0100
0010
1000
0000
1000
0010
0100
,
1000
0010
0100
0010
0200
0000
0300
0000
,
1000
0100
1000
0001
0000
0001
0010
0001
,
0100
1000
0010
0100
0000
1010
0000
0100
,
0100
0010
0100
1000
0000
1000
0100
0010
,
0001
0010
0100
1000
0020
0000
0030
0000
,
0001
0100
0010
0100
0000
1000
0100
0001
,
0000
0001
0010
0100
1000
0001
0000
1001
,
0010
0000
0100
0000
0010
0000
0001
0000
0000
0010
0000
0000
0001
0000
1000
0000
,
0100
0000
1000
0000
0010
0000
0100
0000
0000
1000
0000
0000
0100
0000
0001
0000
,
0100
0000
0010
0000
1000
0000
0010
0000
0000
0010
0000
0000
0001
0000
0010
0000
,
0100
0000
1000
0000
0100
0000
0001
0000
0000
0001
0000
0000
1000
0000
0010
0000
,
0100
0000
0001
0000
0100
0000
0010
1000
0000
0010
1000
0000
0001
0000
0100
0000
,
1000
0000
0010
0000
0100
0000
1000
0001
0000
1000
0001
0000
0010
0000
0001
0000
,
1000
0000
0100
0000
0100
0000
0001
0100
0000
0001
0100
0000
0010
0000
0010
0000
,
0000
0001
0010
0100
1000
0100
0000
0110
,
0100
0001
0010
0001
1000
0100
1000
1000
,
0010
0000
0100
0010
0000
0100
0000
0001
1000
0000
0010
0000
0001
0000
0010
0000
,
0000
1000
0100
0001
0100
1000
0010
0001
,
0100
0001
0010
0010
1000
0001
1001
0000
,
0100
1000
0010
0100
0100
0001
0010
0000
,
1000
0001
1000
1000
0010
0100
0010
0001
,
0010
0100
1100
0000
0001
1000
0010
2000
,
0000
3000
0001
0100
0010
0100
0100
0000
,
2002
0000
0000
0000
0000
0000
3003
0000
0010
1000
0010
0100
0100
0001
0101
0000
,
0010
1000
0100
0010
0000
0010
0001
0100
,
0001
0010
0001
0100
2200
0000
3300
0000
,
0001
0010
1000
0001
0000
0001
0100
0100
,
1000
0100
0001
0010
0000
0011
0000
0100
,
1000
0001
1000
0100
0000
0100
0001
0010
,
0001
1000
0100
0010
0220
0000
0330
0000
,
0100
0001
0010
1000
0000
1000
0100
0001
,
0000
0010
1000
0100
0001
0010
0000
0110
,
0001
0000
0010
0000
0001
0000
0100
0000
0000
0100
1000
0000
0010
0000
0010
0000
,
0100
0000
1000
0000
0001
0000
1000
0000
0000
1000
0001
0000
0100
0000
0100
0000
,
0010
0000
0001
0000
1000
0000
0001
0000
0000
0001
0010
0000
1000
0000
0001
0000
,
1000
0000
0100
0000
0010
0000
0100
0000
0000
0100
0001
0000
0010
0000
0010
0000
,
0010
0000
1000
0000
0001
0000
0010
0000
0000
0010
0100
0000
0001
0000
1000
0000
,
0100
0000
0100
0000
1100
0000
1000
0000
1020
0000
0000
0000
0031
0000
0001
0100
,
0001
0000
1000
0000
0010
0000
0100
0010
0000
0100
0001
0000
1000
0000
1000
0000
,
0000
0100
0001
0010
1000
0001
0000
0011
,
1000
0000
0000
0001
0000
0000
1000
0000
0100
0000
0010
1000
0000
0000
0001
0000
,
0001
0100
0100
0010
1000
0100
1000
0001
,
1000
0100
0010
0010
0000
0100
0001
0010
,
0001
0000
0000
1100
0000
0000
0010
0000
0100
0000
0010
0000
0100
0000
0000
0000
,
0001
0000
0100
0000
0010
0000
0100
0000
1000
0000
0000
0011
0000
0000
1000
0000
,
1000
0010
0010
0001
0001
0100
0110
0000
,
1000
0000
0010
0000
1000
0000
0100
0000
0010
0001
0000
0010
0000
0000
0001
0000
,
1000
0000
0010
0000
0100
0000
0100
0000
0001
0100
0000
0110
0000
0000
0000
0000
,
0220
0000
0000
0000
0000
0000
0300
0000
1000
0000
0100
0000
1000
1000
1000
0030
,
2000
0000
0000
0001
0000
0000
0001
0000
3200
0000
0000
0010
0000
0000
0010
0000
,
0302
0000
0000
0010
0000
0000
1000
0000
0023
0000
0000
0100
0000
0000
0001
0000
,
0030
0100
1000
0100
0001
0001
0010
0001
0100
0010
1000
0100
1000
0010
0001
0010
,
0000
0100
1100
0000
0010
0010
0001
0001
0000
0010
0100
0010
0001
1000
0100
0110
,
0001
1000
0100
2000
0000
0100
3010
0100
,
0001
0010
0100
0010
0001
0000
1001
0000
,
0010
1000
0010
0200
0000
0001
1300
0010
,
0100
0100
0001
0011
0000
1010
0000
1100
,
0001
0100
1000
0200
0000
1000
0301
0010
,
0100
1000
0100
0010
1000
0000
0101
0000
,
0001
1000
0100
2000
0000
0010
3001
0001
,
0000
0010
0100
0010
1000
0100
0000
0101
,
0010
1000
0100
1000
0010
0100
0001
0001
,
0100
0001
0010
0001
1000
0100
0010
0010
,
0100
1000
0001
1000
0100
1000
0100
0100
,
0010
0001
0100
0001
0010
0001
0100
0100
,
1000
0001
1000
0010
0100
0001
0010
0001
,
0100
0100
0101
0001
0020
0000
1030
1000
,
0001
0100
0010
0100
0010
1000
0100
0001
,
0000
1000
0100
0010
0001
0100
0000
0010
,
1010
0000
0000
0000
;

//---------------dance-single - ----------------
#NOTES:
     dance-single:
     :
     Medium:
     11:
     0.538992,0.684911,0.229786,0.252024,0.003706,509.000000,478.000000,31.000000,34.000000,0.000000,0.000000,0.538992,0.684911,0.229786,0.252024,0.003706,509.000000,478.000000,31.000000,34.000000,0.000000,0.000000:
0000
0000
0000
0000
,
0000
0000
0000
0000
,
0100
0000
1000
0100
0000
0001
0010
0000
,
0001
1000
0000
1000
0100
0000
0010
0000
,
1000
0000
0001
0010
0000
1000
0100
0000
,
0001
0010
0000
0110
0000
0100
1000
0000
,
0001
0000
0010
1000
0000
0010
0100
0010
,
0000
0100
0001
0100
0000
0001
1000
0000
,
0001
0100
0000
0110
0000
1000
0010
1000
,
0000
0001
0010
0001
0010
0000
1001
0000
,
0010
0000
1000
0000
0100
0010
0100
0000
,
0001
0000
0010
0000
1000
0001
1000
0000
,
0100
0000
0010
0001
1000
0000
1000
0100
,
0010
0100
0001
0000
0010
0001
0001
0000
,
0200
0000
0310
0002
0000
0013
0200
0000
,
2300
0000
3001
0020
0000
0130
0002
0000
,
0023
0000
1030
0200
0000
0001
0310
0001
,
1000
0100
2000
0000
3001
0000
0110
0000
,
0100
0000
1000
0100
0000
1000
0001
0000
,
0010
0001
0010
0000
0200
0000
0310
0000
,
0001
0000
0010
1000
0000
0010
1000
0000
,
0001
0100
0001
0010
0000
1010
0000
1000
,
0100
0000
0010
0001
0000
0010
1000
0000
,
0100
0010
0001
0010
0002
0000
1003
0000
,
0010
0000
1000
0001
0000
0100
0001
0100
,
0000
0010
1000
0100
1000
0000
1001
0000
,
0100
0010
1000
0010
0000
1000
0000
0011
,
0000
0100
0001
0100
0000
0010
0100
0000
,
1000
0001
0100
0001
0000
0010
0000
1100
,
0000
0001
0010
0001
0000
1000
1000
0000
,
0100
0001
0100
0000
0101
0000
0010
0100
,
0010
0000
0110
0000
1000
0100
1000
0100
,
0100
0000
0001
0010
0000
0100
1000
0100
,
0000
0010
0001
0010
1000
0000
1010
0000
,
0002
0000
0013
0000
0010
0100
0001
0000
,
0100
0001
0100
1000
0000
0001
0001
0000
,
1000
0010
0001
0000
0101
0000
0010
0001
,
0100
0000
0011
0000
0001
1000
0001
0000
,
1000
0000
0010
1000
0010
0000
0001
0010
,
0001
0000
0010
0100
0010
0001
1000
0000
,
0100
0001
1000
0001
0000
0100
0000
0101
,
0000
0010
0001
0000
1000
0100
0001
0000
,
0020
0000
0000
0030
0001
1000
0100
0110
,
1000
0000
0010
0100
0000
0010
0001
0000
,
0010
1000
0010
0000
0102
0000
1003
0000
,
0010
0000
1000
0001
0000
1000
0010
0000
,
0001
0100
1000
0100
0100
0000
0101
0000
,
1000
0010
1000
0000
0010
0001
0010
0001
,
0000
0100
0010
0000
2001
0000
3100
0000
,
0001
0000
1000
0100
0010
0000
0010
0001
,
0100
0000
0001
0010
0010
0000
1001
0000
,
0200
0000
0010
0000
0310
0001
0000
0100
,
2000
0000
0001
0000
3001
0010
0100
0000
,
0002
0000
1000
0000
1003
0100
0000
0010
,
0200
0000
0010
0000
0310
1000
1000
0000
,
0002
0000
2003
0000
3010
0100
0010
0001
,
0020
0000
0032
0000
0013
1000
0100
1000
,
0200
0000
0302
0000
0103
1000
0010
1000
,
0000
0100
0010
0100
1000
0000
0110
0000
,
0001
0000
0010
0000
0001
0100
0001
0000
,
0010
1000
0010
0100
0000
0001
1000
0000
,
0100
0010
0001
0000
1100
0000
0001
0010
,
1000
0000
0110
0000
0001
0010
0001
0000
,
0100
0001
0010
0001
0010
0000
1000
0100
,
1000
0000
0010
1000
0010
0001
0100
0000
,
0020
0000
0031
0000
0100
0001
0100
0000
,
2000
0000
3010
0000
0100
0001
0001
0000
,
0200
0000
0000
0300
0001
0010
0010
1001
,
0020
0000
0100
0000
0230
1000
1000
0000
,
0302
0000
0010
0000
2003
0100
0100
0100
,
3010
0001
0010
0010
0100
0001
0010
1000
,
0001
0000
0011
0000
1000
0000
1010
0000
0100
0000
0100
0010
0100
0000
1001
0000
,
1000
0000
0001
0100
0000
0010
1000
0000
,
0010
0100
0010
0000
0002
0000
1003
0000
,
0001
0000
1000
0001
0000
0010
0001
0010
,
0100
0000
0010
0100
0010
0000
0011
0000
,
1000
0001
1000
0000
0010
1000
0010
0000
,
0100
0010
1000
0001
2000
0000
3010
0000
,
0001
0000
0001
0100
0000
0100
0010
0000
,
0100
0001
1000
0001
0010
0000
0110
0000
,
0001
0000
0001
0000
0010
0001
0010
0100
,
1000
0000
1000
0000
0100
0010
0001
0010
,
0100
0000
0100
0000
1000
0100
0001
0100
,
0010
0000
0010
0100
0010
0001
0001
0000
,
0100
1000
0010
0000
1000
0100
0010
0000
,
0100
1000
0001
0000
1100
0000
0011
0000
,
0100
0001
0100
0010
0000
0010
0001
0000
,
0000
0100
1000
0100
0000
0010
0010
0000
,
0110
0000
0000
0000
;

//---------------dance-single - ----------------
#NOTES:
     dance-single:
     :
     Easy:
     6:
     0.328266,0.394435,0.088950,0.370623,0.000000,310.000000,298.000000,12.000000,50.000000,0.000000,0.000000,0.328266,0.394435,0.088950,0.370623,0.000000,310.000000,298.000000,12.000000,50.000000,0.000000,0.000000:
// measure 0
0000
0000
0000
0000
,  // measure 1
0000
0000
0000
0000
,  // measure 2
1000
0100
1000
0000
,  // measure 3
0010
0001
0010
0000
,  // measure 4
0100
0010
0100
1000
,  // measure 5
0001
0010
0002
0003
,  // measure 6
0010
0100
0010
0010
,  // measure 7
1000
0001
1000
1000
,  // measure 8
0010
0100
1000
0100
,  // measure 9
0001
0100
2002
3003
,  // measure 10
0010
0100
0001
1000
,  // measure 11
0010
0001
1000
0100
,  // measure 12
0001
1000
0100
0010
,  // measure 13
0100
0001
0002
0003
,  // measure 14
1000
0010
1000
0001
,  // measure 15
0100
1000
0100
0010
,  // measure 16
1000
1000
0010
0010
,  // measure 17
0100
0010
0220
0330
,  // measure 18
1000
0001
1000
0001
,  // measure 19
0100
0001
0020
0030
,  // measure 20
0100
0001
0100
0001
,  // measure 21
1000
0010
0020
0030
,  // measure 22
0001
0010
1000
0010
,  // measure 23
0100
1000
2000
3000
,  // measure 24
0001
0010
0100
0100
,  // measure 25
0020
0030
2002
3003
,  // measure 26
0100
0001
0200
0300
,  // measure 27
1000
0010
2000
3000
,  // measure 28
0001
0100
0010
1000
,  // measure 29
0010
0001
0002
0003
,  // measure 30
1000
0010
0100
1000
,  // measure 31
0010
0100
0001
0010
,  // measure 32
0001
0001
0100
0100
,  // measure 33
0020
0030
2020
3030
,  // measure 34
1000
0100
0100
0000
,  // measure 35
0001
1000
1000
0000
,  // measure 36
0010
0100
0010
0001
,  // measure 37
0001
0100
2000
3000
,  // measure 38
0001
0010
0100
0010
,  // measure 39
1000
0100
0001
0010
,  // measure 40
1000
0001
1000
0001
,  // measure 41
0100
0010
1000
0010
,  // measure 42
0020
0000
0000
0030
0100
0000
0110
0000
,  // measure 43
1000
0001
1000
0000
,  // measure 44
0100
0001
1000
0000
,  // measure 45
0100
0100
0010
0100
,  // measure 46
1000
0000
1100
0000
,  // measure 47
0001
0100
1000
0000
,  // measure 48
0010
0100
0001
0000
,  // measure 49
1000
0010
0001
1000
,  // measure 50
0100
0000
1010
0000
,  // measure 51
0010
0100
0200
0300
,  // measure 52
1000
0001
0002
0003
,  // measure 53
0100
0001
0010
0100
,  // measure 54
1000
0001
0002
0003
,  // measure 55
0100
0010
0100
0100
,  // measure 56
1000
0001
1000
1000
,  // measure 57
0010
1000
0100
1000
,  // measure 58
0002
0003
0022
0033
,  // measure 59
0100
0000
0100
0000
,  // measure 60
0010
0100
1000
0000
,  // measure 61
0010
0000
0010
0001
,  // measure 62
1000
0010
0001
0000
,  // measure 63
0010
0010
0020
0030
,  // measure 64
1000
1000
2000
3000
,  // measure 65
0001
0100
0010
0100
,  // measure 66
0001
1000
0020
0030
,  // measure 67
2000
0000
0000
3000
0001
0000
1001
0000
,  // measure 68
0020
0031
0002
1003
,  // measure 69
2000
3100
0200
0310
,  // measure 70
0020
2030
3200
0302
,  // measure 71
0013
0010
1000
0100
1000
0000
0202
0303
,  // measure 72
0010
0100
0010
1000
,  // measure 73
0100
0001
0002
0003
,  // measure 74
1000
0100
1000
0010
,  // measure 75
0001
0010
0020
0030
,  // measure 76
0100
0010
1000
0100
,  // measure 77
1000
0001
0200
0300
,  // measure 78
1000
1000
1000
0100
,  // measure 79
0002
0003
0022
0033
,  // measure 80
0010
0100
1000
0010
,  // measure 81
0001
0010
0100
0010
,  // measure 82
0100
1000
0100
0001
,  // measure 83
1000
0010
0200
0300
,  // measure 84
0010
0001
0010
0100
,  // measure 85
0010
1000
0001
0100
,  // measure 86
0010
0010
1000
1000
,  // measure 87
0001
0100
2200
3300
,  // measure 88
0200
0000
0000
0000
0000
0000
0000
0000
0000
0000
0000
0300
0000
0000
0000
0000
;
