#TITLE:anqad;
#SUBTITLE:;
#ARTIST:onoken feat. b;
#TITLETRANSLIT:;
#SUBTITLETRANSLIT:;
#ARTISTTRANSLIT:;
#GENRE:;
#CREDIT:;
#BANNER:Anqad.png;
#BACKGROUND:Anqad-bg.png;
#LYRICSPATH:;
#CDTITLE:;
#MUSIC:anqad.ogg;
#OFFSET:-0.870000;
#SAMPLESTART:39.619999;
#SAMPLELENGTH:12.750000;
#SELECTABLE:YES;
#BPMS:0.000000=168.000000
,248.000000=84.000000
,260.000000=168.000000
;
#STOPS:
;
#BGCHANGES:;
#KEYSOUNDS:;
#ATTACKS:;

//---------------dance-single - ----------------
#NOTES:
     dance-single:
     :
     Hard:
     11:
     0.473590,0.690738,0.240347,0.306649,0.091166,400.000000,371.000000,29.000000,37.000000,0.000000,0.000000,0.473590,0.690738,0.240347,0.306649,0.091166,400.000000,371.000000,29.000000,37.000000,0.000000,0.000000:
0000
0000
0000
0000
,
0000
0000
0000
0000
,
0010
0000
0100
0000
0001
0010
0000
0100
,
0000
1000
0000
0100
0000
0100
0010
0000
,
1000
0001
0100
0000
0010
0100
0000
1000
,
0000
1000
0100
0000
0001
0010
0100
0001
,
1000
0000
1010
0000
0100
0001
0000
0110
,
0000
1000
0000
0101
0000
0100
0010
0000
,
0100
0010
0001
1000
0000
0010
0100
0010
,
1000
0001
0000
1000
0010
0100
0001
0000
,
2000
0000
0000
0000
,
0000
0000
0000
3000
,
0100
0001
0010
0000
0001
0010
0000
1000
,
0000
0100
1000
0001
0000
0100
0010
0000
,
1000
1000
0100
0001
0000
0010
0000
0010
,
0100
1000
0001
0010
0000
0100
2000
0000
,
0000
0000
3001
0010
0000
0100
0000
0001
,
0000
0010
0100
0001
0000
0010
0100
1000
,
0000
0100
0010
0001
0000
0100
0000
0001
,
0010
1000
0010
1000
0000
0100
1000
0000
,
0102
0000
0000
1003
0000
0000
0210
0000
,
0000
0301
0000
0000
2001
0000
3001
0000
,
2100
0000
0000
3010
0000
0000
0021
0000
,
0000
0130
0000
0000
2000
0000
3002
0000
,
0013
1000
0010
1000
0000
0001
0000
0100
,
0000
0010
0100
0001
0000
0010
0000
0000
,
0200
0000
0000
0310
0000
0000
0011
0011
,
0000
0200
2300
3002
,
0013
0100
0010
0000
0100
1000
0100
0001
,
0000
0100
0000
0010
0010
0100
0001
0000
,
1000
0001
0100
0000
1000
0010
0001
0010
,
0000
0100
0000
1000
1000
0010
0001
0020
,
0000
0000
0100
0200
0000
0000
0330
0000
,
1000
0000
0100
0000
1000
0000
0010
0000
0100
0000
0001
0000
,
1000
0000
0000
1100
0000
0000
0010
0000
,
0000
0110
0000
0000
0001
0000
0011
0000
,
0001
1000
0001
0000
1000
0100
1000
0010
,
0000
1000
0000
0001
0001
1000
0010
0000
,
0100
0010
1000
0000
0100
0001
0010
0001
,
0000
1000
0000
0100
0100
0001
0010
0002
,
0000
0000
1000
2000
0000
0000
3003
0000
,
0100
0000
1000
0000
0100
0000
0001
0000
1000
0000
0010
0000
,
0100
0000
0000
1100
0000
0000
0001
0000
,
0000
1001
0000
0000
0010
0000
0011
0000
,
1000
0100
0010
0000
0100
0001
0000
0010
,
0000
0100
0100
0001
0000
1000
0010
0000
,
0100
1000
0100
0000
0001
0010
0000
0001
,
0000
1000
0001
1000
0010
0100
0001
0000
,
1000
0001
1000
0000
0110
0000
0000
0000
0100
0000
0001
0000
0000
0000
0011
0000
,
0000
1010
0000
0010
0001
0100
0010
0000
,
0100
0001
1000
0010
0000
0100
0010
0100
,
0001
0100
0000
1000
0100
0010
0001
0000
,
2000
0010
0100
0001
,
0100
0010
3100
0010
,
0002
0000
0000
2000
0000
3000
0023
0000
,
0000
2000
0000
0030
0100
0000
0100
3000
,
0200
0000
0000
0020
0000
0030
2300
0000
,
0000
0002
0000
3000
0010
0000
0010
0003
,
0100
0000
1000
0100
0000
0010
0000
1001
,
0000
0010
0100
0010
0000
0101
0000
0000
,
2000
0000
3000
0002
0000
0003
0110
0110
,
0000
0200
0302
0023
,
1030
0100
1000
0000
0010
0100
0010
0000
0001
0000
0010
0000
0100
0000
0001
0000
,
0010
0100
0001
0000
0010
0100
1000
0000
0010
0000
0100
0000
0001
0000
0100
0000
,
0002
0000
0000
0003
0000
0000
0020
0000
0000
0030
0000
0000
1000
0000
0010
0000
0100
0000
0001
0000
0010
0000
0001
0000
,
0100
0000
1000
1100
0000
0100
0010
0000
,
0010
0011
0000
0001
1000
0000
1001
0000
,
0100
0001
1000
0000
0001
0010
1000
0010
,
0000
0001
0000
1000
0100
0001
0100
0000
,
0010
0100
0001
0000
0010
1000
0100
1000
,
0000
0001
0000
0010
0100
0010
0100
2000
,
0000
0000
0001
0002
0000
0000
3003
0000
,
0010
0000
0010
0000
0010
0000
1000
0000
0001
0000
1000
0000
,
0010
0000
0100
0011
0000
0001
1000
0000
,
0010
1001
0000
1000
0100
0000
0011
0002
,
0000
0010
0100
0010
,
0010
1000
0100
1003
,
0100
1000
0020
0000
0000
0000
0000
0000
0000
0000
0000
0000
0000
0000
0000
0000
,
0000
0000
0000
0000
,
0000
0000
0000
0030
0000
0000
0000
0000
;

//---------------dance-single - ----------------
#NOTES:
     dance-single:
     :
     Medium:
     7:
     0.363480,0.559169,0.149181,0.348088,0.000000,307.000000,289.000000,18.000000,42.000000,0.000000,0.000000,0.363480,0.559169,0.149181,0.348088,0.000000,307.000000,289.000000,18.000000,42.000000,0.000000,0.000000:
0000
0000
0000
0000
,
0000
0000
0000
0000
,
0100
0000
0001
0000
0100
0000
0000
0020
,
0000
1000
0130
0100
,
0001
0000
1000
0000
0001
0000
0000
0200
,
0000
1000
1300
0001
,
0010
0000
0100
0000
0010
0000
0000
2000
,
0000
0010
3001
0010
,
0100
0000
0000
0010
0000
0000
0001
0000
,
0000
1000
0000
0000
0100
0000
0110
0000
,
2000
0000
0020
0030
,
0002
3000
2000
3003
,
1000
0000
0000
0010
0000
0001
0000
0010
,
0000
0100
0000
1000
0000
0100
0010
0000
,
0100
0001
0010
0001
,
0100
0000
0100
1000
0000
1000
0010
0000
,
1000
0000
0000
0001
0000
0010
0000
0100
,
0000
1000
0000
0100
0000
0010
0001
0000
,
0010
0100
0001
0100
,
0010
0000
0010
0100
0000
0100
0001
0000
,
0020
0000
0000
0200
0030
0000
2000
0000
,
0300
0002
3000
0000
0100
0000
0013
0000
,
0200
0000
0000
0002
0300
0000
0020
0000
,
0003
2000
0030
0000
0010
0000
3001
0000
,
0100
0000
1000
0000
0001
0100
0001
0000
,
0010
0000
0100
0000
1000
0010
1000
0000
,
0100
0000
0000
0010
0000
0000
2002
0000
,
3000
1000
0100
1003
,
0100
0010
0100
0000
0010
0001
0010
0000
,
1000
0100
1000
0001
,
0001
1000
0001
0000
0100
1000
0100
0000
,
0010
1000
0001
0010
,
0002
0103
2000
3100
,
0010
0010
1000
0100
,
0002
0000
0000
0020
0003
0000
0002
0000
,
0030
0200
0003
0000
1000
0000
1300
0000
,
1000
0100
1000
0000
0010
0001
0010
0000
,
0100
0010
0001
0010
,
1000
0001
1000
0000
0001
0100
0001
0000
,
0001
1000
0100
0001
,
2000
3010
0200
0310
,
0001
1000
0001
0010
,
0200
0000
0000
0002
0300
0000
0020
0000
,
0003
0200
0030
0000
0001
0000
0301
0000
,
0010
0000
0001
0000
0100
0010
0000
0100
,
0000
0101
0000
0001
1000
0000
0110
0000
,
1000
0000
0001
0000
1000
0010
0000
0100
,
0000
0011
0000
0100
1000
0000
1001
0000
,
0001
0100
1000
0000
0010
0100
0000
0010
,
0000
1000
0000
0100
0000
0000
0011
0000
,
0001
0000
0000
1100
0000
0000
1000
0000
,
0000
0101
0000
0000
0010
0000
0110
0000
,
2002
0000
0000
0000
,
0000
0000
3003
0000
,
0001
0000
0000
0110
0000
0000
0010
0000
,
0000
1100
0000
0000
1000
0000
1000
0000
,
0100
0000
0000
0110
0000
0000
0010
0000
,
0000
1001
0000
0000
0010
0000
0010
0000
,
1000
0100
0001
0100
,
0010
0001
0010
1000
,
0100
0000
0000
0001
0000
0000
1000
0001
,
0000
1000
0001
0010
,
0100
0010
0100
0010
0001
0010
0100
0010
,
0001
1000
0001
1000
0010
0100
0001
0100
,
0010
0000
0100
0000
0010
1000
0100
1000
,
0001
0000
0000
0110
0000
0000
0100
0000
,
0000
1010
0000
0000
0001
0000
0101
0000
,
1000
0001
1000
0000
0001
0100
0001
0000
,
0010
1000
0010
0100
,
0100
0010
0100
0000
1000
0010
1000
0000
,
0001
0010
0100
0001
,
0200
1300
0020
1030
,
0001
0001
0010
1000
,
0200
0000
0000
0002
0300
0000
0200
0000
,
0003
2000
0300
0000
0010
0000
3010
0000
,
0002
0000
0200
0300
,
0020
0030
2000
0003
,
0020
0000
0000
0000
,
0000
0000
0000
0000
,
0000
0000
0000
3030
0000
0000
0000
0000
;

//---------------dance-single - ----------------
#NOTES:
     dance-single:
     :
     Easy:
     4:
     0.226139,0.287173,0.058015,0.497269,0.000000,191.000000,184.000000,7.000000,60.000000,0.000000,0.000000,0.226139,0.287173,0.058015,0.497269,0.000000,191.000000,184.000000,7.000000,60.000000,0.000000,0.000000:
0000
0000
0000
0000
,
0000
0000
0000
0000
,
0001
0000
1000
0000
,
0010
1000
0100
0000
,
0100
0000
0001
0000
,
0010
0001
0100
0000
,
1000
0000
1001
0000
,
0010
0100
0010
0000
,
0001
0000
0110
0000
,
1000
1000
0100
0000
,
0220
0000
0000
0000
,
0000
0000
0330
0000
,
0020
0030
0200
0300
,
0001
0010
0002
0003
,
2000
3000
0020
0030
,
0100
1000
0100
0002
,
0000
0003
0200
0300
,
0010
0001
0020
0030
,
2000
0000
3002
0003
,
0100
1000
0100
0010
,
2000
3000
0002
0003
,
0100
0010
0200
0300
,
0020
0030
2000
3000
,
0001
0100
0002
0003
,
0100
1000
0200
0300
,
0010
0001
0020
0030
,
2000
3000
0002
0003
,
2002
0000
0000
3003
,
0010
0000
0100
0000
,
0010
1000
0020
0030
,
0001
0000
0100
0000
,
0001
1000
0002
0003
,
1000
0000
1000
0000
,
0100
0000
0100
0000
,
2000
0000
0002
3003
,
0020
0000
0200
0330
,
1000
0000
1000
0000
,
0010
1000
0020
0030
,
1000
0000
0010
0000
,
0100
0001
0200
0300
,
1000
0000
0001
0000
,
0010
0000
0100
0000
,
2000
0000
0200
3300
,
0020
0000
2000
3030
,
0200
0300
0010
0000
,
0010
1000
0002
0003
,
0200
0300
1000
0000
,
0010
0100
0002
0003
,
0020
0030
0001
0000
,
0001
0100
2000
3000
,
0010
0000
1000
0000
,
0100
0000
1000
0000
,
0220
0000
0000
0000
,
0000
0000
0330
0000
,
2000
0000
3001
0001
,
0020
0000
0031
0001
,
0200
0000
0310
0010
,
2000
0000
3100
0100
,
2000
0000
3002
0000
,
0023
0000
0230
0000
,
1300
1000
0001
0001
,
0100
0000
0010
0000
,
1000
0100
1000
0010
,
0001
0100
0001
0010
,
1000
1000
0010
0100
,
1000
0000
0001
0000
,
0100
0000
1001
0000
,
1000
0100
2000
3000
,
0010
0001
0100
0001
,
0010
0100
0020
0030
,
0100
0010
0001
1000
,
0020
0030
0002
0003
,
0100
0010
0100
0010
,
2000
3000
0002
0003
,
0020
0030
0002
0003
,
1000
0000
0100
0000
,
0010
0000
0100
0000
,
1001
0000
0000
0000
;

//---------------dance-single - ----------------
#NOTES:
     dance-single:
     :
     Beginner:
     2:
     0.117213,0.157469,0.024863,0.091166,0.000000,99.000000,96.000000,3.000000,11.000000,0.000000,0.000000,0.117213,0.157469,0.024863,0.091166,0.000000,99.000000,96.000000,3.000000,11.000000,0.000000,0.000000:
// measure 0
0000
0000
0000
0000
,  // measure 1
0000
0000
0000
0000
,  // measure 2
0100
0000
0000
0000
,  // measure 3
0001
0000
0001
0000
,  // measure 4
0001
0000
0000
0000
,  // measure 5
0010
0000
0010
0000
,  // measure 6
0010
0000
0000
0000
,  // measure 7
1000
0000
0000
0000
,  // measure 8
1000
0000
0001
0000
,  // measure 9
1000
0000
0000
0000
,  // measure 10
0110
0000
0000
0000
,  // measure 11
0000
0000
0000
0000
,  // measure 12
0000
0000
0100
0000
,  // measure 13
0001
0000
0001
0000
,  // measure 14
0100
0000
0000
0000
,  // measure 15
0020
0000
0030
0000
,  // measure 16
0000
0000
0001
0000
,  // measure 17
1000
0000
1000
0000
,  // measure 18
0010
0000
0000
0000
,  // measure 19
0002
0000
0003
0000
,  // measure 20
1000
0000
1000
0000
,  // measure 21
1000
0000
0000
0000
,  // measure 22
0100
0000
0100
0000
,  // measure 23
0100
0000
0000
0000
,  // measure 24
0010
0000
0000
0000
,  // measure 25
0001
0000
0000
0000
,  // measure 26
0100
0000
0100
0000
,  // measure 27
0000
0000
0000
0000
,  // measure 28
0010
0000
0001
0000
,  // measure 29
0010
0000
0000
0000
,  // measure 30
0100
0000
0010
0000
,  // measure 31
0100
0000
0000
0000
,  // measure 32
1000
0000
0000
0000
,  // measure 33
0001
0000
0001
0000
,  // measure 34
0002
0000
0003
0000
,  // measure 35
0020
0000
0030
0000
,  // measure 36
1000
0000
0001
0000
,  // measure 37
1000
0000
0000
0000
,  // measure 38
0100
0000
0010
0000
,  // measure 39
0100
0000
0000
0000
,  // measure 40
0001
0000
0000
0000
,  // measure 41
0010
0000
1000
0000
,  // measure 42
0020
0000
0030
0000
,  // measure 43
2000
0000
3000
0000
,  // measure 44
0100
0000
0000
0000
,  // measure 45
0010
0000
0000
0000
,  // measure 46
0010
0000
0000
0000
,  // measure 47
0001
0000
0000
0000
,  // measure 48
1000
0000
1000
0000
,  // measure 49
1000
0000
0000
0000
,  // measure 50
0001
0000
0000
0000
,  // measure 51
1001
0000
0000
0000
,  // measure 52
0010
0000
0000
0000
,  // measure 53
0000
0000
0000
0000
,  // measure 54
0100
0000
0100
0000
,  // measure 55
0100
0000
0000
0000
,  // measure 56
0001
0000
0001
0000
,  // measure 57
0001
0000
0000
0000
,  // measure 58
0010
0000
0000
0000
,  // measure 59
0100
0000
0000
0000
,  // measure 60
0002
0000
0000
0000
,  // measure 61
0003
0000
0000
0000
,  // measure 62
0010
0000
1000
0000
,  // measure 63
0010
0000
0001
0000
,  // measure 64
0100
0000
0100
0000
,  // measure 65
0010
0000
0010
0000
,  // measure 66
0010
0000
0000
0000
,  // measure 67
1000
0000
0001
0000
,  // measure 68
1000
0000
0001
0000
,  // measure 69
0100
0000
1000
0000
,  // measure 70
0100
0000
1000
0000
,  // measure 71
0010
0000
0000
0000
,  // measure 72
0010
0000
0001
0000
,  // measure 73
0020
0000
0030
0000
,  // measure 74
0220
0000
0330
0000
,  // measure 75
2000
0000
0000
0000
,  // measure 76
3000
0000
0000
0000
;
