#TITLE:Zero to ichi no kagi no uta;
#SUBTITLE:;
#ARTIST:red glasses feat. Akinari;
#TITLETRANSLIT:;
#SUBTITLETRANSLIT:;
#ARTISTTRANSLIT:;
#GENRE:;
#CREDIT:;
#BANNER:Zero to ichi no kagi no uta.png;
#BACKGROUND:Zero to ichi no kagi no uta-bg.PNG;
#LYRICSPATH:;
#CDTITLE:;
#MUSIC:Zero to ichi no kagi no uta.ogg;
#OFFSET:-0.973347;
#SAMPLESTART:37.293999;
#SAMPLELENGTH:15.000000;
#SELECTABLE:YES;
#BPMS:0.000000=178.000000
,272.000000=89.000000
,275.000000=178.000000
;
#STOPS:
;
#BGCHANGES:;
#KEYSOUNDS:;
#ATTACKS:;

//---------------dance-single - ----------------
#NOTES:
     dance-single:
     :
     Hard:
     14:
     0.703794,0.934439,0.551972,0.296582,0.346012,598.000000,531.000000,67.000000,36.000000,0.000000,0.000000,0.703794,0.934439,0.551972,0.296582,0.346012,598.000000,531.000000,67.000000,36.000000,0.000000,0.000000:
0000
0000
0000
0000
,
0000
0000
0000
0000
,
0000
0000
0000
0000
,
0000
0000
0000
0000
,
0000
0000
0000
0000
,
1000
0001
0000
0010
0100
0000
0010
0001
0000
0100
1000
0000
0011
0000
0101
0000
,
0010
0100
0000
0010
1000
0000
0010
0001
0000
0100
0010
0000
1100
0000
1001
0000
,
0100
1000
0000
1000
0010
0000
0010
0001
0000
0001
0100
0000
0110
0000
0101
0000
,
1000
0000
0100
0000
1000
0000
0100
0000
0010
1000
0010
0000
1001
0000
0000
0000
,
0100
0010
0100
0001
0010
0000
0010
0001
,
0000
0010
0100
0001
0100
0010
0001
0000
,
0010
1000
0100
1000
0010
0100
0001
0002
,
0000
0000
0100
0100
0003
1000
1100
0000
,
0001
1000
0001
0010
0100
0000
0100
1000
,
0000
0010
1000
0010
0100
0100
0001
2000
,
0000
0002
3000
0100
0000
0100
0013
0000
,
0110
0000
0000
1100
0000
0000
2020
0000
0000
0000
0000
0000
0000
0000
3030
0000
,
1000
0000
1000
0000
0100
0010
0001
0010
0000
0100
0000
1000
,
0010
1000
0100
0010
0001
0010
0100
1000
0001
0100
0000
0000
,
0001
0000
0010
0000
0001
0100
0010
1000
0000
0001
0000
0010
,
0001
0100
1000
0100
0010
0100
0001
0000
0000
1001
0000
0000
,
0100
0000
0100
0001
0000
0001
0010
0000
0010
0100
0000
0100
,
0001
0000
0001
1000
0000
1000
0001
0000
0000
0011
0000
0000
,
0100
0000
1000
0100
0000
0001
0100
0000
0010
0001
0000
0100
,
1000
0000
0010
1000
0000
0100
0010
0000
0000
0110
0000
0000
,
2002
0000
0000
3003
,
1100
0000
0000
0101
0000
0000
0010
1000
0020
0000
0100
0000
0100
0000
0130
0000
,
1000
0100
1100
0000
0010
0100
0010
0001
,
0000
0011
0000
0101
0000
0100
0011
0000
,
1000
0001
0010
1000
0100
0010
0000
1010
,
0000
1001
0000
0210
0000
0001
0301
0000
,
0010
1000
1010
0000
0100
0001
0100
0010
,
0000
0001
0010
0001
1001
0000
0001
0002
,
0000
0100
1003
0200
0000
0010
0301
0020
,
0000
1000
0130
1000
0200
0000
0301
0000
,
0010
1000
1010
0000
0100
0001
0100
0010
,
0000
1010
0000
0110
0000
0001
1010
0000
,
1000
0100
0010
1000
0001
0010
0000
1010
,
0000
1100
0000
0012
0000
0100
0103
0000
,
0001
0100
0101
0000
1000
0100
1000
0010
,
0000
0100
0010
0100
0110
0000
1000
0200
,
0000
0001
0310
0002
0000
1000
1003
1100
,
0000
0200
0001
0302
,
0020
0000
0000
0003
,
0100
0100
1000
0001
,
1000
0100
1000
0000
0031
0100
0010
0000
,
0100
0000
1000
0000
0100
0000
0001
0000
0100
0010
0100
0010
0100
0000
0000
0000
,
0010
1000
0000
0100
0001
0000
0010
1000
0000
1000
0100
0000
0101
0000
0011
0000
,
1000
0100
0000
1000
0100
0000
1000
0001
0000
1000
0010
0000
1010
0000
1001
0000
,
0001
0010
0000
0100
1000
0000
0001
0100
0000
0010
1000
0000
0110
0000
0101
0000
,
0100
0000
1000
0000
0100
0000
0010
0000
0001
1000
0001
0000
0110
0000
0000
0000
,
0001
0010
0100
1000
0100
0001
0010
0001
,
0011
0100
0010
1000
0001
0110
0010
0100
,
1100
1000
0100
1000
0001
0010
1000
0001
,
0010
0001
0010
0100
1000
0010
0100
1000
,
0011
0100
0001
1000
0001
1000
0100
0001
,
0010
0100
0010
0100
0001
0010
0001
0100
,
0001
0100
1001
0010
1000
0010
0100
0001
,
0100
0010
1000
0001
0010
0001
0110
0100
,
1000
0000
0000
0010
1000
0010
0100
0000
0000
0001
0010
0001
,
0010
0100
0010
1000
0100
0010
0001
0010
0100
1000
0000
0000
,
0010
0000
1000
0100
0000
0001
0010
0000
0100
0010
0000
1000
,
0100
0000
0001
0100
0000
0010
0001
1000
0010
0100
0000
0000
,
0010
1000
0010
0100
1010
0100
0100
0001
,
0010
0001
0010
0100
0011
1000
0100
0001
,
0010
0100
0010
0100
1100
0010
0100
0001
,
0220
0000
0000
0030
,
2000
0000
0000
3300
,
2200
0000
3300
0000
0202
0000
0303
0000
0010
0010
0010
0010
0100
0000
0000
0000
,
1001
0000
1000
0000
0010
0001
0100
0010
,
0000
1100
0000
1010
0000
0002
0000
1000
,
1003
0000
0001
1000
0100
0000
0010
1000
,
0010
0100
0000
0100
0001
0010
1010
0000
,
0001
2000
0000
0010
3100
0020
0000
0001
,
1030
0200
0000
1000
0301
0010
0020
0002
,
0000
0033
0100
1000
0110
0100
0001
0010
,
0001
0100
0010
1000
0100
0001
0010
0100
,
0011
0000
1000
0100
1000
0100
0010
0001
,
0010
0110
0000
1010
0000
0101
0000
2002
,
0000
3003
0010
0100
0010
0100
0001
0010
,
0001
0100
1000
0010
1000
0100
0001
0100
,
0010
0001
1000
0100
1100
0000
0010
0100
,
0110
0000
1000
0100
0010
0100
0010
1000
,
0100
0000
1000
0000
0001
0010
0001
0000
2000
0000
0000
0000
0000
0000
0000
0000
,
0000
0000
0020
0000
,
0030
0001
0000
0000
,
0000
0000
0000
0000
,
0000
3000
0000
0000
;

//---------------dance-single - ----------------
#NOTES:
     dance-single:
     :
     Medium:
     11:
     0.520195,0.561858,0.271867,0.222436,0.144172,442.000000,409.000000,33.000000,27.000000,0.000000,0.000000,0.520195,0.561858,0.271867,0.222436,0.144172,442.000000,409.000000,33.000000,27.000000,0.000000,0.000000:
0000
0000
0000
0000
,
0000
0000
0000
0000
,
0000
0000
0000
0000
,
0000
0000
0000
0000
,
0000
0000
0000
0000
,
0001
0000
0000
0010
0000
0000
1000
0000
0000
0010
0000
0000
0100
0000
0010
0000
,
0100
0000
0000
0001
0000
0000
0010
0000
0000
0001
0000
0000
1000
0000
0100
0000
,
1000
0000
0000
0001
0000
0000
0100
0000
0000
0010
0000
0000
0001
0000
0001
0000
,
0100
0000
1000
0000
0010
0100
0010
0000
,
0001
0000
0100
0000
0010
0001
1000
0000
,
0100
0001
0010
0001
0100
1000
0010
0000
,
1000
0000
0100
0001
0000
0010
0001
0000
,
0100
0000
0020
0100
0000
0031
0001
0000
,
1000
0100
1000
0000
0011
0000
0100
0001
,
0100
0000
1000
0010
0100
0010
0001
0000
,
0010
0000
1100
0000
0100
0001
0010
0000
,
2000
0000
0000
0002
3000
0000
0200
0000
0000
0000
0000
0000
0000
0000
0303
0000
,
0010
0000
0000
1000
0000
0000
0110
0000
0000
0010
0000
0001
,
0010
0000
1000
0010
0000
0000
0100
0000
0010
0001
0000
0000
,
1000
0000
0001
1000
0000
0000
0100
0000
1000
0100
0000
0000
,
0001
0000
0001
0010
0000
0010
0100
0000
0000
1100
0000
0000
,
0001
0000
0000
1000
0000
0000
0101
0000
0000
0001
0000
1000
,
0010
0000
0001
0010
0000
0000
0010
0000
0100
1000
0000
0100
,
1000
0000
0000
0001
0000
0010
0100
0000
0000
0001
0000
1000
,
0100
0000
0000
0001
0000
0000
0110
0000
0000
0010
0000
0001
,
0200
0000
0000
0300
,
1000
0000
0000
0001
0000
0000
1000
0000
2020
0000
0000
0000
3030
0000
0000
0000
,
0100
0000
1000
0000
0100
0000
0001
0010
,
0000
0001
0100
0000
0001
1000
0001
0000
,
0100
0000
0010
0001
0010
0100
0001
1000
,
0000
0001
0000
1100
0000
0010
0010
0000
,
1000
0000
0010
0000
0100
0001
0100
0010
,
0000
0001
0100
0000
0010
0001
0010
0000
,
1000
0000
0100
0010
0100
0000
0001
1000
,
0100
0010
0100
0000
0001
0010
0010
0000
,
0100
0000
0001
0000
0011
0000
1000
0010
,
0000
0100
1000
0010
0000
0010
0001
0000
,
0100
0001
0010
0000
0001
0100
1000
0100
,
0000
0001
0000
0110
0000
0001
0001
0000
,
0010
0000
1000
0000
0100
0001
0100
0010
,
0000
0001
1000
0000
0010
1000
0100
0000
,
0001
0011
1000
1010
,
0100
0000
0010
0100
0000
0010
1000
0000
,
0002
2003
0100
0100
,
3020
0230
0001
0001
,
2300
3002
2003
0010
,
0010
3002
0023
0230
,
1300
0000
0000
0100
0000
0000
0010
0000
0000
0100
0000
0000
0101
0000
0000
0000
,
0010
0000
0000
0001
0000
0000
0100
0000
0000
0001
0000
0000
1001
0000
0000
0000
,
0001
0000
0000
0010
0000
0000
0100
0000
0000
1000
0000
0000
0110
0000
0000
0000
,
0001
0000
0100
0010
0000
0001
0011
0000
,
1000
0000
0010
0000
0010
0001
0010
0000
,
0110
0000
0001
1000
0000
0100
0010
0000
,
1000
0010
0100
0010
0000
0100
0010
1000
,
0000
1000
0001
0010
0000
0101
0001
0000
,
0001
1000
0100
0000
0001
0010
0100
0000
,
0010
0100
0000
0101
0000
1000
0001
1000
,
1000
0000
0100
0001
0100
0010
0000
0011
,
0000
0100
0000
1100
1000
0010
0001
0000
,
0001
0000
0000
0100
0000
0000
1100
0000
0000
0001
0000
0010
,
0001
0000
0010
0100
0000
0000
1010
0000
0010
1000
0000
0000
,
0100
0000
0010
0100
0000
0000
0011
0000
0000
1000
0000
0100
,
1000
0000
0000
0001
0000
0100
0010
0000
0100
1000
0000
0000
,
0001
0000
0100
0010
0110
0000
0100
1000
,
0100
0001
0010
0000
1100
0100
0010
0000
,
0001
0000
0001
1000
0010
0100
0010
0000
,
2000
0000
0000
3000
,
2002
0000
0000
3003
,
0020
0000
0230
0000
0301
0010
2020
0000
,
3030
0000
0010
0001
0010
0000
0100
0000
,
0001
0010
0000
0100
0000
0110
0000
0001
,
0010
0000
1000
0000
0100
0000
1000
0001
,
0010
0001
0000
0010
1000
0000
1000
0100
,
0001
1000
1001
0010
,
0011
0000
0010
0100
0010
0000
0100
0200
,
0000
0300
0001
0100
0001
0000
0010
0001
,
0010
0000
1000
0001
1000
0001
0010
0001
,
0100
0000
0100
0001
0010
0000
0001
0100
,
0010
0001
0000
1000
0000
0110
0000
0010
,
0001
0000
0100
0000
0010
0000
0001
0100
,
0010
0100
0000
0001
1000
0000
0010
0100
,
0001
0000
0100
0010
0100
0000
1000
0010
,
1000
0000
0010
0000
0010
0100
0001
0100
,
0100
0001
0220
0000
,
0000
0000
0300
0000
,
0000
0030
0000
0000
;

//---------------dance-single - ----------------
#NOTES:
     dance-single:
     :
     Easy:
     6:
     0.343658,0.382879,0.205960,0.453111,0.000000,292.000000,267.000000,25.000000,55.000000,0.000000,0.000000,0.343658,0.382879,0.205960,0.453111,0.000000,292.000000,267.000000,25.000000,55.000000,0.000000,0.000000:
0000
0000
0000
0000
,
0000
0000
0000
0000
,
0000
0000
0000
0000
,
0000
0000
0000
0000
,
0000
0000
0000
0000
,
1000
0001
1000
1000
,
0010
1000
0010
0010
,
0100
0001
0100
0100
,
0020
0030
0220
0330
,
1000
0010
0100
0100
,
0010
0001
0010
0010
,
0100
0001
0100
1000
,
0000
0010
0020
0030
,
0001
0100
0010
0100
,
1000
0100
0010
0001
,
0020
0030
0002
0003
,
0010
0100
2002
3003
,
0100
0000
0011
0000
,
1000
0001
1001
0000
,
0100
1000
0010
1000
,
1000
0001
0011
0000
,
0100
0010
0100
0100
,
0001
0100
0001
0001
,
1000
0100
0001
0100
,
1000
0010
0001
0100
,
2000
0000
0000
3000
,
0100
0010
0220
0330
,
1000
0100
1000
0001
,
0010
0001
1000
1000
,
0200
0301
0020
0031
,
0010
0100
2200
3300
,
0100
0010
1000
0001
,
0010
1000
0001
0001
,
2000
3100
0200
0301
,
0002
0010
0020
0033
,
0100
1000
0001
0100
,
0010
1000
0100
0100
,
0002
0013
0200
0310
,
1000
0010
0202
0303
,
0010
0100
0001
0001
,
1000
0100
0010
0100
,
0020
0031
0002
1003
,
2000
0100
0200
3300
,
0002
0003
0200
0300
,
1000
0010
2000
3000
,
0100
0001
0010
0100
,
0001
1000
2000
3000
,
0001
0010
0110
0000
,
0100
1000
1010
0000
,
1000
0100
0010
0100
,
0100
0010
0011
0000
,
0020
0000
0100
0030
,
0001
1000
2000
3000
,
0010
1000
0100
0100
,
0010
1000
0202
0303
,
1000
1100
0000
0001
,
1001
0000
1000
0010
,
1000
0010
0020
0030
,
0001
1000
2200
3300
,
0100
0000
0110
0000
,
1000
0100
1100
0000
,
0010
0100
1000
0010
,
0010
0001
0101
0000
,
1000
0100
1000
1000
,
0100
0010
0100
0100
,
0010
0001
0100
0010
,
2000
0000
0000
3000
,
0202
0000
0000
0303
,
0010
0001
2000
0200
,
3300
1000
0010
0001
,
0010
0100
0001
0022
,
0033
1000
0100
1000
,
0010
0100
1000
0001
,
0001
0010
1000
0001
,
1000
0010
0200
0020
,
0330
1000
0001
0101
,
0100
0010
1000
1010
,
0010
0001
1000
0010
,
1000
1000
0100
0101
,
0001
0100
0001
0010
,
0001
0100
1000
1001
,
0001
0200
0310
2000
,
3010
0020
2030
3200
,
0320
0030
0022
0000
,
0000
0000
0033
0000
;

//---------------dance-single - ----------------
#NOTES:
     dance-single:
     :
     Beginner:
     4:
     0.208313,0.275162,0.107099,0.057669,0.000000,177.000000,164.000000,13.000000,7.000000,0.000000,0.000000,0.208313,0.275162,0.107099,0.057669,0.000000,177.000000,164.000000,13.000000,7.000000,0.000000,0.000000:
// measure 0
0000
0000
0000
0000
,  // measure 1
0000
0000
0000
0000
,  // measure 2
0000
0000
0000
0000
,  // measure 3
0000
0000
0000
0000
,  // measure 4
0000
0000
0000
0000
,  // measure 5
0010
0010
0010
0000
,  // measure 6
1000
1000
1000
0000
,  // measure 7
0001
0001
0001
0000
,  // measure 8
0100
0000
0110
0000
,  // measure 9
1000
0000
0100
0000
,  // measure 10
1000
0000
1000
0000
,  // measure 11
0001
0000
0001
0000
,  // measure 12
0000
0010
0010
0000
,  // measure 13
1000
0000
0100
0000
,  // measure 14
0001
0000
0100
0000
,  // measure 15
0020
0000
0030
0000
,  // measure 16
2002
0000
3003
0000
,  // measure 17
0010
0000
0010
0000
,  // measure 18
0100
0000
0001
0000
,  // measure 19
1000
0000
0010
0000
,  // measure 20
1000
1000
1000
0000
,  // measure 21
0100
0000
0001
0000
,  // measure 22
0010
0000
0001
0000
,  // measure 23
1000
0000
0100
0000
,  // measure 24
0010
0000
0010
0000
,  // measure 25
1001
0000
0000
0000
,  // measure 26
1001
0000
0000
0000
,  // measure 27
0100
0000
0010
0000
,  // measure 28
0100
0100
0100
0000
,  // measure 29
1000
0000
0001
0000
,  // measure 30
1000
1000
1000
0000
,  // measure 31
0010
0000
0001
0000
,  // measure 32
0010
0010
0010
0000
,  // measure 33
0100
0000
1000
0000
,  // measure 34
0100
0000
0110
0000
,  // measure 35
0001
0001
0001
0000
,  // measure 36
1000
0000
0010
0000
,  // measure 37
1000
0000
0100
0100
,  // measure 38
0100
0000
0001
0000
,  // measure 39
0010
0010
0010
0000
,  // measure 40
1000
0000
0001
0000
,  // measure 41
1000
0000
0100
0000
,  // measure 42
1000
0000
0001
0001
,  // measure 43
0002
0000
0000
0000
,  // measure 44
0003
0000
0000
0000
,  // measure 45
0200
0000
0000
0000
,  // measure 46
0300
0000
0000
0000
,  // measure 47
1000
0000
0001
0000
,  // measure 48
1000
0000
0010
0000
,  // measure 49
0100
0000
0010
0000
,  // measure 50
1001
0000
0000
0000
,  // measure 51
0100
0000
0000
0000
,  // measure 52
0010
0000
0000
0000
,  // measure 53
0001
0000
1000
0000
,  // measure 54
0100
0000
0000
0010
,  // measure 55
0010
0000
1000
0000
,  // measure 56
0001
0000
0001
0000
,  // measure 57
0001
0000
0010
0000
,  // measure 58
0100
0100
0100
0000
,  // measure 59
1000
0000
1001
0000
,  // measure 60
0010
0010
0010
0000
,  // measure 61
0100
0000
0110
0000
,  // measure 62
0001
0001
0001
0000
,  // measure 63
1000
0000
0001
0000
,  // measure 64
1000
0000
0001
0001
,  // measure 65
0001
0000
0010
0000
,  // measure 66
2002
0000
0000
0000
,  // measure 67
3003
0000
0000
0000
,  // measure 68
0010
0010
0010
0110
,  // measure 69
0000
1000
0000
0001
,  // measure 70
0000
1000
1000
1000
,  // measure 71
0000
0100
0100
0100
,  // measure 72
0000
0010
0000
0001
,  // measure 73
0001
0001
0000
1000
,  // measure 74
0000
1001
0000
0001
,  // measure 75
0000
0100
0100
0100
,  // measure 76
0000
0010
0000
0100
,  // measure 77
0000
1000
0000
0001
,  // measure 78
0001
0001
0000
0110
,  // measure 79
0000
0010
0010
0010
,  // measure 80
0000
1000
0000
0001
,  // measure 81
0000
0100
0000
0100
,  // measure 82
0000
0010
0000
0100
,  // measure 83
0000
0000
1001
0000
;
