#VERSION:0.83;
#TITLE:Yamikura;
#SUBTITLE:;
#ARTIST:PON;
#TITLETRANSLIT:;
#SUBTITLETRANSLIT:;
#ARTISTTRANSLIT:;
#GENRE:;
#ORIGIN:;
#CREDIT:;
#BANNER:Yamikura.png;
#BACKGROUND:Yamikura-bg.png;
#PREVIEWVID:;
#JACKET:Yamikura-jacket.png;
#CDIMAGE:;
#DISCIMAGE:;
#LYRICSPATH:;
#CDTITLE:;
#MUSIC:Yamikura.mp3;
#OFFSET:-0.348969;
#SAMPLESTART:60.265636;
#SAMPLELENGTH:10.666668;
#SELECTABLE:YES;
#BPMS:0.000=180.000;
#STOPS:;
#DELAYS:;
#WARPS:;
#TIMESIGNATURES:0.000=4=4;
#TICKCOUNTS:0.000=4;
#COMBOS:0.000=1;
#SPEEDS:0.000=1.000=0.000=0;
#SCROLLS:0.000=1.000;
#FAKES:;
#LABELS:0.000=Song Start;
#BGCHANGES:;
#KEYSOUNDS:;
#ATTACKS:
;

//---------------dance-single - ----------------
#NOTEDATA:;
#CHARTNAME:;
#STEPSTYPE:dance-single;
#DESCRIPTION:;
#CHARTSTYLE:;
#DIFFICULTY:Hard;
#METER:12;
#RADARVALUES:0.555133,0.623804,0.328810,0.219206,0.099639,390.000000,357.000000,33.000000,22.000000,0.000000,0.000000,0.000000,0.000000,0.000000,0.555133,0.623804,0.328810,0.219206,0.099639,390.000000,357.000000,33.000000,22.000000,0.000000,0.000000,0.000000,0.000000,0.000000;
#CREDIT:;
#NOTES:
0000
0000
0000
0000
,
0000
0000
0000
0000
,
0000
0000
0000
0000
,
0000
0000
0000
0000
,
1000
0000
1000
0100
0001
0000
0001
0010
,
0100
1000
0100
1000
0001
0000
0000
0000
,
1001
1001
0000
0000
0110
0110
0000
0000
,
1000
0000
0000
0100
0000
0000
1000
0000
0000
0000
0010
0000
0001
0000
0000
0000
,
0010
0000
0000
0001
0000
0000
0010
0000
0000
0000
0001
0000
1000
0000
0000
0000
,
0100
0000
0000
0001
0000
0000
0010
0000
0000
0000
0010
0000
0100
0000
0000
0000
,
1000
0000
0000
0010
0000
0000
0100
0000
0000
0000
0001
0000
0010
0000
0000
0000
,
0100
0000
0000
0010
0000
0000
1000
0000
0000
0000
0010
0000
0001
0000
0010
0000
,
1000
0000
0000
0100
0000
0000
1000
0000
0000
0000
0010
0000
0001
0000
0100
0000
,
1000
0000
0000
0100
0000
0000
0001
0000
0000
0000
0100
0000
0001
0000
0100
0000
,
0010
0000
0000
0001
0000
0000
0100
0000
0000
0000
0100
0000
0010
0000
0000
0000
,
2000
0000
0000
0001
0000
0000
0020
0000
3000
0000
0100
0000
0100
0000
0030
0000
,
0001
0000
0010
0100
0000
0100
0010
0000
,
1000
0100
1000
0001
0000
0010
0001
0000
,
1000
0000
0010
0100
0001
0000
0100
0010
,
0200
0000
0000
1000
0000
0000
0002
0000
0300
0000
0010
0000
0013
0000
0000
0000
,
1000
0000
1000
0100
0000
0100
0010
0000
,
0001
0010
0100
0010
0000
0001
0001
0000
,
1000
0000
0100
1000
0100
0000
0010
1000
,
0002
0000
0000
1000
0000
0000
0020
0000
0003
0000
0100
0000
1030
0000
0000
0000
,
1010
0001
0000
0001
0101
1000
0000
1000
,
0110
0100
0000
1000
0000
0100
0000
0001
,
1100
0010
0000
0001
0011
0100
0000
0010
,
1001
1000
0000
0100
0000
1000
1000
0000
,
0010
0100
0010
0001
0100
1000
0100
0000
,
1000
0100
0010
0001
0100
0010
1000
0000
,
0010
1000
0010
0000
0100
1000
0100
0000
,
2000
0000
0000
0010
0000
0000
0002
0000
3000
0000
0100
0000
0013
0000
0000
0000
,
0100
0100
1000
0100
1000
0001
0010
0000
,
0001
0010
0001
0100
1000
0010
0001
0000
,
0100
0010
0001
0000
0100
1000
0010
0000
,
0200
0000
0000
1000
0000
0000
2000
0000
0300
0000
0001
0000
3001
0000
0000
0000
,
0010
0010
0001
0000
0100
0100
0001
0000
,
0010
1000
0010
0100
0000
0001
0000
2000
,
0000
0000
0010
0000
0010
0000
0010
3000
,
0001
1000
0000
0110
0000
1000
0100
0000
,
0001
1000
0001
0010
0100
0010
0001
0000
,
0010
0000
0010
0200
0000
1000
1000
0300
,
1000
0000
0000
1000
0000
0000
0001
0000
0010
0000
0000
0000
0100
0000
0000
0000
,
1002
0100
0100
1003
,
0202
0303
0220
0330
,
0100
0000
0100
1000
0100
0000
0100
0010
,
0001
0010
1000
0001
0200
0000
0300
0000
,
1000
0001
0000
0001
0010
1000
0010
1000
,
1200
0000
0000
1000
0000
1000
0010
0300
,
0001
0000
0001
0100
0001
0000
0001
0010
,
0100
1000
0001
0100
0020
0000
0030
0000
,
1100
1100
0000
0000
0101
0101
0000
0000
,
0100
0000
0000
0000
0100
0000
0000
0000
0010
0000
0010
0100
0010
0000
0001
0000
,
1000
0100
0010
0100
0001
1000
0010
0100
,
0001
1000
0100
1000
0001
0010
0001
0100
,
0001
0100
0010
0010
0100
0001
0001
1000
,
0100
1000
0100
0001
1000
1000
0010
0000
,
0100
0001
0100
0010
0100
0010
0001
1000
,
0001
0100
0010
0100
1000
0100
0010
0000
,
1010
1010
0000
0000
0101
0101
0000
0000
,
0010
0000
0000
1001
0000
0000
1010
0000
,
0100
0000
0000
0101
0000
0000
1100
0000
,
0100
0000
0000
0101
0000
0000
0011
0000
,
0001
0000
0000
1001
0000
0000
0110
0000
,
1000
0000
0000
0100
0000
0000
0010
0000
0000
0000
0100
0000
0010
0000
0001
0000
,
0100
0000
0000
1000
0000
0000
0100
0000
0000
0000
0100
0000
0010
0000
0100
0000
,
0001
0000
0000
0001
0000
0000
0100
0000
0000
0000
0100
0000
1000
0000
1000
0000
,
1000
0000
0000
0010
0000
0000
1000
0000
0000
0000
0100
0000
1000
0000
0000
0000
,
0011
0000
0000
0010
0000
0000
1000
0000
0000
0000
0100
0000
0001
0000
0000
0000
,
2002
0000
0000
0000
0000
0000
0000
0000
0000
3003
0000
0000
0000
0000
0000
0000
;

//---------------dance-single - ----------------
#NOTEDATA:;
#CHARTNAME:;
#STEPSTYPE:dance-single;
#DESCRIPTION:;
#CHARTSTYLE:;
#DIFFICULTY:Medium;
#METER:9;
#RADARVALUES:0.451224,0.519837,0.189315,0.318846,0.064766,317.000000,298.000000,19.000000,32.000000,0.000000,0.000000,0.000000,0.000000,0.000000,0.451224,0.519837,0.189315,0.318846,0.064766,317.000000,298.000000,19.000000,32.000000,0.000000,0.000000,0.000000,0.000000,0.000000;
#CREDIT:;
#NOTES:
0000
0000
0000
0000
,
0000
0000
0000
0000
,
0000
0000
0000
0000
,
0000
0000
0000
0000
,
0100
0000
0100
0001
1000
0000
1000
0100
,
0001
0010
0100
0010
,
0001
0002
0000
0003
1000
2000
0000
3000
,
0001
0000
0000
0100
0000
0000
0001
0000
0000
0000
0000
0000
0100
0000
0000
0000
,
1000
0000
0000
0010
0000
0000
1000
0000
0000
0000
0000
0000
0100
0000
0000
0000
,
0001
0000
0000
0010
0000
0000
1000
0000
0000
0000
0000
0000
1000
0000
0000
0000
,
0100
0000
0000
0001
0000
0000
0010
0000
0000
0000
0000
0000
0100
0000
0000
0000
,
0010
0000
0000
0100
0000
0000
1000
0000
0000
0000
0000
0000
1010
0000
0000
0000
,
0100
0000
0000
0001
0000
0000
0010
0000
0000
0000
0000
0000
1010
0000
0000
0000
,
0001
0000
0000
0010
0000
0000
0100
0000
0000
0000
0000
0000
0101
0000
0000
0000
,
0010
0000
0000
1000
0000
0000
0100
0000
0000
0000
0000
0000
0110
0000
0000
0000
,
0001
0000
0000
0010
0000
0000
1001
0000
,
0100
0000
0100
0000
0100
0001
0010
0000
,
0001
0000
0001
0000
0001
0010
0100
0000
,
0020
0000
0031
0100
2000
0000
3010
0100
,
1000
0000
1000
0001
0000
0000
0110
0000
,
1000
0000
1000
0000
1000
0010
0100
0000
,
0010
0000
0010
0000
0010
1000
0100
0000
,
2000
0000
3010
0001
0020
0000
1030
0100
,
0010
0000
0010
0100
0000
0000
0101
0000
,
0200
1000
0300
0010
2000
0010
3000
0100
,
0020
0001
0030
1000
0000
0001
0000
1000
,
0020
0100
0030
0001
0200
0001
0300
0010
,
0002
0010
0003
1000
0000
0010
0010
0000
,
1000
0000
0010
0000
0100
1000
0001
0000
,
0100
0000
0100
1000
0001
0000
0010
0000
,
1000
0001
0010
0000
1000
0100
0001
0000
,
0001
0000
0001
0010
0000
0000
1100
0000
,
1000
0000
0010
0100
0001
0000
1000
0000
,
1000
0010
0100
0000
0010
0000
0100
0000
,
0001
1000
0010
0000
1000
0010
0100
0000
,
1000
0000
1000
0001
0000
0000
0110
0000
,
0100
0000
1000
0000
0001
1000
0010
0000
,
0100
0000
0100
1000
0000
1000
0001
0000
,
0100
0000
0100
0000
0010
0001
1000
0000
,
0010
1000
0000
0001
0000
0000
0110
0000
,
1000
0100
1000
0000
0010
0100
0010
0000
,
0100
0000
0100
0001
0000
0010
0010
0000
,
0001
0000
0000
0100
0000
0000
0001
0000
1000
0000
0000
0000
0001
0000
0000
0000
,
1000
0100
1000
0001
,
2002
0003
0200
3300
,
0010
0010
0100
0100
,
1000
0000
1000
0100
2000
0000
3000
0000
,
0001
0100
0010
0000
0010
1000
0001
0000
,
1000
0100
0001
0101
,
0100
0000
0100
0000
0001
0000
0001
0100
,
0010
0100
0020
0030
,
0100
0200
0000
0300
1000
2000
0000
3000
,
0020
0001
1000
0031
,
0100
1000
0100
0000
0010
0100
0010
0000
,
0001
0010
0100
1000
0100
0000
1100
0000
,
0001
0010
0001
0000
1000
0100
1000
0000
,
0010
0100
0010
0100
0001
0000
1001
0000
,
0001
0000
1000
0100
1000
0010
0100
0000
,
0100
1000
0100
0001
1000
0000
1100
0000
,
0010
0020
0000
0030
0100
0200
0000
0300
,
2000
0000
0000
0002
3000
0000
0103
0000
,
0200
0000
0000
0002
0300
0000
0013
0000
,
0020
0000
0000
2000
0030
0000
3100
0000
,
0200
0000
0000
2000
0300
0000
3001
0000
,
0001
0000
0000
1000
0000
0000
0100
0000
0000
0000
0000
0000
0100
0000
0000
0000
,
1000
0000
0000
0001
0000
0000
1000
0000
0000
0000
0000
0000
0010
0000
0000
0000
,
0100
0000
0000
1000
0000
0000
0001
0000
0000
0000
0000
0000
0010
0000
0000
0000
,
0001
0000
0000
0010
0000
0000
0100
0000
0000
0000
0000
0000
0001
0000
0000
0000
,
1100
0000
0000
0101
0000
0000
1001
0000
,
0022
0000
0000
0000
0000
0000
0000
0000
0000
0033
0000
0000
0000
0000
0000
0000
;

//---------------dance-single - ----------------
#NOTEDATA:;
#CHARTNAME:;
#STEPSTYPE:dance-single;
#DESCRIPTION:;
#CHARTSTYLE:;
#DIFFICULTY:Easy;
#METER:4;
#RADARVALUES:0.253369,0.275004,0.159423,0.119567,0.000000,178.000000,162.000000,16.000000,12.000000,0.000000,0.000000,0.000000,0.000000,0.000000,0.253369,0.275004,0.159423,0.119567,0.000000,178.000000,162.000000,16.000000,12.000000,0.000000,0.000000,0.000000,0.000000,0.000000;
#CREDIT:;
#NOTES:
0000
0000
0000
0000
,
0000
0000
0000
0000
,
0000
0000
0000
0000
,
0000
0000
0000
0000
,
1000
0000
0100
0000
,
1000
0000
0001
0000
,
0020
0030
0200
0300
,
0100
0000
1001
0000
,
0010
0000
0110
0000
,
0001
0000
0110
0000
,
1000
0000
1001
0000
,
0001
0010
0001
0000
,
0100
0010
0100
0000
,
1000
0001
1000
0000
,
0100
1000
0100
0000
,
2002
0000
0000
3003
,
0010
0000
0100
0000
,
0010
0001
0100
0000
,
1000
0000
0100
0000
,
0010
1000
0100
0000
,
1000
0000
0001
0000
,
0001
0010
0100
0000
,
0010
0000
0010
0000
,
0100
0010
0001
0000
,
1000
0000
1001
0000
,
0010
0000
0110
0000
,
0001
0000
0110
0000
,
0010
0000
1001
0000
,
0100
0010
0100
0000
,
0100
1000
0100
0000
,
0001
1000
0001
0000
,
0010
0001
0100
0000
,
0010
0010
1000
0000
,
0100
0100
0001
0000
,
0010
1000
0010
0000
,
0001
0100
0001
0000
,
2000
0000
3100
0000
,
0020
0000
0031
0000
,
0002
0000
0013
0000
,
0200
0000
0310
0000
,
2000
0000
3001
0000
,
0200
0000
1300
0000
,
0020
0000
1030
0000
,
0200
0000
0301
0000
,
0010
0000
0110
0000
,
1000
1000
0100
0000
,
0001
0001
0010
0000
,
0010
0010
0100
0000
,
0100
0100
0001
0000
,
0010
0001
0010
0000
,
0100
0001
0100
0000
,
0010
0000
1000
0000
,
0100
0000
1001
0000
,
1000
0100
1000
0000
,
0010
1000
0010
0000
,
0100
0010
0001
0000
,
0001
0010
1000
0000
,
0010
0010
0100
0000
,
0001
0001
0010
0000
,
1000
0000
0001
0000
,
0100
0000
0110
0000
,
0001
0000
1001
0000
,
1000
0000
0110
0000
,
0010
0000
1001
0000
,
0100
0010
0100
0000
,
1000
0001
1000
0000
,
0100
0100
1000
0000
,
0010
0010
1000
0000
,
1000
0000
0001
0000
,
1001
0000
0000
0000
;

//---------------dance-single - ----------------
#NOTEDATA:;
#CHARTNAME:;
#STEPSTYPE:dance-single;
#DESCRIPTION:;
#CHARTSTYLE:;
#DIFFICULTY:Beginner;
#METER:3;
#RADARVALUES:0.176504,0.240629,0.049820,0.149459,0.000000,124.000000,119.000000,5.000000,15.000000,0.000000,0.000000,0.000000,0.000000,0.000000,0.176504,0.240629,0.049820,0.149459,0.000000,124.000000,119.000000,5.000000,15.000000,0.000000,0.000000,0.000000,0.000000,0.000000;
#CREDIT:;
#NOTES:
// measure 0
0000
0000
0000
0000
,  // measure 1
0000
0000
0000
0000
,  // measure 2
0000
0000
0000
0000
,  // measure 3
0000
0000
0000
0000
,  // measure 4
0000
0000
0000
0000
,  // measure 5
0000
0000
0000
0000
,  // measure 6
0100
0000
0100
0000
,  // measure 7
2000
0000
3000
0000
,  // measure 8
0001
0000
0001
0000
,  // measure 9
0002
0000
0003
0000
,  // measure 10
0100
0000
0100
0000
,  // measure 11
0200
0000
0300
0000
,  // measure 12
0010
0000
0010
0000
,  // measure 13
0020
0000
0030
0000
,  // measure 14
1000
0000
1000
0000
,  // measure 15
1001
0000
0000
0000
,  // measure 16
0010
0000
1000
0000
,  // measure 17
0010
0000
0010
0000
,  // measure 18
0100
0000
0001
0000
,  // measure 19
0200
0000
0300
0000
,  // measure 20
1000
0000
0001
0000
,  // measure 21
1000
0000
1000
0000
,  // measure 22
0010
0000
0001
0000
,  // measure 23
0020
0000
0030
0000
,  // measure 24
0100
0000
1000
0000
,  // measure 25
0100
0000
0100
0000
,  // measure 26
0001
0000
0010
0000
,  // measure 27
0001
0000
0001
0000
,  // measure 28
2000
0000
3000
0000
,  // measure 29
0010
0000
1000
0000
,  // measure 30
0001
0000
0100
0000
,  // measure 31
0010
0010
0010
0000
,  // measure 32
0200
0000
0300
0000
,  // measure 33
0001
0000
0001
0000
,  // measure 34
1000
0000
0100
0000
,  // measure 35
1000
1000
1000
0000
,  // measure 36
0010
0000
0010
0000
,  // measure 37
0100
0000
0100
0000
,  // measure 38
1000
0000
0001
0000
,  // measure 39
0001
0000
1001
0000
,  // measure 40
0010
0000
1000
0000
,  // measure 41
0010
0000
0010
0000
,  // measure 42
0100
0000
0001
0000
,  // measure 43
0100
0000
1000
0000
,  // measure 44
0020
0000
0030
0000
,  // measure 45
0100
0000
0100
0000
,  // measure 46
0010
0010
0010
0000
,  // measure 47
1000
0000
0001
0000
,  // measure 48
1000
0000
1000
0000
,  // measure 49
0010
0000
0010
0000
,  // measure 50
0100
0100
0100
0000
,  // measure 51
0001
0000
1000
0000
,  // measure 52
2002
0000
3003
0000
,  // measure 53
0010
0000
1000
0000
,  // measure 54
0010
0010
0010
0000
,  // measure 55
0100
0000
0010
0000
,  // measure 56
0100
0100
0100
0000
,  // measure 57
1000
0000
0001
0000
,  // measure 58
1000
0000
0001
0000
,  // measure 59
0010
0000
0010
0000
,  // measure 60
0200
0000
0300
0000
,  // measure 61
0002
0000
0003
0000
,  // measure 62
2000
0000
3000
0000
,  // measure 63
0020
0000
0030
0000
,  // measure 64
0001
0001
0001
0000
,  // measure 65
1000
0000
0010
0000
,  // measure 66
1000
1000
1000
0000
,  // measure 67
0100
0000
1000
0000
,  // measure 68
1001
0000
0000
0000
,  // measure 69
1001
0000
0000
0000
;
