#VERSION:0.81;
#TITLE:XiNX;
#SUBTITLE:;
#ARTIST:cosMo@BousouP feat. 96;
#TITLETRANSLIT:;
#SUBTITLETRANSLIT:;
#ARTISTTRANSLIT:;
#GENRE:;
#ORIGIN:;
#CREDIT:;
#BANNER:XiNX.png;
#BACKGROUND:XiNX-bg.png;
#PREVIEWVID:;
#JACKET:;
#CDIMAGE:;
#DISCIMAGE:;
#LYRICSPATH:;
#CDTITLE:;
#MUSIC:XiNX.mp3;
#OFFSET:0.055594;
#SAMPLESTART:44.562897;
#SAMPLELENGTH:10.212765;
#SELECTABLE:YES;
#BPMS:0.000=188.000,
100.000=94.000,
108.000=188.000,
260.000=94.000,
268.000=188.000;
#STOPS:;
#DELAYS:;
#WARPS:;
#TIMESIGNATURES:0.000=4=4;
#TICKCOUNTS:0.000=4;
#COMBOS:0.000=1;
#SPEEDS:0.000=1.000=0.000=0;
#SCROLLS:0.000=1.000;
#FAKES:;
#LABELS:0.000=Song Start;
#BGCHANGES:;
#KEYSOUNDS:;
#ATTACKS:
;

//---------------dance-single - ----------------
#NOTEDATA:;
#CHARTNAME:;
#STEPSTYPE:dance-single;
#DESCRIPTION:;
#CHARTSTYLE:;
#DIFFICULTY:Hard;
#METER:13;
#RADARVALUES:0.736811,0.926813,0.442087,0.573075,0.810492,506.000000,54.000000,70.000000,0.000000,0.000000,0.000000,0.000000,0.000000,0.736811,0.926813,0.442087,0.573075,0.810492,506.000000,54.000000,70.000000,0.000000,0.000000,0.000000,0.000000,0.000000;
#CREDIT:;
#NOTES:
0000
0000
0000
0000
,
0000
0000
0000
0000
,
0000
0000
0000
0000
,
0000
0000
0000
0000
,
0000
0000
0000
0000
,
0011
0000
0101
0000
0010
1000
0010
0100
,
1000
0100
0001
0010
0001
0000
1000
0000
,
0010
0100
0010
0100
0010
0001
1000
0100
0001
0100
0010
1000
,
0002
0000
0000
0010
0000
0000
0010
0000
0000
1003
0010
1000
,
0100
0000
0100
0001
0000
0001
0010
0000
0010
0100
0000
0100
,
1000
0000
1000
0001
0000
0001
0010
0000
0010
0100
0000
0100
,
0002
0000
0000
0003
0100
0010
0200
0000
0000
1300
0000
0000
,
1000
0000
1001
0000
0000
0010
0110
0000
0000
1100
0000
0000
,
0010
0000
0010
0001
0000
0001
0010
0000
0010
1000
0000
1000
,
0100
0000
0100
0001
0000
0001
0010
0000
0010
1000
0000
1000
,
0020
0000
0000
0030
0000
0100
2000
0000
0000
3001
0010
0001
,
0020
0000
0000
0000
1030
0000
0100
1000
0200
0000
0320
0000
0032
0000
0023
0000
,
1030
0000
0000
0000
1000
0000
0001
1000
0001
0000
0010
0000
0100
0000
0010
0000
,
1000
0100
0001
0100
0010
1000
0001
0100
,
1100
0000
0000
1001
0000
0000
0010
0000
0001
0000
0001
0000
,
0100
0000
0000
0000
0000
0000
0000
0000
0000
0000
0000
0000
0110
0000
0000
0000
0000
0000
0000
0000
0001
0000
0000
0000
0001
0000
0000
0000
0000
0000
0000
0000
0000
0000
0000
0000
1001
0000
0000
0000
0000
0000
0010
0000
0000
1000
0000
0000
,
0020
0100
0100
2030
,
3200
0302
0023
0032
,
2003
0100
3002
0013
,
1100
0000
0110
0000
0101
0000
0011
0000
1010
0000
1001
0000
,
0100
0000
0000
0000
0000
0000
0010
0000
0000
0000
0100
0000
1000
0000
0000
0000
0000
0000
0101
0000
0000
0000
0000
0000
1010
0000
0000
0000
0000
0000
1001
0000
0000
0000
0000
0000
0010
0000
0000
1000
0000
0000
0010
0000
0000
0001
0000
0000
,
1000
0000
0000
1000
0010
1000
0001
0000
0000
0100
0000
0100
0010
0000
0001
0010
0000
0000
1000
0001
1000
0001
1000
0001
,
1000
0000
1000
0100
0000
0100
1000
0000
1000
0010
0000
0010
,
0100
0000
0100
0001
0000
0001
0010
0000
0010
0100
0000
0100
,
2000
0001
0010
0100
,
0010
3001
0101
1100
,
0002
0000
0000
0013
1000
0010
2000
0000
0000
3001
0000
0000
,
0220
0030
0020
0330
,
2200
0000
0000
3300
0010
0100
0010
0000
0001
0000
1000
0001
,
2000
3020
0230
0302
,
0103
0000
1000
0000
0000
1000
0001
0000
0010
0000
0100
0000
,
1000
0000
0010
0100
0000
0001
0100
0000
0000
0101
0000
0000
,
2002
0000
0000
3003
0010
0100
0010
0000
1000
0000
0001
0000
,
1000
0000
0000
1000
0000
0100
0002
0000
0000
0003
0000
1000
,
0010
0000
1000
0000
0000
1000
0100
0000
0001
0000
0000
0001
,
0010
0100
0010
1000
0100
1000
0010
1000
0100
0020
0000
0000
,
0030
0000
0000
0100
0010
0001
0010
0100
0010
1000
0001
0100
,
0010
0000
1000
0000
0100
0000
0010
0000
0100
0000
1000
0000
0020
0000
0000
2030
0000
0000
3020
0000
0000
0230
0000
0000
,
0301
0000
0010
0000
0000
0100
0002
0000
0000
0003
1000
0100
,
0001
0000
0001
0010
0000
0010
0100
0001
0010
0001
1000
0100
,
0010
0000
0000
0010
0001
0100
0010
0100
1000
0010
1000
0001
,
1000
0000
0000
0110
0000
1000
0100
0000
0000
0011
0000
0000
,
1000
0000
0000
0001
1000
0001
0010
0001
0010
0100
0010
1000
,
0101
0000
0011
0000
0110
0000
1000
0100
0010
0001
0100
2000
,
0002
0000
0000
3000
,
0200
0300
0200
0300
,
1000
1000
0103
1000
,
0010
0001
1000
0001
,
0100
0000
0000
1000
0000
0000
1100
0000
0000
0010
0000
0010
,
0001
0000
0100
0001
0000
0000
0011
0000
0000
0100
0000
0100
,
1000
0000
0001
1000
0000
0000
0110
0000
1000
0001
0000
0000
,
1010
1100
0101
0110
,
1002
0000
0000
1003
0010
0100
0010
0000
0001
0000
0100
0000
,
0001
0010
0001
0010
0100
0010
0100
1000
0100
0001
0010
1000
,
0100
0000
0100
0001
0000
0001
0010
0000
0010
0001
0000
0001
,
1000
0000
1000
0100
0000
0100
0010
0100
1000
0100
0000
0000
,
2100
0000
0000
3100
0001
0010
0001
0000
0100
0000
0010
0000
,
1000
0100
0010
0001
0010
0100
0010
0100
1000
0001
0000
0000
,
1020
0031
0210
1300
,
0012
1003
2010
3010
,
0020
0000
0130
0001
0100
0010
1000
1000
,
0100
0001
0100
1000
0020
0000
2000
3030
,
2002
0003
0100
3100
,
0011
0000
1010
0000
0200
0320
0230
0302
,
1003
0110
1100
0011
,
0100
0101
1000
1010
,
0010
0000
1001
0000
0002
0023
2030
3200
,
0320
0100
0001
0001
,
1000
0100
1000
0031
,
1000
0000
1000
0010
0000
0000
0100
0000
0100
0010
0000
0000
,
0001
0000
0001
0010
0000
0010
0100
0000
0100
1000
0010
0100
,
2000
0000
0000
3000
0010
0001
0010
0000
0100
0000
0001
0000
,
1000
0000
0000
1100
0000
0010
0010
0000
0000
0101
0000
0000
,
0200
0000
0010
0300
0000
0001
2000
0000
0001
3000
0000
0010
,
1000
0001
1000
0010
1000
0010
0100
0001
0010
1000
0000
0000
,
0002
0000
0010
0003
0000
0100
0020
0000
1000
0030
0000
0000
,
0010
1000
0100
0010
0001
0010
0100
1000
0100
1000
0001
1000
,
0000
2002
0000
0000
,
0000
0000
0000
0000
,
0000
0000
0000
0000
,
0000
0000
0000
0000
,
0000
0000
0000
0000
,
0000
3003
0000
0000
0000
0000
0000
0000
0000
0000
0000
0000
;

//---------------dance-single - ----------------
#NOTEDATA:;
#CHARTNAME:;
#STEPSTYPE:dance-single;
#DESCRIPTION:;
#CHARTSTYLE:;
#DIFFICULTY:Medium;
#METER:10;
#RADARVALUES:0.511090,0.641640,0.368406,0.401153,0.241510,343.000000,45.000000,49.000000,0.000000,0.000000,0.000000,0.000000,0.000000,0.511090,0.641640,0.368406,0.401153,0.241510,343.000000,45.000000,49.000000,0.000000,0.000000,0.000000,0.000000,0.000000;
#CREDIT:;
#NOTES:
0000
0000
0000
0000
,
0000
0000
0000
0000
,
0000
0000
0000
0000
,
0000
0000
0000
0000
,
0000
0000
0000
0000
,
1000
0000
0100
0000
0001
0010
0100
0000
,
1000
0000
0010
1000
0010
0000
0100
0000
,
1000
0000
1000
0010
0000
0010
0001
0000
0001
0100
0000
0100
,
0002
0000
0000
0000
0000
0000
0000
0000
0000
0003
0000
0100
,
1000
0100
1000
0010
,
0001
0100
1000
0010
,
0001
0101
0010
0110
,
0000
0000
0020
0000
0000
0000
1030
0000
0000
1010
0000
0000
,
0100
0001
0010
0100
,
0010
0100
1000
0010
,
1000
1100
0100
0101
,
2000
0000
0010
3010
,
0200
0300
1000
0100
,
0010
0001
0100
0000
,
1000
0000
0000
0001
0000
0000
0100
0000
0001
0000
0100
0000
,
2000
3000
0020
0030
,
1000
0001
1010
0100
,
0010
0001
1001
0001
,
0010
1100
0001
0101
,
0002
0000
0010
0000
0100
0000
2003
0000
0100
0000
3001
0000
,
0100
0000
1000
0000
0010
0000
1000
0000
0100
0000
0100
0001
0100
0000
0101
0000
,
0001
0000
0000
1000
0000
1000
0010
0000
0000
0100
0000
0100
0010
0000
0000
0001
0000
0000
0020
0000
0000
0030
0000
0000
,
0001
1000
0100
0001
,
0010
0100
0010
1000
,
0200
0000
0010
1000
,
0020
0330
0100
1000
,
0002
0003
0200
0300
,
2020
3030
0220
0330
,
1000
0000
0000
1000
0000
0100
0010
0000
0000
0010
0000
1000
,
0100
1000
1001
0001
,
0100
0000
0001
0100
0000
0000
0001
0000
1000
0001
0000
0000
,
0010
0000
0010
0100
0000
0100
1000
0000
1000
0001
0000
0000
,
0100
0101
1000
1100
,
0100
0000
0000
0100
0000
1000
0001
0000
0000
1001
0000
0000
,
0020
0000
1000
0000
0000
0030
2000
0000
0001
0000
0000
3000
,
0100
0000
0100
0001
0000
0001
1000
0000
1000
0200
0000
0000
,
0300
0110
1000
0010
,
1000
0000
0001
0000
1000
0100
1000
0000
,
0100
0000
0100
1000
0000
0000
0010
0000
0010
0001
0000
0000
,
0010
0000
0010
0100
0000
0000
1100
0000
0000
0101
0000
0000
,
0100
0100
0010
0010
,
0001
0100
0001
1000
,
0100
0000
0100
1000
0000
1000
0010
0000
0010
0001
0000
0001
,
0100
0011
0101
0110
,
0002
0003
2002
3003
,
0020
0030
0220
0330
,
0200
0300
2200
3300
,
0020
0030
2020
3030
,
0100
1000
0110
0000
,
0001
0010
1001
0000
,
0001
1000
0100
1000
,
0110
0101
0011
1010
,
0100
0000
0000
0010
0000
0000
0100
0000
0100
0001
0000
0000
,
0010
0000
0010
0001
0000
0001
0010
0000
0000
1010
0000
0000
,
1000
0000
1000
0100
0000
0000
0010
0000
0010
0100
0000
0000
,
0001
0000
0001
0010
0000
0010
1000
0000
0000
1010
0000
0000
,
0100
0110
1000
0100
,
0010
1000
0001
0010
,
2002
3003
0022
0033
,
0202
0303
0220
0330
,
1000
0000
0100
0000
1000
0100
1000
0000
,
0001
0100
1000
0100
1000
0000
1001
0000
,
0200
0000
0020
0330
,
1000
0000
1010
0000
0010
1000
0100
0001
,
0010
0100
1000
0001
,
0100
0000
0100
0001
0000
0000
0010
0000
0010
1000
0000
0000
,
0010
0000
0000
0000
0010
0000
1000
0000
0000
0000
1000
0000
0001
0000
0000
1000
0000
0000
0001
0000
0000
0010
0000
0000
,
2000
3000
0020
0030
,
0001
0100
0202
0303
,
1000
1010
0010
1001
,
1000
0001
0220
0330
,
0100
0000
0000
1000
0000
0000
0100
0000
0100
0001
0000
0000
,
1000
0000
0000
0010
0000
0000
1000
0000
1000
0010
0000
0000
,
0001
0000
1000
0001
0000
0000
0100
0000
1000
0100
0000
0000
,
0010
0000
0010
0100
0000
0100
0001
0000
0001
0100
0000
0000
,
0001
0000
0001
0010
0000
0000
1000
0000
1000
0010
0000
0000
,
0010
0000
0010
1000
0000
1000
0001
0000
0001
0100
0000
0100
,
0000
0020
0000
0000
,
0000
0000
0000
0000
,
0000
0000
0000
0000
,
0000
0000
0000
0000
,
0000
0000
0000
0000
,
0000
0030
0000
0000
0000
0000
0000
0000
0000
0000
0000
0000
;

//---------------dance-single - ----------------
#NOTEDATA:;
#CHARTNAME:;
#STEPSTYPE:dance-single;
#DESCRIPTION:;
#CHARTSTYLE:;
#DIFFICULTY:Easy;
#METER:6;
#RADARVALUES:0.318115,0.427657,0.114615,0.360219,0.004093,214.000000,14.000000,44.000000,0.000000,0.000000,0.000000,0.000000,0.000000,0.318115,0.427657,0.114615,0.360219,0.004093,214.000000,14.000000,44.000000,0.000000,0.000000,0.000000,0.000000,0.000000;
#CREDIT:;
#NOTES:
// measure 0
0000
0000
0000
0000
,  // measure 1
0000
0000
0000
0000
,  // measure 2
0000
0000
0000
0000
,  // measure 3
0000
0000
0000
0000
,  // measure 4
0000
0000
0000
0000
,  // measure 5
0010
0000
0100
0000
,  // measure 6
0010
1000
0100
0000
,  // measure 7
0001
1000
0001
1000
,  // measure 8
0002
0000
0000
0003
,  // measure 9
0010
0001
0010
0000
,  // measure 10
0100
1000
0100
0000
,  // measure 11
0010
0000
0100
0000
,  // measure 12
0001
0000
1001
0000
,  // measure 13
0010
0010
1000
0000
,  // measure 14
0100
0100
0001
0000
,  // measure 15
0010
0000
1000
0000
,  // measure 16
0100
0000
0110
0000
,  // measure 17
1000
0001
1000
0000
,  // measure 18
1000
0100
1000
0000
,  // measure 19
0100
0001
0010
0100
,  // measure 20
0001
0000
1001
0000
,  // measure 21
0010
0100
0010
0000
,  // measure 22
1000
0010
1000
0000
,  // measure 23
0010
0001
0100
1000
,  // measure 24
0010
0000
1001
0000
,  // measure 25
0200
0000
2300
0000
3010
0100
0020
0000
,  // measure 26
0032
0000
0203
0000
0301
0010
0002
0000
,  // measure 27
1003
0100
1000
0010
,  // measure 28
0100
0001
0010
0001
,  // measure 29
0200
0000
0000
0000
,  // measure 30
0300
0000
0010
1000
,  // measure 31
0020
0000
0200
0030
,  // measure 32
0002
0300
2000
3003
,  // measure 33
1001
0000
0010
0100
,  // measure 34
1000
0100
0010
0000
,  // measure 35
2000
3000
0200
0300
,  // measure 36
0002
0003
0220
0330
,  // measure 37
0100
0100
1000
0000
,  // measure 38
0010
0010
0001
0000
,  // measure 39
0200
0300
2000
3000
,  // measure 40
0020
0030
2002
3003
,  // measure 41
0100
0100
1000
0000
,  // measure 42
0010
0010
0001
0000
,  // measure 43
0100
0001
0010
0001
,  // measure 44
1000
1000
0001
0000
,  // measure 45
0010
0010
0100
0000
,  // measure 46
1000
1000
0010
0000
,  // measure 47
0200
0300
0020
0030
,  // measure 48
2000
3000
2002
3003
,  // measure 49
0100
0000
0010
0000
,  // measure 50
0100
0100
0001
0000
,  // measure 51
0010
0000
1000
0000
,  // measure 52
0010
0010
0001
0000
,  // measure 53
0100
0001
0010
0000
,  // measure 54
0001
1000
0010
0000
,  // measure 55
0100
0010
1000
0000
,  // measure 56
0100
1000
0001
0010
,  // measure 57
0100
0000
0110
0000
,  // measure 58
0010
1000
0010
0000
,  // measure 59
0001
0000
1001
0000
,  // measure 60
0010
0010
1000
0000
,  // measure 61
0100
0010
1000
0000
,  // measure 62
1000
0001
0010
0000
,  // measure 63
0001
0100
0010
1000
,  // measure 64
0100
0000
1001
0000
,  // measure 65
0200
0300
0020
0030
,  // measure 66
2000
0000
0002
3003
,  // measure 67
0010
0000
0100
0010
,  // measure 68
1000
0001
0100
1000
,  // measure 69
0010
0000
1000
0100
,  // measure 70
0020
0030
0200
0300
,  // measure 71
2000
3000
0220
0330
,  // measure 72
1000
1000
0100
0000
,  // measure 73
0001
0001
0100
0000
,  // measure 74
0010
1000
0100
1000
,  // measure 75
0010
0010
0001
0000
,  // measure 76
1000
0100
0001
0000
,  // measure 77
0010
1000
0100
0000
,  // measure 78
2000
3000
0002
0003
,  // measure 79
0020
0030
0002
0003
,  // measure 80
0200
0300
0020
0030
,  // measure 81
2000
3000
0002
0003
,  // measure 82
0000
1001
0000
0000
,  // measure 83
0000
0000
0000
0000
,  // measure 84
0000
0000
0000
0000
,  // measure 85
0000
0000
0000
0000
,  // measure 86
0000
0000
0000
0000
,  // measure 87
0000
1001
0000
0000
0000
0000
0000
0000
0000
0000
0000
0000
0000
0000
0000
0000
;
