#TITLE:XROSS INFECTION;
#SUBTITLE:;
#ARTIST:BlackY vs Yooh;
#TITLETRANSLIT:;
#SUBTITLETRANSLIT:;
#ARTISTTRANSLIT:;
#GENRE:;
#CREDIT:;
#BANNER:XROSS INFECTION.png;
#BACKGROUND:XROSS INFECTION-bg.png;
#LYRICSPATH:;
#CDTITLE:;
#MUSIC:XROSS INFECTION.ogg;
#OFFSET:0.449396;
#SAMPLESTART:71.921997;
#SAMPLELENGTH:15.000000;
#SELECTABLE:YES;
#BPMS:0.000000=97.000000
,20.000000=194.000000
,276.000000=97.000000
,278.000000=194.000000
;
#STOPS:19.875000=1.237000
;
#BGCHANGES:;
#KEYSOUNDS:;
#ATTACKS:;

//---------------dance-single - ----------------
#NOTES:
     dance-single:
     :
     Hard:
     16:
     0.767486,0.851087,0.556638,0.404828,0.425912,637.000000,571.000000,66.000000,48.000000,0.000000,0.000000,0.767486,0.851087,0.556638,0.404828,0.425912,637.000000,571.000000,66.000000,48.000000,0.000000,0.000000:
0000
0000
0000
0000
,
2000
0000
0000
0000
0002
0000
0000
3000
,
0200
0000
0000
0000
0000
0000
0000
0303
,
0022
0000
0000
0000
0000
0000
0000
0003
,
2000
0000
0000
0000
0000
0000
0000
0000
0000
0000
0000
0000
0000
0000
0000
3030
,
0100
1000
0000
0000
0010
0000
0000
0100
0001
0100
0000
0000
1000
0000
0000
0010
,
0001
0010
0000
0000
0100
0000
0000
1000
0001
1000
0000
0000
0100
0000
0000
0001
,
0010
0001
0000
0000
1000
0000
0000
0100
0010
0100
0000
0000
0001
0000
0000
0010
,
1000
0010
0000
0000
0100
0000
0000
0001
0010
0001
0000
0000
0100
0000
1000
0000
,
0010
1000
0000
0000
0100
0000
0000
0001
0100
0001
0000
0000
1000
0000
0000
0010
,
0100
0010
0000
0000
0001
0000
0000
1000
0100
1000
0000
0000
0001
0000
0000
0010
,
1000
0010
0000
0000
0100
0000
0000
1000
0010
1000
0000
0000
0100
0000
0000
0001
,
0100
0001
0000
0000
0010
0000
0000
0100
1000
0000
0100
0000
0010
0000
0001
0000
,
0010
1000
0000
0000
1010
0000
0000
1000
0001
1000
0000
0000
1001
0000
0000
0100
,
0001
0100
0000
0000
0101
0000
0000
0010
0100
0010
0000
0000
0110
0000
0000
1000
,
0100
1000
0000
0000
1100
0000
0000
0010
0001
0010
0000
0000
0011
0000
0000
0100
,
0010
0100
0000
0000
0110
0000
0000
1000
0100
1000
0000
0000
0010
0000
1000
0000
,
0001
0010
0100
0010
1000
0001
0100
0001
,
0100
1000
0010
1000
0100
0001
0010
1000
,
0100
0000
0000
1100
0000
0000
1000
0000
0000
1001
0000
0000
0010
0000
0011
0000
,
0220
0000
0000
0330
,
2000
0010
0100
0010
,
3002
1000
0203
1000
,
0320
0001
0230
1000
,
2300
0000
0100
0000
3020
0000
0100
0100
,
0230
1000
0302
0023
,
0032
1000
0203
0010
,
2300
0001
0010
0010
,
3002
0010
0010
0010
0203
1000
1000
1000
,
0302
0010
0100
0013
,
0201
0310
2001
3100
,
1200
0010
1000
0310
,
0012
0000
1000
0000
0010
0000
0103
0100
,
1000
0100
1000
0100
0010
0100
0010
0100
,
0001
0010
0001
0010
1000
0010
1000
0010
,
0001
0000
0000
1000
0000
0000
0010
0000
0000
1000
0000
0000
0100
0000
0001
0000
,
0200
0000
0000
0300
,
1010
0000
0000
0011
0000
0000
0101
0000
0000
2100
0000
0000
0001
0000
0001
0000
,
3010
0100
0010
0001
1000
0100
0010
0100
,
1001
0000
0000
1010
0000
0000
0110
0000
0000
0021
0000
0000
0100
0000
0100
0000
,
1030
0100
0001
0100
1000
0010
0010
1000
,
0101
0000
0000
0011
0000
0000
1010
0000
0000
0210
0000
0000
1300
0000
0010
0000
,
1010
0000
0000
1100
0000
0000
0101
0000
0000
2001
0000
0000
3010
0000
0001
0000
,
0110
0000
0000
0210
0000
0000
1300
0000
1001
0000
0000
1002
0000
0000
0013
0000
,
0100
1000
0100
0001
0101
1000
1001
0000
,
0200
0010
0000
0010
0000
0010
0000
0010
,
0300
1000
0000
0001
0000
0100
0000
0001
,
2000
0100
0000
0100
0000
0100
0000
0100
,
3000
0010
0000
0100
0000
0001
0000
1000
,
0100
1000
0001
0001
0010
0001
0100
0100
,
0001
0010
1000
1000
0100
1000
0010
0010
,
0110
0100
1000
0001
0011
0100
1000
0001
,
0020
0030
1100
0101
,
0100
0000
0010
0000
0001
0000
0001
1000
0000
0010
1000
0000
0100
0000
1000
0001
,
1000
0000
0010
0000
0100
0000
0010
0000
1000
0000
0001
0100
0000
0001
0010
0100
,
0010
0000
1000
0000
0100
0000
1000
0001
0000
1000
0000
0000
0010
0000
0100
1000
,
0100
0010
1000
0100
0002
0000
1003
1000
,
0010
0000
0100
0000
0010
0000
0100
0001
0000
1000
0001
0000
0010
0000
0100
0000
,
1000
0000
0010
0000
0100
0000
0010
0000
1000
0100
1000
0100
0001
0000
0010
0000
,
0100
0000
0001
0000
0100
0000
1000
0000
0100
0000
0010
1000
0000
0010
0100
0000
,
0002
1003
2000
3001
0010
0100
0100
0100
,
1001
0100
0001
0010
0011
1000
0100
0010
,
1010
0000
0001
0000
0100
0000
0010
0100
0000
0000
1000
0000
0001
0000
1000
0000
,
0010
0000
0001
0000
1000
0000
0100
0000
1010
0000
0010
0000
0100
0001
0100
0001
,
0010
0000
0000
1000
0000
0000
0010
0000
0210
0000
0000
0000
0301
0000
0001
0000
,
0010
0100
0010
0100
1000
0010
1000
0010
,
0001
0100
0001
0100
1000
0001
1000
0001
,
0011
1000
0100
1000
0101
0010
1000
0010
,
0100
0000
0000
1100
0000
0000
0001
0000
0000
0011
0000
0000
0110
0000
0110
0000
,
0002
0000
1000
0000
1000
0000
0103
0000
0100
0010
0100
0010
0100
0010
0100
0010
,
0100
1000
1001
0000
0020
0000
1000
0000
,
0001
0000
0100
0000
0130
1000
0100
0001
,
0010
0000
0001
0000
1000
0000
0100
0000
0010
0000
0100
0000
0001
0000
0100
0010
,
0000
1000
0100
0001
0100
1000
0010
0200
,
0000
0000
1000
0000
1300
0000
0010
0001
0010
0000
0000
1000
0000
0000
0010
0000
,
0000
0100
0000
0000
0010
0000
0000
1000
0000
0000
0001
0000
0000
0010
0000
0000
,
1000
0000
0000
0100
0000
0000
0010
0100
0010
0000
1000
0000
0001
0000
0100
0000
,
0010
0000
1000
0000
0100
0000
1000
0000
0001
0100
0010
0100
0001
0100
0010
0100
,
0010
0001
1100
1000
0001
0100
0010
0100
,
1000
0100
1000
0000
0001
0000
0010
0000
0001
0000
0100
0000
0010
0000
0100
0000
,
1010
0000
2001
0000
3010
0100
0010
0001
,
0010
0000
1000
0010
0000
1000
0100
0000
0001
0000
1000
0000
0010
0000
0100
0000
,
1000
0001
0011
0000
0100
0010
0100
0100
,
1000
0010
1000
1000
0001
0100
0001
0001
,
0010
0000
0100
0000
0010
0000
0010
0000
1001
0000
0000
0101
0000
0000
0011
0000
,
0000
1010
0000
0000
0110
0000
1100
0000
0100
0000
0010
0000
0001
0000
1000
0000
,
0100
0000
0010
0000
1000
0000
0001
0000
0110
0000
0000
0220
0000
0000
0000
0000
,
0000
0000
0000
0330
;

//---------------dance-single - ----------------
#NOTES:
     dance-single:
     :
     Medium:
     11:
     0.477118,0.548336,0.210848,0.295187,0.054820,396.000000,371.000000,25.000000,35.000000,0.000000,0.000000,0.477118,0.548336,0.210848,0.295187,0.054820,396.000000,371.000000,25.000000,35.000000,0.000000,0.000000:
0000
0000
0000
0000
,
2000
0000
0000
3000
0002
0000
0000
0003
,
0200
0000
0000
0300
,
0220
0000
0000
0330
,
2002
0000
0000
3003
,
0010
0000
0100
0010
0100
0000
0010
1000
,
0010
0000
1000
0010
1000
0000
0001
1000
,
0001
0000
0100
0001
0100
0000
0010
0100
,
0010
0000
1000
0100
1000
0000
1001
0000
,
0001
0000
0010
0001
0010
0000
1000
0010
,
1000
0000
0100
0010
0100
0000
0001
1000
,
0001
0000
0100
1000
0100
0000
0001
0010
,
0001
0000
0100
0010
0100
0010
0110
0000
,
1000
0000
0010
1000
0100
0000
1000
0100
,
0010
0000
0001
1000
0100
0000
0010
0001
,
1000
0000
0100
0010
1000
0000
0001
0100
,
1000
0000
0010
1000
0100
0010
1000
0000
,
0100
0010
0100
0000
1000
0001
1000
0000
,
0100
0001
0100
0000
0010
0001
0010
0000
,
0001
0000
0000
0001
0000
0000
0100
0000
0000
0100
0000
0000
1000
0000
0001
0000
,
2000
0000
0200
3300
,
0020
0000
1000
0030
,
0100
1000
0100
0010
,
0200
0000
1300
0001
,
1000
0010
0100
0100
,
2000
0000
3100
0001
,
0010
1000
0100
1000
,
0002
0000
0010
0003
,
0200
0300
2000
3000
,
0200
0010
0000
0310
,
2000
3001
0002
0013
,
0020
1000
0000
1030
,
0200
0010
0000
0310
,
0001
0100
1000
0100
,
0001
0010
0100
1000
,
1100
0000
0000
1001
0000
0000
0011
0000
,
0220
0000
0000
0330
,
0010
0000
0000
0010
0000
0000
0100
0000
0000
0200
0000
0000
0000
0000
0000
0000
,
0301
1000
0010
1000
,
0001
0000
0000
0001
0000
0000
0010
0000
0000
0020
0000
0000
0000
0000
0000
0000
,
1030
0100
0110
0010
,
1000
0000
0000
1000
0000
0000
0001
0000
0000
0002
0000
0000
0000
0000
0000
0000
,
0103
0000
0000
0100
0000
0000
0010
0000
0000
0020
0000
0000
0000
0000
0000
0000
,
0130
0100
0001
0001
,
1000
0001
0101
1000
,
2000
0010
0000
0010
,
0000
0100
0000
3001
,
0002
1000
0000
1000
,
0000
0010
0000
0103
,
1000
0100
0010
0100
,
0001
0010
1000
0010
,
0100
0001
0010
1000
,
0010
0000
1100
0101
,
1000
0000
0010
0000
0100
0010
0100
0000
,
0001
0000
0010
0000
1000
0000
0001
1000
,
0010
0000
0100
0000
0010
1000
0010
0000
,
0100
1000
0220
0330
,
0010
0000
1000
0000
0010
0100
0001
0000
,
1000
0000
1100
0000
0100
1000
0100
0000
,
0010
0000
1000
0010
0100
0000
0001
0100
,
0001
1000
1001
0011
,
0010
0000
0100
1000
0100
0000
1000
0001
,
1000
0000
0100
1000
0010
1000
0100
0000
,
1000
0100
0010
0000
0001
0000
1000
0010
,
0100
0001
2001
3001
,
1000
0010
1000
0000
0100
0001
0100
0000
,
0010
1000
0010
0000
0001
1000
0001
0000
,
1001
1000
0101
0100
,
0001
1000
0110
1001
,
0200
0000
0000
0300
0010
0000
0010
0000
,
0010
1001
0002
0000
,
1000
0000
1003
0010
,
0100
0000
0010
0000
0100
0001
1000
0000
,
0010
0000
0100
0010
0200
0000
0010
0000
,
1000
1300
0001
0001
,
1000
1000
0010
0001
,
0100
0000
1000
0000
0010
0001
0100
0000
,
1000
0001
0100
0000
1000
0010
0100
0010
,
1000
0000
1010
0000
0100
0001
0100
0000
,
0001
0010
0001
0000
0010
0100
1000
0001
,
0100
0000
0110
0000
1000
0010
0100
0000
,
0001
1000
0010
0000
0100
1000
0100
0010
,
0100
0000
0100
0000
0001
0100
0001
0000
,
0010
0100
0010
0000
1000
0010
1000
0000
,
0100
0000
0001
0000
0100
0000
0000
0000
0010
0000
0000
0010
0000
0000
0100
0000
,
0000
0100
0000
0000
1000
0000
0001
0000
2000
0000
0000
0000
0010
0000
0000
0000
,
0100
0000
0000
0000
3001
0000
0000
0000
1000
0000
0000
1010
0000
0000
0000
0000
;

//---------------dance-single - ----------------
#NOTES:
     dance-single:
     :
     Easy:
     7:
     0.313259,0.402113,0.151810,0.236149,0.000000,260.000000,242.000000,18.000000,28.000000,0.000000,0.000000,0.313259,0.402113,0.151810,0.236149,0.000000,260.000000,242.000000,18.000000,28.000000,0.000000,0.000000:
0000
0000
0000
0000
,
0010
0000
1000
0000
,
0100
0000
0000
0000
,
0001
0000
0000
0000
,
1000
0000
0000
0000
,
0010
0010
0100
0100
,
1000
1000
0100
0100
,
0001
0001
1000
1000
,
0010
0010
0001
0100
,
0001
0001
0010
0010
,
1000
1000
0100
0100
,
1000
1000
0001
0001
,
0010
0010
0100
0001
,
0100
1000
0100
1000
,
0001
1000
0001
1000
,
0010
0100
0010
0100
,
0010
1000
0010
1000
,
0010
0001
0100
1000
,
0100
0001
1000
0010
,
2002
0000
0000
0000
,
3003
0000
0000
0000
,
0110
0000
0000
0000
,
0100
0000
1000
0000
,
1000
0000
0001
0000
,
0010
0000
0100
0000
,
0010
0000
1000
0100
,
0010
0000
0001
0000
,
1000
0000
0000
0000
,
1001
0000
0110
0000
,
0200
0000
0300
0000
,
0020
0030
2000
3000
,
0020
0000
0030
0000
,
0002
0000
0000
0003
,
2000
0000
0000
3000
,
0200
0300
2000
3000
,
0220
0000
0000
0000
,
0330
0000
0000
0000
,
1000
0000
0000
1001
0000
0000
0000
0000
,
0010
0010
0001
0010
,
0100
0000
0000
0110
0000
0000
0000
0000
,
1000
1000
0010
1000
,
0001
0000
0000
1001
0000
0000
0000
0000
,
0010
0000
0000
0110
0000
0000
0000
0000
,
1001
0000
0110
0000
,
0100
0110
0001
1001
,
2000
0000
3000
0000
,
0001
0000
0010
0000
,
0002
0000
0003
0000
,
0100
0000
0010
0000
,
0100
0100
0100
0000
,
1000
1000
1000
0000
,
0001
1000
0001
0100
,
0020
0030
0001
0001
,
1000
0100
1000
0100
,
0010
0001
0010
0001
,
1000
0001
0010
0001
,
1000
0100
2000
3000
,
0100
0100
0001
0100
,
0010
0100
0010
0001
,
1000
1000
0001
1000
,
0100
0010
0200
0300
,
0010
0010
0001
0001
,
1000
0010
0100
0001
,
0010
1000
0001
1000
,
0010
0100
0220
0330
,
0001
0001
1000
1000
,
0010
0010
0100
0100
,
1000
0100
0010
0001
,
2002
0000
3003
0000
,
0100
0000
0200
0000
,
0300
0000
0220
0000
,
0000
0000
0330
0010
,
0001
1000
0100
0100
,
1000
0100
0010
0001
,
0020
0030
0001
0001
,
1000
1000
0001
1000
,
0010
1000
0100
0100
,
0001
0010
0001
1000
,
0010
0000
1000
0001
,
1000
0001
0100
0001
,
0010
0110
0100
0001
,
0100
0010
0100
0001
,
0100
0000
1000
0010
,
1000
0010
0100
0010
,
0100
0001
0010
0010
,
0100
0100
0020
0000
,
0030
0000
0000
0000
0000
0000
0000
0000
2002
0000
0000
3003
0000
0000
0000
0000
;

//---------------dance-single - ----------------
#NOTES:
     dance-single:
     :
     Beginner:
     3:
     0.179522,0.291813,0.075905,0.059037,0.000000,149.000000,140.000000,9.000000,7.000000,0.000000,0.000000,0.179522,0.291813,0.075905,0.059037,0.000000,149.000000,140.000000,9.000000,7.000000,0.000000,0.000000:
// measure 0
0000
0000
0000
0000
,  // measure 1
1000
0000
0000
0000
,  // measure 2
0001
0000
0000
0000
,  // measure 3
1000
0000
0000
0000
,  // measure 4
0010
0000
0000
0000
,  // measure 5
0100
0000
0100
0000
,  // measure 6
0001
0000
0001
0000
,  // measure 7
1000
0000
1000
0000
,  // measure 8
0010
0000
0010
0000
,  // measure 9
1000
0000
1000
0000
,  // measure 10
0100
0000
0100
0000
,  // measure 11
0001
0000
0001
0000
,  // measure 12
0010
0000
0010
0000
,  // measure 13
1000
1000
1000
0000
,  // measure 14
0001
0001
0001
0000
,  // measure 15
0100
0100
0100
0000
,  // measure 16
0010
0010
0010
0000
,  // measure 17
2000
0000
3000
0000
,  // measure 18
0002
0000
0003
0000
,  // measure 19
0220
0000
0000
0000
,  // measure 20
0330
0000
0000
0000
,  // measure 21
1000
0000
0000
0000
,  // measure 22
1000
0000
0000
0000
,  // measure 23
0001
0000
0000
0000
,  // measure 24
0001
0000
0000
0000
,  // measure 25
0010
0000
0000
0000
,  // measure 26
0010
0000
0000
0000
,  // measure 27
0100
0000
0000
0000
,  // measure 28
0100
0000
0000
0000
,  // measure 29
1001
0000
0000
0000
,  // measure 30
0010
0000
0000
0000
,  // measure 31
0100
0000
0000
0000
,  // measure 32
0010
0000
0000
0000
,  // measure 33
1000
0000
0000
0000
,  // measure 34
0001
0000
0000
0000
,  // measure 35
1000
0000
0000
0000
,  // measure 36
0001
0000
0000
0000
,  // measure 37
0110
0000
0000
0000
,  // measure 38
0100
0000
0100
0000
,  // measure 39
0100
0000
0000
0000
,  // measure 40
0001
0000
0001
0000
,  // measure 41
0001
0000
0000
0000
,  // measure 42
0010
0000
0000
0000
,  // measure 43
1000
0000
0000
0000
,  // measure 44
0010
0000
0000
0000
,  // measure 45
0002
0000
0000
0000
,  // measure 46
0003
0000
0000
0000
,  // measure 47
2000
0000
0000
0000
,  // measure 48
3000
0000
0000
0000
,  // measure 49
0100
0000
0100
0000
,  // measure 50
0010
0000
0010
0000
,  // measure 51
1000
0000
0001
0000
,  // measure 52
1001
0000
0000
0000
,  // measure 53
0010
0000
0010
0000
,  // measure 54
1000
0000
0010
0000
,  // measure 55
0100
0000
0001
0000
,  // measure 56
0100
0000
0110
0000
,  // measure 57
1000
0000
1000
0000
,  // measure 58
0001
0000
1000
0000
,  // measure 59
0010
0000
0010
0000
,  // measure 60
0001
0000
1001
0000
,  // measure 61
1000
1000
1000
0000
,  // measure 62
0001
0001
0001
0000
,  // measure 63
0010
0000
0100
0000
,  // measure 64
0010
0000
0001
0000
,  // measure 65
0100
0000
0100
0000
,  // measure 66
1000
0000
1000
0000
,  // measure 67
0010
0000
0100
0000
,  // measure 68
0010
0000
0110
0000
,  // measure 69
0000
0000
0000
0000
,  // measure 70
0000
0000
2000
0000
,  // measure 71
3000
0000
0100
0000
,  // measure 72
0100
0000
1000
0000
,  // measure 73
0100
0000
0001
0000
,  // measure 74
0001
0000
0010
0000
,  // measure 75
0010
0000
0100
0000
,  // measure 76
0100
0000
1000
0000
,  // measure 77
0001
0000
0100
0000
,  // measure 78
1001
0000
0100
0100
,  // measure 79
0100
0000
0010
0010
,  // measure 80
0010
0000
1000
1000
,  // measure 81
1000
0000
0001
0001
,  // measure 82
0001
0000
1000
0000
,  // measure 83
1000
0000
0001
0000
,  // measure 84
0001
0000
0100
0000
,  // measure 85
0100
0000
0010
0000
,  // measure 86
0010
0000
0110
0000
;
