#TITLE:Walnuts;
#SUBTITLE:;
#ARTIST:good-cool;
#TITLETRANSLIT:;
#SUBTITLETRANSLIT:;
#ARTISTTRANSLIT:;
#GENRE:GuitarFreaks V6 & DrumMania V6;
#CREDIT:;
#MUSIC:Walnuts.ogg;
#BANNER:Walnuts.jpg;
#BACKGROUND:Walnuts-bg.png;
#CDTITLE:;
#SAMPLESTART:0.126;
#SAMPLELENGTH:14.118;
#SELECTABLE:YES;
#OFFSET:1.640;
#BPMS:0.000=136.000
,76.000=272.000
,172.000=136.000
,223.000=272.000
,233.000=136.000
,236.000=272.000
,246.000=136.000
,286.000=272.000
;
#STOPS:;
#ORIGIN:;
#PREVIEWVID:;
#JACKET:;
#CDIMAGE:;
#DISCIMAGE:;
#BGCHANGES:;
#FGCHANGES:;

//--------------- dance-single - ----------------
#NOTES:
     dance-single:
     :
     Beginner:
     2:
     0,0,0,0,0:
0000
0000
0000
0000
,
0000
0000
0000
0000
,
0000
0000
0000
0000
,
0000
0000
0000
0000
,
0000
0000
0000
0000
,
0001
0000
0001
0000
,
1000
0000
1000
0000
,
0100
0000
0100
0000
,
0010
0000
0010
0000
,
1000
0000
0000
1000
,
0000
0000
0001
0000
,
0000
0001
0000
0000
,
1000
0000
0000
1000
,
0000
0000
0001
0000
,
0000
0001
0000
0000
,
0100
0000
0100
0000
,
0100
0000
0100
0000
,
0010
0000
0010
0000
,
0010
0000
0010
0000
,
1000
0000
0000
0000
,
0001
0000
0000
0000
,
1000
0000
0000
0000
,
0001
0000
0000
0000
,
0100
0000
0000
0000
,
0010
0000
0000
0000
,
0100
0000
0000
0000
,
0010
0000
0000
0000
,
0001
0000
0000
0000
,
0001
0000
0000
0000
,
1000
0000
0000
0000
,
1000
0000
0000
0000
,
0100
0000
0000
0000
,
0100
0000
0000
0000
,
0010
0000
0000
0000
,
0010
0000
0000
0000
,
0001
0000
0000
0000
,
1000
0000
0000
0000
,
0010
0000
0000
0000
,
0100
0000
0000
0000
,
0001
0000
0000
0000
,
1000
0000
0000
0000
,
0100
0000
0000
0000
,
0010
0000
0000
0000
,
1000
1000
1000
0000
,
0001
0001
0001
0000
,
0010
0010
0010
0000
,
0100
0100
0100
0000
,
0001
0000
0001
0000
,
1000
0000
1000
0000
,
0100
0000
0010
0000
,
1000
0000
0001
0000
,
0100
0000
0100
0000
,
0100
0000
0100
0000
,
0010
0000
0010
0000
,
0010
0000
0010
0000
,
1000
0000
1001
0000
,
0000
0001
0000
0000
,
0000
0001
0000
0000
,
0000
1000
0000
1001
,
0000
0000
0001
0000
,
0000
0000
0001
0000
,
0000
0000
0020
0000
,
0030
0200
0000
0300
,
0200
0000
0300
0020
,
0000
0030
2000
0000
,
3000
0002
0000
0003
,
2000
0000
3000
2002
,
0000
3003
0010
0000
,
0010
0000
0100
0000
,
0100
0000
0010
0000
,
0100
0000
2002
0000
,
3003
0000
1000
0000
,
0000
0000
1000
0000
,
0000
0000
0001
0000
,
0000
0000
0001
0000
,
0000
0000
0100
0000
,
0000
0000
0100
0000
,
0000
0000
0010
0000
,
0000
0000
0010
0000
;

//--------------- dance-single - ----------------
#NOTES:
     dance-single:
     :
     Easy:
     7:
     0,0,0,0,0:
0000
0000
0000
0000
,
0000
0000
0000
0000
,
0000
0000
0000
0000
,
0000
0000
0000
0000
,
0000
0000
0000
0000
,
1000
0001
0100
0100
,
0010
1000
0010
0010
,
0001
0100
1000
1000
,
0010
0100
0001
1001
,
0000
0001
0100
0001
,
0020
0000
0030
1000
,
0010
1000
0001
2000
,
3000
0100
0010
0100
,
0001
1000
0010
0100
,
0010
0100
0001
0200
,
0000
0300
0000
0001
,
1000
0001
1000
1000
,
0010
0001
0100
1000
,
0010
0000
0110
0110
,
0001
0000
0100
0000
,
0010
0000
0100
0000
,
1000
0000
0100
0000
,
1000
0001
1000
0000
,
0010
0000
0100
0000
,
0001
0000
0100
0000
,
0010
0000
1000
0000
,
0001
0010
0001
0010
,
0002
0000
0100
0000
,
0100
0000
1003
0000
,
0100
0000
1000
0000
,
0100
0000
0010
0000
,
0100
0000
0001
0000
,
0100
0000
0001
0000
,
1000
0000
0010
0000
,
1000
0000
0100
0000
,
1000
0000
1100
0000
,
0001
0000
0101
0000
,
0100
0000
0110
0000
,
0010
0000
0011
0000
,
0002
0003
2000
3000
,
0002
0003
2000
3000
,
0020
0030
0200
0300
,
0020
0030
0200
0300
,
1000
0000
1100
0000
,
0001
0000
0101
0000
,
0010
0000
0011
0000
,
1000
0000
1100
0000
,
1000
0001
1000
0001
,
0100
1000
0100
0010
,
0001
0100
0010
1000
,
0001
1000
0100
0010
,
1000
1000
1000
1000
,
0100
0100
0100
0100
,
0010
0010
0010
0010
,
0001
0001
0002
0003
,
1000
0001
1001
0010
,
0100
0010
0000
0001
,
0100
1000
0000
1000
,
0000
0100
0010
0110
,
1000
0100
1000
0000
,
0010
0100
0001
0000
,
1001
0000
0010
0010
,
0001
0100
0100
1000
,
0010
0010
1000
0001
,
0001
0100
0010
0001
,
0010
1000
0100
1000
,
0001
0100
0001
0010
,
1000
0020
0000
0030
,
0000
0001
0100
1000
,
0100
0010
0001
0010
,
0001
0100
1000
0000
,
1001
0110
0010
0000
,
0100
0000
0010
0100
,
0010
0000
0001
0000
,
1000
0000
0001
1000
,
0001
0000
0100
0000
,
1000
0000
0100
1000
,
0100
0000
0010
0000
,
0100
0000
0000
0000
0001
0000
0000
1000
,
0000
1001
0000
0000
;

//--------------- dance-single - ----------------
#NOTES:
     dance-single:
     :
     Medium:
     12:
     0,0,0,0,0:
0000
0000
0000
0000
,
0000
0000
0000
0000
,
0000
0000
0000
0000
,
0000
0000
0000
0000
,
0000
0000
0000
0000
,
0100
0000
0000
0000
0001
0000
0000
0100
0000
0000
0010
0000
0100
0000
0000
0000
,
0010
0000
0100
0000
0001
0000
1000
0000
0100
0000
0001
0000
0000
0100
0000
0000
,
0010
0000
0000
0000
1000
0000
0000
0001
0000
0000
1000
0000
0010
0000
0000
0000
,
0010
0000
0000
1000
0000
0000
0001
0000
0000
0100
0000
0000
0001
0000
0000
0000
1000
0000
0000
0000
0110
0000
0000
0000
,
0000
0100
0010
0100
0010
1000
0001
1000
,
0020
0000
0000
0000
0030
0001
0100
0010
,
1000
0001
0100
0010
0100
1000
0002
0000
,
0003
0010
0100
0001
1000
0010
0100
0001
,
0100
0010
1000
0100
0010
1000
0001
0100
,
0010
1000
0001
1000
0010
0100
0002
0000
,
0000
0003
0000
0000
0000
0000
0000
0000
0000
0000
0010
0000
0100
0000
0010
0000
,
0100
0001
1000
0010
1000
0001
1000
0010
,
0100
0001
0100
0010
0100
0001
1000
0010
,
0200
0000
0000
0000
0000
0300
0000
0000
0001
0000
0000
1000
0000
0000
0001
0000
,
1000
0000
0000
0010
0000
0000
0100
0000
,
0010
0100
0002
0003
,
1000
0000
0000
0100
0000
0000
1000
0000
,
0010
0100
0001
0100
,
0010
0000
0000
0100
0000
0000
0001
0000
,
0100
0010
0200
0300
,
0001
0000
0000
0100
0000
0000
0010
0000
,
0100
1000
0100
1000
,
0010
0010
1000
1000
,
0100
0100
0001
0001
,
0100
0000
0000
0010
0000
0000
0100
0000
,
0010
1000
0010
0000
,
0001
0001
1000
1000
,
0010
0010
0100
0100
,
1000
0001
0010
0100
,
0010
0100
0001
0100
,
0020
1030
2000
3001
,
0002
0103
0200
0310
,
0020
0031
0002
0103
,
0200
1300
2000
3010
,
0001
0000
0100
0000
1000
0100
1000
0000
,
0010
0000
0100
0000
0010
1000
0010
0000
,
0001
0010
0001
0100
,
0010
1000
0001
0100
,
0010
0000
0000
0100
0000
0000
0010
0000
1000
0000
0010
0000
1000
0000
0000
0000
,
0001
0000
0000
1000
0000
0000
0001
0000
1000
0000
0100
0000
1000
0000
0000
0000
,
0001
0000
0000
0100
0000
0000
0001
0000
0100
0000
0010
0000
0100
0000
0000
0000
,
0010
0000
0000
0100
0000
0000
0120
0000
0000
0000
1030
0000
0001
0000
1000
0000
,
0000
0001
1000
0010
0100
0000
0010
0100
,
0010
1000
0001
0100
0010
1000
0001
0000
,
0000
0100
0000
0100
1000
0100
0010
0100
,
0001
0000
0000
1000
0000
0000
0010
0000
0000
0000
0100
0000
0010
0000
0000
0000
,
1000
0000
0000
0100
0000
0000
1000
0000
0000
0100
0000
0000
1000
0000
0100
0000
,
0010
0000
0000
0100
0000
0000
0010
0000
0000
0100
0000
0000
0010
0000
0100
0000
,
0001
0000
0000
0010
0000
0000
0001
0000
0000
0010
0000
0000
0001
0000
0010
0000
,
0100
0000
0000
0001
0000
0000
0100
0000
2002
0000
0000
0000
3003
0000
0000
0000
,
0011
1100
0110
0100
,
0010
0100
0001
1000
,
0010
0100
0001
0100
,
0100
1100
0011
0101
,
0001
0100
0010
0100
,
0001
0100
1000
0100
,
0001
0000
0100
0000
0010
1000
0001
0100
,
0010
0100
0001
1000
0100
0010
0100
0001
,
1000
0010
1000
0001
0100
0010
0100
0001
,
1000
0010
1000
0001
0010
0100
0010
0001
,
0100
0010
0100
0001
1000
0010
0100
0001
,
1000
0010
0100
0001
0100
0001
0010
0001
,
0100
0010
2002
0000
0000
3003
0000
0000
,
0000
0001
1000
0010
1000
0001
0100
0010
,
0100
0001
0100
0010
1000
1000
0001
0001
,
0100
0100
0010
0010
0100
0000
0000
0000
,
0010
0000
0100
0000
0010
0000
0100
0000
0000
0010
0000
0000
,
1000
0000
0100
1000
0000
1000
0100
0000
,
0001
0010
0100
0010
,
0100
0001
1000
0010
,
0100
0001
0000
0001
0100
0000
0010
0000
,
0100
0000
1000
0001
0000
0001
1000
0000
,
0001
0000
0100
0000
0001
0100
0001
0000
,
0100
0000
1000
0000
0100
0000
0000
0000
1100
0000
0000
0000
0000
0101
0000
0000
,
0000
1001
0000
0000
0000
0000
0000
0000
;

//--------------- dance-single - ----------------
#NOTES:
     dance-single:
     :
     Hard:
     16:
     0.782155,1.088261,0.256921,0.044297,0.956811,618,589,29,5,0,0,0,0,0,0.782155,1.088261,0.256921,0.044297,0.956811,618,589,29,5,0,0,0,0,0:
0000
0000
0000
0000
,
0000
0000
0000
0000
,
0000
0000
0000
0000
,
0000
0000
0000
0000
,
0000
0000
0000
0000
,
0100
0000
1000
0100
0010
0001
0010
0100
0000
0100
1000
0000
0001
0000
1000
0010
,
1000
0010
0100
0001
0010
0100
0010
0100
0010
1000
0001
0000
0010
1000
0000
0000
,
0001
0000
1000
0100
0010
0100
0001
0010
0000
0100
0001
0000
1000
0000
0001
0010
,
0100
0000
0000
0010
0000
0000
0100
0000
0000
0010
0000
0000
0001
0000
0000
1000
0000
0000
0001
0000
0000
1000
0000
0000
1100
0000
0000
0000
0000
0000
0000
0000
0101
0000
0000
0000
0000
0000
0000
0000
0110
0000
0000
0000
0000
0000
0000
0000
,
0000
0000
1000
0010
1000
0000
0100
0000
0001
0000
0010
0000
0100
0000
1000
0000
,
0002
0000
0000
0000
0000
0000
0000
0000
0003
0000
0100
0010
0100
0000
1000
0000
,
0001
0100
0010
0100
1000
0001
0021
0000
,
0030
0000
1000
0001
1000
0000
0010
0000
0100
0000
0001
0000
0010
0000
0001
0000
,
0100
0000
0010
0000
1000
0000
0001
0000
0010
0000
0100
0000
0001
1000
0100
1000
,
0010
0000
1000
0000
0001
1000
0100
0010
0001
0100
1000
0100
0020
0000
0000
0000
,
0130
0000
0000
0000
0000
0000
0100
0000
0010
0000
0001
1000
0001
0000
0100
0000
,
0010
0000
0100
0000
0001
0000
0010
0000
1000
0010
1000
0010
0100
0000
0001
0000
,
0100
1000
0001
0010
1000
0001
0010
0100
0001
0100
0010
1000
0001
0100
1000
0010
,
0200
0000
0000
0000
0000
0000
0300
0000
1100
0000
0000
0110
0000
0000
0101
0000
,
0001
0000
0010
1000
0000
1000
0010
0000
,
1000
0001
1100
0000
,
0100
0000
0010
0100
0000
0100
0001
0000
,
1000
0100
0010
0001
0100
0001
0100
0001
,
1000
0000
0010
1000
0000
1000
0001
0000
,
0100
0010
0101
0000
,
0100
1000
0010
0100
0000
0100
0001
0000
,
1000
0010
1000
0001
0100
0010
0100
0000
,
2000
0010
0000
0010
,
0000
0000
3010
0000
0100
0010
0001
0100
,
1000
0000
1000
0010
0000
0000
1000
0000
,
0100
0000
0010
0000
0100
0100
0001
0000
,
1000
0100
0010
1000
0001
0100
0010
0100
,
0001
0100
0010
1000
0000
0100
0010
0001
,
0000
0000
0100
0010
1000
0100
0010
0100
,
0001
0100
0010
1000
0001
0100
0001
0000
,
0010
1000
0100
0100
1000
0010
0100
0100
,
0001
0010
0100
0100
1000
0001
0100
0100
,
1000
0100
0001
0001
0100
1000
0001
0001
,
1000
0010
0001
0001
0010
1000
0001
0001
,
0100
1000
0100
0001
0100
0010
0100
0001
,
1000
0010
0100
0001
1000
0010
0100
0001
,
0100
1000
0100
0010
1000
0001
0010
0100
,
0001
0100
0010
1000
0001
0100
0010
0100
,
0001
0000
0000
1000
0000
0000
0010
0000
0100
0010
1000
0000
0100
0010
0001
0000
,
1000
0000
0010
1000
0000
0001
0100
0000
0010
0000
0100
0000
0010
0001
0000
0000
,
1000
0100
1000
0010
0000
0100
0010
0000
0100
0001
0100
0000
0100
1000
0100
0000
,
0010
0001
0010
0100
0000
0010
0100
1000
0000
0001
0000
0100
0010
0100
0010
0000
,
1000
0000
0010
0001
0100
0000
0010
0000
0001
0000
0000
0100
0010
1000
0100
1000
,
0001
0100
0010
1000
0010
0100
0000
0001
0010
0000
0100
0000
0001
0000
0000
0000
,
0000
0000
0010
0000
0000
0000
0100
0010
0001
1000
0010
1000
0001
0100
0001
0100
,
0010
1000
0001
0000
0100
0000
0010
0100
0000
0001
1000
0000
0010
0100
0001
0000
,
1000
0000
0010
0100
0000
0010
0100
0000
0010
0001
0000
0010
0100
0010
0001
0100
,
1000
0000
0010
1000
0000
0001
1000
0000
0010
1000
0000
1000
0001
0100
0010
0001
,
1000
0000
0010
0001
0000
0010
0001
0000
0100
0001
0000
0010
1000
0001
1000
0100
,
0010
0000
1000
0010
0000
1000
0010
0000
2002
0000
0000
0000
3003
0000
0000
0000
,
1000
0001
0000
0000
0100
0010
0000
0000
0001
0100
0000
0000
0010
0000
0100
0000
,
0010
0100
0001
1000
0100
0010
0100
0001
,
0100
0010
0100
0001
1000
0010
0100
0001
,
0010
0000
0100
0000
0010
1000
0000
0000
0010
0100
0000
0000
0001
0100
0000
0000
,
0010
1000
0010
0100
0001
0100
0010
1000
,
0001
0100
0010
0100
0001
1000
0001
0100
,
0010
0000
0100
0000
0010
0000
0100
0000
0001
1000
0100
0010
0001
0000
1000
0000
,
0010
0000
0100
0000
0001
0010
0100
1000
0100
0000
0001
0000
1000
0000
0010
0000
,
1000
0001
0100
0010
1000
0000
0001
0000
1000
0000
0010
0000
1000
0001
0100
0010
,
0001
0000
0100
0000
1000
0000
0001
0000
0100
1000
0100
0010
0001
0000
1000
0000
,
0010
0000
0100
0000
0001
0010
1000
0100
0001
0000
0100
0000
0010
0000
1000
0000
,
0010
0100
1000
0001
0010
0000
0100
0000
0010
0000
1000
0000
0001
0000
0100
0000
,
0010
0000
0001
0000
0200
0000
0000
0000
0000
0000
0000
0300
0000
0000
0000
0000
,
0000
0000
0010
0100
0001
0000
1000
0000
0100
0000
0010
0000
0001
0000
0100
0000
,
0010
0100
0001
0100
0010
0000
1000
0000
0001
1000
0010
0100
0010
0100
0001
1000
,
0010
0100
0001
0100
0010
0100
1000
0001
1000
0000
0000
0000
0000
0000
0000
0000
,
1001
0000
0000
0000
1100
0000
0000
0000
0101
0000
0000
0000
0100
0000
0000
0000
0000
0000
0010
0000
0000
0100
0000
0000
,
0010
1000
0100
0001
0000
1000
0010
0000
,
0100
0000
0001
1000
0001
1000
0001
0100
,
0010
0100
0010
1000
0001
0100
0001
0000
,
1000
0010
0000
1000
0010
0000
0100
0010
,
0100
0001
0100
0010
0000
1000
0001
0000
,
0100
0000
0010
0100
0001
0100
0010
1000
,
0001
0000
0000
0100
0000
0000
0010
0000
0000
0100
0000
0000
0101
0000
0000
0000
0000
0000
0000
0000
1100
0000
0000
0000
,
0000
0000
1001
0000
0000
0000
0000
0000
0000
0000
0000
0000
;
