#TITLE:WHITE BIRDS;
#SUBTITLE:(Mirage Mix);
#ARTIST:T-Bone;
#TITLETRANSLIT:;
#SUBTITLETRANSLIT:;
#ARTISTTRANSLIT:;
#GENRE:;
#CREDIT:;
#BANNER:WHITE BIRDS (Mirage Mix).png;
#BACKGROUND:WHITE BIRDS (Mirage Mix)-bg.png;
#LYRICSPATH:;
#CDTITLE:;
#MUSIC:WHITE BIRDS (Mirage Mix).ogg;
#OFFSET:1.135857;
#SAMPLESTART:12.600000;
#SAMPLELENGTH:17.500000;
#LASTBEATHINT:0.520892;
#SELECTABLE:YES;
#BPMS:0.000000=122.000000
,28.000000=244.000000
,92.000000=122.000000
,172.000000=244.000000
,236.000000=122.000000
,252.000000=244.000000
,284.000000=122.000000
;
#STOPS:296.000000=0.738000
;
#BGCHANGES:;
#KEYSOUNDS:;
#ATTACKS:;

//---------------dance-single - ----------------
#NOTES:
     dance-single:
     :
     Hard:
     12:
     0.535323,0.720635,0.310833,0.250393,0.164050,434.000000,398.000000,36.000000,29.000000,0.000000,0.000000,0.535323,0.720635,0.310833,0.250393,0.164050,434.000000,398.000000,36.000000,29.000000,0.000000,0.000000:
0000
0000
0000
0000
,
0001
0100
0010
0001
0000
1000
0200
0000
,
0010
0001
1000
1300
,
0010
0100
1000
0100
0000
0001
2000
0000
,
0010
0100
0100
3001
,
0101
0010
1000
0022
0000
0000
0033
0000
,
0100
0000
1000
0000
0100
0000
0001
0000
1000
0000
0000
0001
0000
0000
1000
0000
,
0010
1020
0000
0130
,
1000
0201
0000
1300
,
0010
0000
0010
1000
0000
1000
0100
0000
,
0001
0000
0010
0001
0000
0010
1000
0000
,
0100
0102
0000
0013
,
1000
2100
0000
3001
,
0010
1000
0100
0010
,
0001
0000
0000
0011
0000
0000
0100
0000
,
1000
0000
1000
0100
0000
0100
0010
0000
,
0001
0000
0100
0001
0000
0100
1000
0000
,
0010
1020
0000
0130
,
0001
0000
1000
0001
0000
1000
0010
0000
,
0100
0001
0010
0100
,
1000
0010
0100
0001
,
1000
1000
0100
0000
0010
0010
0100
0000
,
0001
0010
0001
0100
0010
1000
0010
0000
,
0200
0000
0000
0000
0310
0000
1000
0000
0001
0000
0000
1001
0000
0000
1000
0000
,
0100
0000
1000
0000
0010
0000
0001
0000
1000
0000
0000
1100
0000
0000
0100
0000
,
1000
0000
0010
0000
1000
0000
0001
0000
0010
0000
0010
1000
0000
1000
0001
0000
,
0100
0000
0001
0000
0100
0010
0100
0000
0002
0000
1000
0000
2003
0000
0010
0000
,
3010
0000
0000
0010
0000
0000
0001
0000
0000
0000
1000
0000
0010
0000
0100
0000
,
1000
0000
0000
1000
0000
0000
0001
0000
0000
0000
0100
0000
0010
0000
0000
0000
,
1000
0000
0000
0010
0000
0000
1000
0000
0000
0000
0010
0000
0100
0000
0010
0000
,
1000
0001
0100
1000
0000
0101
0000
0010
,
0100
0001
1000
0001
0000
1000
0010
0100
,
0001
0000
0000
1000
0000
0000
0001
0000
0000
0000
0100
0000
0100
0000
0000
0000
,
1000
0000
0000
0001
0000
0000
0010
0000
0000
0000
1000
0000
0001
0000
0010
0000
,
0100
0001
1000
0010
1100
0000
0101
0000
,
0012
0000
0000
0100
0003
0000
0010
0000
0000
0000
1000
0000
0001
0000
1000
0000
,
0001
0000
0000
0010
0000
0000
0001
0000
0000
0000
1000
0000
1000
0000
0000
0000
,
0100
0000
0000
0001
0000
0000
1000
0000
0010
0000
0100
0010
0000
0010
0000
0000
,
0001
0000
0100
1000
0100
0001
0010
0000
,
0001
0000
1000
0001
0000
1000
0010
0000
0100
0000
0001
0000
1000
0000
0010
0000
,
0100
0000
1000
0100
0000
0000
1000
0000
0100
0000
0010
0000
0100
0001
0100
0000
,
0010
0000
1000
0001
0000
0100
0010
0000
0001
1000
0001
0000
1000
0000
0100
0000
,
0011
0000
0000
0101
0000
0000
1002
0000
0000
0000
0100
0000
0103
0000
0000
0000
,
0020
1000
0000
1030
,
0200
0001
0000
0301
,
0100
0000
0010
0100
0000
0010
0001
0000
,
1000
0000
0100
0001
0000
0010
0001
0000
,
1000
0000
1010
0000
0100
0001
0100
0000
,
0010
0000
0110
0000
0100
1000
0100
0000
,
0001
1000
0001
0010
0100
0010
1000
0100
,
0001
0000
0000
1010
0000
0000
0100
0000
,
0010
0000
1000
0100
0000
0100
0001
0000
,
1000
0000
0010
0001
0000
0001
0100
0000
,
0010
1000
0100
0001
,
1000
0000
0010
0100
0000
0100
0001
0000
,
0100
0000
0101
0000
0010
0100
0010
0000
,
0001
0000
1001
0000
0010
0001
0010
0000
,
2000
3100
0020
0130
,
0002
0000
0013
0000
0010
1000
0100
0000
,
2002
0000
0000
3003
0220
0000
0000
0330
,
0002
0000
0000
1000
0000
0000
0013
0000
0200
0000
0000
0001
0000
0000
1300
0000
,
0010
0000
0010
0001
0000
0001
0010
0000
0100
1000
0100
0000
0110
0000
0001
0000
,
1000
0100
0000
0000
1100
0000
0000
0101
0000
0000
0010
0000
0001
0000
0010
0000
,
1000
0000
0100
1000
0000
0100
0001
0000
,
0010
0100
0010
0000
0001
0000
0001
0000
,
0100
1100
1000
1001
,
0010
0000
0100
0010
0000
0100
1000
0000
,
0002
0010
0103
1100
,
0200
1000
0301
0101
,
0010
1000
0100
0000
0100
0001
0010
0000
,
0001
1000
0010
0100
0001
0100
1000
0000
,
0010
0000
0000
0010
1000
0000
0100
0000
1000
0000
1000
0000
0010
0000
0100
0000
,
0001
0000
0000
0001
0100
0000
0010
0000
0100
0000
0100
0000
0001
0000
0000
0000
,
1100
0000
0000
1010
0000
0000
0101
0000
0000
0110
0000
0000
0010
0001
0100
1000
,
0000
0000
0000
0000
0000
2002
0000
0000
0000
0000
0000
0000
0000
0000
0000
0000
0000
0000
0000
0000
0000
0000
0000
0000
0000
0000
0000
0000
0000
0000
0000
0000
,
0000
0000
0000
0000
0000
0000
0000
3003
;

//---------------dance-single - ----------------
#NOTES:
     dance-single:
     :
     Medium:
     8:
     0.392241,0.491342,0.112245,0.259027,0.017268,318.000000,305.000000,13.000000,30.000000,0.000000,0.000000,0.392241,0.491342,0.112245,0.259027,0.017268,318.000000,305.000000,13.000000,30.000000,0.000000,0.000000:
0000
0000
0000
0000
,
0100
0000
1000
0100
0000
0001
0100
0000
,
0020
0100
0100
1030
,
0010
0000
0001
0100
0000
0001
1000
0000
,
0200
1000
0001
0301
,
0002
0000
0013
0200
0000
0000
1300
0000
,
0020
2030
3001
1001
,
0020
0001
0000
0031
,
0200
0010
0000
0310
,
0100
0000
0000
1000
0000
0000
0001
0000
,
0010
0000
0000
0001
0000
0000
1000
0000
,
0002
1000
0013
0000
,
0200
0001
1300
0000
,
1000
0010
0100
0010
,
2000
0000
0000
3002
0000
0000
0203
0000
,
0310
0000
0000
0100
0000
0000
1000
0000
,
0100
0000
0110
0000
,
0100
0001
0000
0001
,
1000
0010
0000
0010
,
0001
0100
1000
0000
,
0100
0010
1000
0000
,
0001
0010
1000
0010
,
0100
0000
0010
0001
0000
0100
0010
0000
,
1000
0000
1010
0000
0010
0001
0010
0000
,
0100
0010
1000
0100
0000
1000
1000
0000
,
0010
0100
0010
0000
0010
1000
0010
0000
,
0100
0010
0100
0010
0001
0000
1001
0000
,
0200
0000
0010
0001
0300
0001
0100
0000
,
0010
1000
0000
0010
0000
0100
0010
0000
,
1000
0010
0001
0000
0001
0100
0010
0000
,
0100
1000
0000
0001
0100
0010
0100
0000
,
1000
0000
0010
0001
0000
0010
1000
0000
,
0100
0001
0000
0101
0000
0010
0001
0000
,
1000
0000
0010
1000
0100
0000
0100
0001
,
0010
1000
0100
0000
0020
0000
2030
0000
,
3100
0000
0010
0000
0001
0100
0001
0000
,
0010
0000
0100
1000
0000
0100
0001
0000
,
0100
1000
0001
0000
1000
0010
0001
0000
,
0100
0000
1000
0010
0000
1000
0001
0000
,
0001
0010
0100
0010
0000
1000
0001
1000
,
0100
0000
0010
1000
0000
0010
1000
0000
,
0001
0000
0010
1000
0100
0000
0001
0100
,
0100
0000
0000
1000
0000
0000
2002
0000
0000
0000
0000
0000
3003
0000
0000
0000
,
0020
1000
0100
0030
,
2000
0100
0001
3000
,
0010
0000
0000
0100
0000
0000
1000
0000
,
0100
0000
0000
1000
0000
0000
0010
0000
,
0001
0010
0100
0000
,
1000
0010
0100
0000
,
0100
0000
0001
0000
0010
0000
1000
0100
,
2000
0000
0000
3020
0000
0000
2030
0000
,
3100
0000
0000
0001
0000
0000
0010
0000
,
1000
0010
0010
0000
,
0010
1000
0001
0000
,
1000
0010
1000
0000
,
0020
1000
0130
0100
,
0002
1000
0013
0010
,
1000
0100
0001
0010
,
0001
0100
0110
0000
,
0011
0000
1010
0000
,
0001
0010
1000
0100
,
0010
0000
0100
1000
0100
0000
0010
0001
,
0100
0010
0001
0000
0100
1000
0010
0000
,
0001
0000
0000
0100
0000
0000
0010
0000
,
1000
1000
0010
0000
,
0100
1000
0010
0100
,
0010
0000
0100
0001
0000
1000
0001
0000
,
0010
1000
1010
0000
,
0100
0001
0101
0000
,
1000
0010
0100
0001
,
0001
0000
1000
0100
0010
0000
0010
0000
,
1000
0000
0101
0000
0100
0010
0100
0001
,
0001
0000
1100
0000
0010
0100
1000
0100
,
2000
0000
0000
3200
0000
0000
0302
0000
0000
0023
0000
0000
1030
0000
1000
0000
,
0000
0000
0000
0000
0000
0020
0000
0000
0000
0000
0000
0000
0000
0000
0000
0000
0000
0000
0000
0000
0000
0000
0000
0000
0000
0000
0000
0000
0000
0000
0000
0000
,
0000
0000
0000
0000
0000
0000
0000
0030
;

//---------------dance-single - ----------------
#NOTES:
     dance-single:
     :
     Easy:
     5:
     0.273829,0.288127,0.112245,0.371272,0.004317,222.000000,209.000000,13.000000,43.000000,0.000000,0.000000,0.273829,0.288127,0.112245,0.371272,0.004317,222.000000,209.000000,13.000000,43.000000,0.000000,0.000000:
0000
0000
0000
0000
,
0001
2000
3000
1000
,
0010
0100
0010
0010
,
0100
0002
0003
0001
,
0010
1000
0100
0100
,
0020
0030
0200
0300
,
0001
1000
2002
3003
,
0020
0000
0030
0000
,
0002
0000
0000
0003
,
0010
0000
0010
0000
,
0100
0001
0100
0000
,
1000
0000
1000
0100
,
0010
0000
0010
0100
,
0001
0100
1000
0000
,
1000
0100
0010
0000
,
0100
0000
0110
0000
,
0010
0001
0010
0000
,
0100
0000
0001
0010
,
1000
0100
0100
0000
,
0001
0000
1000
0001
,
1000
0000
0010
0100
,
0010
1000
0001
0000
,
1000
0000
0110
0000
,
0020
0030
0001
0100
,
0010
1000
0100
0100
,
1000
0010
0001
0010
,
1000
0100
0200
0320
,
0230
0300
0001
0010
,
0001
0100
0100
1000
,
0020
0030
2000
3000
,
0010
1000
2000
3000
,
0002
0003
0100
1000
,
0010
0001
1000
0010
,
0200
0300
0020
0030
,
0100
0001
0020
0030
,
2002
3003
0100
0010
,
0001
0010
2000
3000
,
0010
0100
0010
0010
,
1000
0100
0002
0003
,
0220
0330
0100
0001
,
1000
0000
0001
0100
,
0010
0000
1000
1000
,
0200
0302
0003
1001
,
0200
0000
0310
0000
,
2000
0000
3100
0000
,
2000
0000
3001
0010
,
0002
0000
0103
1000
,
0100
0000
0100
0000
,
0010
0000
0010
0000
,
1000
0000
1000
0001
,
0100
0000
0110
0000
,
0100
0100
0001
0000
,
1000
1000
0010
0000
,
0001
1000
0010
1000
,
0001
0000
1001
0000
,
0200
0000
0301
0000
,
0020
0000
1030
0000
,
2000
0000
3002
0000
,
0023
0000
0200
0330
,
1001
0000
0110
0000
,
0002
0003
0200
0300
,
0010
0010
1000
0000
,
0010
0001
0001
0000
,
0100
0000
0010
0000
,
0001
0010
0001
0000
,
0010
0100
1000
0100
,
0001
0000
1001
0000
,
0001
0100
0001
0000
,
1000
0100
1000
0000
,
0100
0001
0010
1000
,
0100
0000
1001
0000
,
0100
0010
0001
0001
,
1000
0100
1000
1000
,
0002
0023
0230
0302
,
0003
0000
0000
0000
0000
0110
0000
0000
0000
0000
0000
0000
0000
0000
0000
0000
0000
0000
0000
0000
0000
0000
0000
0000
0000
0000
0000
0000
0000
0000
0000
0000
;

//---------------dance-single - ----------------
#NOTES:
     dance-single:
     :
     Beginner:
     2:
     0.104844,0.192085,0.034537,0.025903,0.004317,85.000000,81.000000,4.000000,3.000000,0.000000,0.000000,0.104844,0.192085,0.034537,0.025903,0.004317,85.000000,81.000000,4.000000,3.000000,0.000000,0.000000:
// measure 0
0000
0000
0000
0000
,  // measure 1
0010
0000
0000
0000
,  // measure 2
0010
0000
0000
0000
,  // measure 3
0100
0000
0000
0000
,  // measure 4
0100
0000
0000
0000
,  // measure 5
2000
0000
3000
0000
,  // measure 6
0002
0000
0003
0000
,  // measure 7
0100
0000
0000
0000
,  // measure 8
0000
0000
0000
0000
,  // measure 9
0100
0000
0000
0000
,  // measure 10
0000
0000
0000
0000
,  // measure 11
0010
0000
0000
0000
,  // measure 12
0000
0000
0000
0000
,  // measure 13
0010
0000
0000
0000
,  // measure 14
0000
0000
0000
0000
,  // measure 15
0001
0000
0000
0000
,  // measure 16
0000
0000
0000
0000
,  // measure 17
0001
0000
0000
0000
,  // measure 18
0000
0000
0000
0000
,  // measure 19
1000
0000
0000
0000
,  // measure 20
0000
0000
0000
0000
,  // measure 21
1000
0000
0000
0000
,  // measure 22
0000
0000
0000
0000
,  // measure 23
0010
0000
0010
0000
,  // measure 24
0001
0000
0001
0000
,  // measure 25
0100
0000
0100
0000
,  // measure 26
1000
0000
1000
0000
,  // measure 27
1001
0000
0000
0000
,  // measure 28
0001
0000
0000
0000
,  // measure 29
0100
0000
0000
0000
,  // measure 30
0100
0000
0000
0000
,  // measure 31
1000
0000
0000
0000
,  // measure 32
0001
0000
0000
0000
,  // measure 33
0100
0000
0000
0000
,  // measure 34
0010
0000
0000
0000
,  // measure 35
0110
0000
0010
0000
,  // measure 36
1000
0000
1000
0000
,  // measure 37
0010
0000
0010
0000
,  // measure 38
0100
0000
0100
0000
,  // measure 39
0001
0000
1000
0000
,  // measure 40
0001
0000
1000
0000
,  // measure 41
0010
0000
0100
0000
,  // measure 42
0020
0000
0030
0000
,  // measure 43
1000
0000
0000
0000
,  // measure 44
1000
0000
0000
0000
,  // measure 45
0001
0000
0000
0000
,  // measure 46
0001
0000
0000
0000
,  // measure 47
1000
0000
0000
0000
,  // measure 48
0100
0000
0000
0000
,  // measure 49
1000
0000
0000
0000
,  // measure 50
0100
0000
0000
0000
,  // measure 51
0010
0000
0000
0000
,  // measure 52
0010
0000
0000
0000
,  // measure 53
0001
0000
0000
0000
,  // measure 54
0001
0000
0000
0000
,  // measure 55
0010
0000
0000
0000
,  // measure 56
0100
0000
0000
0000
,  // measure 57
0010
0000
0000
0000
,  // measure 58
0100
0000
0000
0000
,  // measure 59
1001
0000
0000
0000
,  // measure 60
0000
0000
0000
0000
,  // measure 61
0100
0000
0100
0000
,  // measure 62
0010
0000
0010
0000
,  // measure 63
1000
0000
0000
0000
,  // measure 64
1000
0000
0000
0000
,  // measure 65
0010
0000
0000
0000
,  // measure 66
0010
0000
0000
0000
,  // measure 67
0001
0000
0000
0000
,  // measure 68
0001
0000
0000
0000
,  // measure 69
0100
0000
0000
0000
,  // measure 70
0100
0000
0000
0000
,  // measure 71
0010
0000
0100
0000
,  // measure 72
0010
0000
0100
0000
,  // measure 73
1000
0000
0001
0000
,  // measure 74
0000
0000
0000
0000
0000
1001
0000
0000
0000
0000
0000
0000
0000
0000
0000
0000
0000
0000
0000
0000
0000
0000
0000
0000
0000
0000
0000
0000
0000
0000
0000
0000
;
