#VERSION:0.83;
#TITLE:Virtual Sunrise;
#SUBTITLE:;
#ARTIST:kors k;
#TITLETRANSLIT:;
#SUBTITLETRANSLIT:;
#ARTISTTRANSLIT:;
#GENRE:;
#ORIGIN:;
#CREDIT:;
#BANNER:Virtual Sunrise.png;
#BACKGROUND:Virtual Sunrise-bg.png;
#PREVIEWVID:;
#JACKET:Virtual Sunrise-jacket.png;
#CDIMAGE:;
#DISCIMAGE:;
#LYRICSPATH:;
#CDTITLE:;
#MUSIC:Virtual Sunrise.ogg;
#OFFSET:-0.759661;
#SAMPLESTART:68.524002;
#SAMPLELENGTH:15.000000;
#SELECTABLE:YES;
#BPMS:0.000=170.000,
128.000=85.000,
160.000=170.000;
#STOPS:;
#DELAYS:;
#WARPS:;
#TIMESIGNATURES:0.000=4=4;
#TICKCOUNTS:0.000=4;
#COMBOS:0.000=1;
#SPEEDS:0.000=1.000=0.000=0;
#SCROLLS:0.000=1.000;
#FAKES:;
#LABELS:0.000=Song Start;
#BGCHANGES:;
#KEYSOUNDS:;
#ATTACKS:
;

//---------------dance-single - ----------------
#NOTEDATA:;
#CHARTNAME:;
#STEPSTYPE:dance-single;
#DESCRIPTION:;
#CHARTSTYLE:;
#DIFFICULTY:Hard;
#METER:12;
#RADARVALUES:0.480873,0.793677,0.358298,0.150862,0.099003,357.000000,319.000000,38.000000,16.000000,0.000000,0.000000,0.000000,0.000000,0.000000,0.480873,0.793677,0.358298,0.150862,0.099003,357.000000,319.000000,38.000000,16.000000,0.000000,0.000000,0.000000,0.000000,0.000000;
#CREDIT:;
#NOTES:
0000
0000
0000
0000
,
0000
0000
0000
0000
,
0000
0000
0000
0000
,
0000
0000
0000
0000
,
0000
0000
0000
0000
,
0000
0000
0000
0000
,
0000
0000
0000
0000
,
0000
0000
0000
0000
,
0001
1000
0010
0000
0100
0000
0100
1000
,
0010
0000
0001
0010
0100
0010
0001
0000
,
0010
1000
0001
0000
0001
0000
0010
0100
,
0010
0000
0100
0000
1000
0010
1000
0000
,
0100
0001
0010
0001
1000
0000
1000
0010
,
0100
0010
0001
0000
0010
1000
0001
0000
,
0010
0001
0010
0100
0010
0001
1000
0001
,
0100
0010
1000
0100
0010
0000
1001
0000
,
0001
0100
1000
0010
,
1000
0110
0010
0011
,
0100
0010
0001
0010
,
0100
1001
1000
0011
,
0100
0010
1010
0011
,
1000
0010
0101
1100
,
0001
1000
0010
0100
1000
0001
0100
0010
,
0001
0110
1100
1010
,
0020
1000
0100
1000
,
0032
0010
0100
1000
,
0203
0010
1000
0010
,
2300
0001
0010
3001
,
0010
1000
0010
0100
0001
1000
0010
0000
,
0100
0001
0100
0100
1000
0010
0100
0000
,
0001
1000
1001
0000
0010
0001
0011
0000
,
1000
1000
0010
0010
0110
0001
1001
0000
,
0002
0000
1000
0000
1003
0100
0010
2000
,
0001
0000
0010
0000
3001
0010
0100
0020
,
1000
0000
0001
0000
0130
0001
1000
0200
,
0010
0000
0001
0000
0310
1000
0010
0100
,
0101
0001
1000
0010
0100
0100
0010
0010
,
0001
0100
1000
0100
0001
0001
1000
1000
,
0010
1000
0100
0000
0001
0010
1000
0000
0100
0001
1000
0000
0010
1000
0001
0000
,
0010
0010
1000
1000
0001
1000
0001
0010
0220
0000
0000
0000
0330
0000
1001
0000
,
0001
0010
0100
0000
1000
0001
0100
0000
,
1000
0000
0000
1000
0010
0000
0100
0000
0010
0000
0000
0010
0001
0000
0100
0000
,
1000
0100
0010
0000
0001
0100
1000
0000
,
0100
0000
0000
0100
0001
0000
0010
0000
0001
0000
0000
0001
1000
0000
0100
0000
,
0100
0001
0100
0000
0010
0100
0010
0000
,
1000
0000
0000
0001
1000
0000
0010
0000
0100
0000
0000
1000
0100
0000
0010
0000
,
0001
0001
0100
0000
0010
0010
0001
0000
,
0100
0000
1000
0000
0100
0000
0010
0000
0001
0000
0000
0110
0000
0000
1000
0000
,
0100
1100
0010
0011
,
0100
0000
0000
1000
0000
0000
0001
0000
0010
0000
0000
0001
0000
0000
0100
0000
,
0001
0101
0010
1010
,
1000
0000
0000
0001
0000
0000
1000
0000
0010
0000
0000
0100
0000
0000
0001
0000
,
1000
0110
0010
1010
,
0001
0000
0000
0100
0000
0000
0010
0000
1000
0000
0000
0010
0000
0000
0100
0000
,
0001
0101
0010
1100
,
0010
0100
0010
0100
1000
0000
1001
0000
,
0200
1000
0010
0301
,
0010
0001
1100
2001
,
0010
0001
0010
3010
,
1000
0001
1100
0102
,
0010
1000
0100
0103
,
0100
1000
1100
1020
,
0100
0001
1000
1030
,
0001
0100
1010
0110
,
2002
0000
0000
3003
;

//---------------dance-single - ----------------
#NOTEDATA:;
#CHARTNAME:;
#STEPSTYPE:dance-single;
#DESCRIPTION:;
#CHARTSTYLE:;
#DIFFICULTY:Medium;
#METER:8;
#RADARVALUES:0.375809,0.543104,0.207436,0.414871,0.014143,279.000000,257.000000,22.000000,44.000000,0.000000,0.000000,0.000000,0.000000,0.000000,0.375809,0.543104,0.207436,0.414871,0.014143,279.000000,257.000000,22.000000,44.000000,0.000000,0.000000,0.000000,0.000000,0.000000;
#CREDIT:;
#NOTES:
0000
0000
0000
0000
,
0000
0000
0000
0000
,
0000
0000
0000
0000
,
0000
0000
0000
0000
,
0000
0000
0000
0000
,
0000
0000
0000
0000
,
0000
0000
0000
0000
,
0000
0000
0000
0000
,
0100
0001
0100
0001
,
0010
0100
0001
1000
,
0010
1000
0010
1000
,
0100
0010
0001
1000
,
0010
0100
0001
0011
,
1000
0100
0010
0110
,
0010
0001
1000
1010
,
0010
1000
0010
1000
0001
0000
0110
0000
,
0200
1000
0302
1000
,
2003
0010
0001
3100
,
0020
0100
2030
0100
,
3002
1000
0100
0013
,
2010
3100
0210
1300
,
0102
0100
1003
0011
,
0100
0010
0100
0000
1000
0100
1000
0000
,
0010
0001
1000
0010
0100
0000
0110
0000
,
0020
0130
0010
0001
,
1000
0001
0010
1100
,
2000
3100
0010
0100
,
0001
0100
1000
1010
,
0200
1300
0100
0010
,
0001
1000
0100
0011
,
2000
0000
3100
0010
0200
0000
0301
1000
,
0010
1000
0010
0000
0100
0000
0101
0000
,
0200
0000
0320
0000
0031
0100
0010
0001
,
2000
0000
3200
0000
0301
0010
1000
0010
,
0002
0000
0203
0000
1300
0010
0100
0001
,
0020
0000
0032
0000
0103
1000
0010
1000
,
0010
0000
0101
0000
0001
0100
0010
1000
,
0001
0000
0110
0000
1000
0001
0100
0001
,
0101
0000
0110
0000
1000
0100
1100
0000
,
0100
0010
0100
1000
2002
0000
0000
3003
,
0100
1000
0001
0010
,
1000
0000
0000
0000
1000
0000
0000
0000
0001
0000
0000
0010
0000
0000
0001
0000
,
0100
1000
0010
0100
,
0001
0000
0000
0000
0001
0000
0000
0000
0010
0000
0000
0100
0000
0000
0010
0000
,
1000
0100
0001
0100
,
0010
0000
0000
0000
0010
0000
0000
0000
1000
0000
0000
0100
0000
0000
1000
0000
,
0010
0100
1000
0001
,
0002
0203
2300
3001
,
0010
1000
0100
0000
1000
0000
0100
0010
,
0001
0000
0001
0010
0000
0010
0100
0000
,
1000
0000
0100
0001
0010
0000
1000
0100
,
1000
0010
0001
0000
0100
1000
0100
0000
,
0001
0010
0100
0000
0101
0000
1000
0001
,
0100
0000
0101
0000
1000
0010
0100
0000
,
0001
0010
0100
0010
0100
1000
0001
1000
,
0100
0000
1000
0001
0001
0000
1002
0000
,
0000
0100
0000
0103
,
2000
3020
2030
3200
,
0000
0001
0000
0301
,
0020
0032
0023
2030
,
0000
0010
0000
3010
,
0002
2003
3002
0023
,
0000
1000
0000
1030
,
0200
0320
0230
0002
,
0303
0000
0000
0000
;

//---------------dance-single - ----------------
#NOTEDATA:;
#CHARTNAME:;
#STEPSTYPE:dance-single;
#DESCRIPTION:;
#CHARTSTYLE:;
#DIFFICULTY:Easy;
#METER:5;
#RADARVALUES:0.257274,0.362069,0.132004,0.528018,0.000000,191.000000,177.000000,14.000000,56.000000,0.000000,0.000000,0.000000,0.000000,0.000000,0.257274,0.362069,0.132004,0.528018,0.000000,191.000000,177.000000,14.000000,56.000000,0.000000,0.000000,0.000000,0.000000,0.000000;
#CREDIT:;
#NOTES:
0000
0000
0000
0000
,
0000
0000
0000
0000
,
0000
0000
0000
0000
,
0000
0000
0000
0000
,
0000
0000
0000
0000
,
0000
0000
0000
0000
,
0000
0000
0000
0000
,
0000
0000
0000
0000
,
0200
0300
0020
0030
,
1000
0001
1000
0100
,
0002
0003
2000
3000
,
0010
0100
0001
0100
,
2000
3000
0200
0300
,
0020
0030
2000
3000
,
0100
0010
0001
1000
,
0010
0000
2002
3003
,
0100
0010
0001
0001
,
0010
0000
1001
0000
,
0100
1000
0010
0010
,
0100
0000
0110
0000
,
0001
1000
0100
1000
,
0001
0000
1001
0000
,
0100
0001
0100
1000
,
0010
0000
0110
0000
,
2000
3000
0100
0010
,
0002
0003
0020
0030
,
0200
0300
0001
1000
,
0020
0030
2000
3000
,
0200
0300
0001
0010
,
2000
3000
0020
0030
,
0002
0003
0010
0100
,
2000
3000
0220
0330
,
0100
0001
0010
1001
,
0100
1000
0100
0110
,
1000
0100
0010
1001
,
0010
0100
1000
0110
,
0200
0300
2000
3000
0010
0001
0020
0030
,
0200
0300
0002
0003
1000
0001
2000
3000
,
0010
0100
0020
0030
0100
0001
0200
0300
,
1000
0000
0001
0000
0020
0030
2002
3003
,
0020
0030
0200
0300
,
1000
0100
0001
0100
,
0020
0030
0002
0003
,
1000
1000
0010
0001
,
2000
3000
0002
0003
,
0010
0100
0010
1000
,
0020
0030
0200
0300
,
0010
1000
2002
3003
,
0010
0001
0100
0010
,
1000
1000
0100
0100
,
0010
1000
0100
0010
,
0001
0001
0010
0010
,
0001
0010
0100
1000
,
0010
0010
1000
1000
,
0100
0010
0100
1000
,
0001
0100
0110
0000
,
2000
3000
2000
3000
,
0001
0010
0200
0300
,
0020
0030
0020
0030
,
0001
0100
2000
3000
,
0200
0300
0020
0030
,
1000
0100
2000
3000
,
0020
0030
0002
0003
,
0001
0010
0200
0300
,
1001
0000
0000
0000
;

//---------------dance-single - ----------------
#NOTEDATA:;
#CHARTNAME:;
#STEPSTYPE:dance-single;
#DESCRIPTION:;
#CHARTSTYLE:;
#DIFFICULTY:Beginner;
#METER:3;
#RADARVALUES:0.157597,0.239494,0.047144,0.084860,0.000000,117.000000,112.000000,5.000000,9.000000,0.000000,0.000000,0.000000,0.000000,0.000000,0.157597,0.239494,0.047144,0.084860,0.000000,117.000000,112.000000,5.000000,9.000000,0.000000,0.000000,0.000000,0.000000,0.000000;
#CREDIT:;
#NOTES:
// measure 0
0000
0000
0000
0000
,  // measure 1
0000
0000
0000
0000
,  // measure 2
0000
0000
0000
0000
,  // measure 3
0000
0000
0000
0000
,  // measure 4
0000
0000
0000
0000
,  // measure 5
0000
0000
0000
0000
,  // measure 6
0000
0000
0000
0000
,  // measure 7
0000
0000
0000
0000
,  // measure 8
1000
0000
0100
0000
,  // measure 9
0001
0000
0001
0000
,  // measure 10
0010
0000
0100
0000
,  // measure 11
1000
0000
1000
0000
,  // measure 12
0001
0000
0010
0000
,  // measure 13
0100
0000
0100
0000
,  // measure 14
0010
0000
1000
0000
,  // measure 15
0020
0000
0000
0030
,  // measure 16
1000
0000
0001
0000
,  // measure 17
1000
1000
1000
0000
,  // measure 18
0010
0000
0001
0000
,  // measure 19
0010
0010
0010
0000
,  // measure 20
0100
0000
0001
0000
,  // measure 21
0100
0100
0100
0000
,  // measure 22
0010
0000
1000
0000
,  // measure 23
0010
0010
0010
0000
,  // measure 24
1000
0000
1001
0000
,  // measure 25
0001
0000
0010
0000
,  // measure 26
0100
0000
0110
0000
,  // measure 27
0001
0000
0010
0000
,  // measure 28
1000
1000
1000
0000
,  // measure 29
0001
0001
0001
0000
,  // measure 30
0010
0010
0010
0000
,  // measure 31
0100
0000
0110
0000
,  // measure 32
2000
0000
3000
0000
,  // measure 33
0002
0000
0003
0000
,  // measure 34
0200
0000
0300
0000
,  // measure 35
0020
0000
0030
0000
,  // measure 36
1000
0000
0001
0000
,  // measure 37
0100
0000
0010
0000
,  // measure 38
0001
0001
0100
0100
,  // measure 39
1000
0010
0010
0000
,  // measure 40
0100
0000
1000
0000
,  // measure 41
0001
0000
0001
0000
,  // measure 42
0010
0000
1000
0000
,  // measure 43
0100
0000
0100
0000
,  // measure 44
0001
0000
1000
0000
,  // measure 45
0010
0000
0010
0000
,  // measure 46
1000
0000
0001
0000
,  // measure 47
0100
0000
0100
0000
,  // measure 48
0110
0000
0001
0000
,  // measure 49
0010
0000
0001
0000
,  // measure 50
0100
0000
1000
0000
,  // measure 51
0010
0000
1000
0000
,  // measure 52
0001
0000
1000
0000
,  // measure 53
0010
0000
0100
0000
,  // measure 54
0001
0000
1000
0000
,  // measure 55
1001
0000
0000
0000
,  // measure 56
0010
0000
0010
0000
,  // measure 57
0020
0000
0030
0000
,  // measure 58
1000
0000
1000
0000
,  // measure 59
2000
0000
3000
0000
,  // measure 60
0100
0000
0100
0000
,  // measure 61
0200
0000
0300
0000
,  // measure 62
0001
0000
0001
0000
,  // measure 63
0002
0000
0003
0000
;
