#TITLE:Virtual Sunrise;
#SUBTITLE:(xac remix);
#ARTIST:xac;
#TITLETRANSLIT:;
#SUBTITLETRANSLIT:;
#ARTISTTRANSLIT:;
#GENRE:;
#CREDIT:;
#BANNER:Virtual Sunrise (xac remix).png;
#BACKGROUND:Virtual Sunrise (xac remix)-bg.png;
#LYRICSPATH:;
#CDTITLE:;
#MUSIC:Virtual Sunrise (xac remix).ogg;
#OFFSET:0.012286;
#SAMPLESTART:78.132004;
#SAMPLELENGTH:15.000000;
#SELECTABLE:YES;
#BPMS:0.000000=175.000000
,164.000000=87.500000
,196.000000=175.000000
,260.000000=87.500000
;
#STOPS:
;
#BGCHANGES:;
#KEYSOUNDS:;
#ATTACKS:;

//---------------dance-single - ----------------
#NOTES:
     dance-single:
     :
     Hard:
     13:
     0.524317,0.812621,0.329712,0.251623,0.125811,423.000000,385.000000,38.000000,29.000000,0.000000,0.000000,0.524317,0.812621,0.329712,0.251623,0.125811,423.000000,385.000000,38.000000,29.000000,0.000000,0.000000:
0000
0000
0000
0000
,
0000
0000
0000
0000
,
0000
0000
0000
0000
,
0000
0000
0000
0000
,
0000
0000
0000
0000
,
1000
0100
0000
0010
0000
0010
1000
0000
,
0100
0000
0001
0100
0000
0010
0010
0000
,
0001
1000
0000
0001
0000
1000
0100
0010
,
0000
0001
0001
0000
0010
1000
0100
0000
,
0010
0200
0000
0001
0000
0001
0310
0000
,
0001
2000
0000
0100
0000
0100
3010
0000
,
0100
0002
0000
0010
0000
1000
0103
0000
,
1000
0020
0000
1000
0000
0001
0130
0000
,
0001
0011
0010
1010
,
1000
1100
0110
1001
,
0001
0001
1000
1000
0010
0100
0010
0001
,
0102
0000
0100
0000
0010
1000
1003
0000
,
0100
0000
0101
0000
0001
0000
0010
0001
,
0010
0000
0100
0010
0100
1000
0100
0000
,
0001
0000
0010
1000
1010
0000
0100
0001
,
0100
0000
0010
0100
0000
1000
0001
0000
,
0010
0000
0001
0100
1000
0000
1000
0100
,
0010
0100
0010
0000
0001
0010
0100
0000
,
0010
0001
0100
0010
0000
1000
0000
1100
,
0000
0100
0100
0010
0001
1000
0010
0000
,
2000
0001
0100
0010
,
3001
0000
0100
0000
0010
1000
0001
0000
,
0200
0010
1000
0001
,
1300
0000
0001
0100
0100
0000
1001
0000
,
0020
1000
0100
0001
,
0130
0000
0001
1000
0000
1000
0010
0000
,
0002
0010
0100
1000
,
0103
0000
0010
0100
0010
0100
0001
0000
,
1100
0110
1010
0101
,
0011
1001
1010
0011
,
0101
0110
0011
1010
,
1100
0101
1001
0110
,
0010
0100
0010
0001
0010
0100
1100
0000
,
0001
1000
0001
0010
0001
0100
0101
0000
,
1000
0100
0001
0100
1000
0010
0001
0100
,
1000
0000
1000
0000
0010
0000
0010
0000
0100
0001
0100
0010
0001
0000
0000
0000
,
1200
0000
0001
0000
1300
0010
0100
0001
,
0102
0000
0010
0000
0103
1000
0001
0010
,
0021
0000
0100
0000
0031
0100
1000
0010
,
2010
0000
0001
0000
3010
0100
0001
1000
,
1001
0001
0010
0010
0100
1000
0100
0001
,
1000
1000
0001
0001
0010
0100
0010
0010
,
1000
0100
0001
0000
0001
0010
0100
0000
1000
0100
1000
0100
0010
0001
0010
0000
,
0100
0000
0100
0000
0001
0000
0001
0000
0010
0000
1000
0000
1000
0000
0100
0020
0200
0000
0000
0000
0330
0000
0000
0000
1000
0000
0000
0000
0110
0000
0000
0000
,
0002
1003
2000
3100
,
0001
0000
0000
1000
0000
0000
0001
0000
1000
0000
0000
0010
0000
0000
1000
0001
,
2000
3010
0200
0310
,
0100
0000
0000
0001
0000
0000
0100
0000
0010
0000
0000
1000
0000
0000
0010
0100
,
0020
0031
0002
0103
,
0010
0000
0000
0100
0000
0000
0010
0000
0001
0000
0000
1000
0000
0000
0001
0100
,
0002
0103
0020
0130
,
1000
0000
0000
0010
0000
0000
0100
0000
0001
0000
0000
0010
0000
0000
1000
0100
,
0001
1000
0010
0000
0100
0010
0001
0000
,
1000
0000
0100
0000
1000
0000
0010
0000
0100
0000
0000
0101
0000
0000
0001
0000
,
0010
0001
1000
0000
1000
0100
0010
0000
,
0001
0000
0100
0000
0001
0000
0001
0000
0010
0000
0000
0110
0000
0000
1000
0000
,
0100
0010
1000
0010
0100
1000
1001
0000
,
1000
0010
0100
0100
0010
1000
1010
0000
,
0001
0010
0001
0100
0010
1000
0100
0001
,
0010
0000
0100
0000
0010
0000
1000
0000
0100
0001
0100
1000
0010
0001
0020
0000
,
0100
0000
0001
0000
0031
1000
0010
0200
,
0001
0000
1000
0000
1300
0010
0001
2000
,
0010
0000
0100
0000
3100
0010
0100
0002
,
0010
0000
1000
0000
1003
0010
0100
2000
,
0002
0000
0000
3003
0000
0000
0000
0000
;

//---------------dance-single - ----------------
#NOTES:
     dance-single:
     :
     Medium:
     9:
     0.423916,0.662136,0.173533,0.459862,0.034707,342.000000,322.000000,20.000000,53.000000,0.000000,0.000000,0.423916,0.662136,0.173533,0.459862,0.034707,342.000000,322.000000,20.000000,53.000000,0.000000,0.000000:
0000
0000
0000
0000
,
0000
0000
0000
0000
,
0000
0000
0000
0000
,
0000
0000
0000
0000
,
0000
0000
0000
0000
,
1000
0001
0000
0010
0000
0000
1000
0000
,
0010
0000
0100
1000
0000
0001
0000
0000
,
0001
0010
0000
1000
0000
0000
0100
0000
,
0000
0010
0010
0000
0100
0000
0001
0000
,
0200
0000
0000
1000
0000
0000
1300
0000
,
0020
0000
0000
0100
0000
0000
0130
0000
,
2000
0000
0000
0001
0000
0000
3010
0000
,
0002
0000
0000
0100
0000
0000
1003
0000
,
0200
0310
0002
0013
,
2000
3100
0020
0130
,
1000
0001
1000
0100
0010
1000
0010
0000
,
1000
0001
2002
3003
,
1000
0001
0100
0001
,
0010
1010
0100
1100
,
0010
0100
1000
0100
,
0001
0011
0100
0110
,
0010
0000
1000
0010
1000
0000
0100
0001
,
0100
0010
1000
0000
0001
1000
0001
0000
,
0100
0010
1000
0000
0001
1000
0010
1000
,
1000
0011
1010
1001
,
0002
0023
1000
1000
,
0130
0010
0200
1300
,
2000
3200
0010
0001
,
0301
0000
1000
0100
2000
0000
3010
0000
,
0002
0010
0100
1003
,
0200
1000
0001
0310
,
0010
0001
0100
0000
1000
0010
1000
0000
,
1000
0100
0001
1000
0010
0000
1001
0000
,
0001
0000
0100
0010
0100
0000
1000
0010
,
0000
1000
0010
0000
0010
0001
0100
0000
,
0100
1000
0010
0000
1000
0000
0010
0001
,
0100
0000
0010
0000
1000
0100
0010
0000
,
0100
0010
0100
0000
0001
0010
0001
0000
,
0010
0001
0100
1000
0010
0001
0001
0000
,
0020
2030
3200
0302
,
1003
0100
1000
0010
0010
0000
1010
0000
,
0200
0000
2300
0000
3100
0001
1000
0000
,
0020
0000
2030
0000
3001
0010
0100
0000
,
0002
0000
0023
0000
0031
0100
0100
0000
,
2000
0000
3002
0000
1003
0010
0110
0000
,
2000
0001
3002
0010
0023
0100
1000
0031
,
0002
1000
2003
0100
3200
0010
1000
0301
,
0010
0000
1000
0000
1000
0000
0001
0010
0001
0000
0100
0000
0100
0000
0001
0100
,
0001
0000
1000
0010
1000
0010
0100
0000
0010
0000
0001
0000
2002
0000
3003
0000
,
0010
1000
0100
0001
,
0100
0000
0000
0000
0100
0000
0000
0000
0001
0000
0000
1000
0000
0000
0001
0000
,
0100
1000
0001
0010
,
0001
0000
0000
0000
0001
0000
0000
0000
0010
0000
0000
1000
0000
0000
0010
0000
,
0001
1000
0010
1000
,
0100
0000
0000
0000
0100
0000
0000
0000
1000
0000
0000
0100
0000
0000
1000
0000
,
0001
0100
0001
1000
,
0010
0000
0000
0000
0010
0000
0000
0000
0100
0000
0000
0001
0000
0000
0100
0000
,
2000
3001
2000
3010
,
1000
0010
0100
0000
0001
0000
0101
0000
,
0020
1030
0002
1003
,
0100
1000
0010
0100
0100
0000
1100
0000
,
0002
0000
1003
0010
2000
0000
3010
0001
,
0020
1000
1000
0000
0130
0000
0101
0000
,
0200
1000
0301
0000
2000
0001
3010
0000
,
0001
0100
0001
1000
0010
1000
1000
0000
,
1002
0000
0100
0000
1003
0100
0010
0000
,
2100
0000
0010
0000
3100
0001
0100
0000
,
0021
0000
1000
0000
0031
1000
0100
0000
,
0201
0000
0010
0000
0301
1000
1000
0000
,
2002
0000
0000
3003
0000
0000
0000
0000
;

//---------------dance-single - ----------------
#NOTES:
     dance-single:
     :
     Easy:
     5:
     0.259060,0.419082,0.086766,0.390449,0.000000,209.000000,199.000000,10.000000,45.000000,0.000000,0.000000,0.259060,0.419082,0.086766,0.390449,0.000000,209.000000,199.000000,10.000000,45.000000,0.000000,0.000000:
0000
0000
0000
0000
,
0000
0000
0000
0000
,
0000
0000
0000
0000
,
0000
0000
0000
0000
,
0000
0000
0000
0000
,
1000
0000
0010
0010
,
0100
0000
0001
0001
,
0100
1000
0100
0000
,
1000
0010
0010
0000
,
0020
0000
0100
0030
,
0200
0000
1000
0300
,
2000
0000
0100
3000
,
0002
0000
0100
0003
,
0100
0001
0010
0000
,
1000
0100
0010
0000
,
1000
0010
1000
0001
,
0001
0010
1000
0000
,
1001
0000
0010
1000
,
0001
0000
0001
0100
,
0100
0000
0010
1000
,
0100
0001
1000
0000
,
0110
0000
1000
0001
,
0010
0000
1000
0010
,
0100
1000
0100
0000
,
0001
0010
1000
0000
,
0200
0300
0020
0030
,
0010
1000
2000
3000
,
0001
0010
1000
0100
,
0100
0000
2002
3003
,
0100
1000
0100
0000
,
0001
0010
0001
0000
,
0100
0100
0010
1000
,
0100
0000
0110
0000
,
2000
0000
3002
0000
,
0013
0100
0010
0000
,
0200
0000
0320
0000
,
0130
0001
0100
0000
,
2000
0000
0020
3030
,
0002
0000
0020
0033
,
0001
0100
1000
0100
,
0010
0000
1001
0000
,
0002
0003
0100
0100
,
2000
3000
0001
0001
,
0020
0130
1000
0100
,
0002
0013
0100
0100
,
0020
0000
0230
0000
0310
0010
0010
0000
,
2000
0000
3200
0000
1300
1000
1000
0000
,
0001
0100
0001
0000
0010
1000
0010
0000
,
1000
0001
1000
0001
0100
0000
0110
0000
,
2000
3000
0020
0030
,
1000
0100
0010
0010
,
0200
0300
0002
0003
,
1000
0001
0100
1000
,
0200
0300
0020
0030
,
0100
1000
0100
0010
,
2000
3000
0002
0003
,
1000
0100
2000
3000
,
0220
0330
0010
0100
,
0010
1000
0100
0000
,
2002
3003
0100
0001
,
0100
0010
0010
0000
,
0002
0000
1003
0100
,
2000
0000
3100
0001
,
0200
0000
0310
0001
,
0001
0000
1001
0000
,
2000
0010
3010
1000
,
0020
0001
0031
0100
,
2000
0100
3100
0001
,
0200
0001
0301
1000
,
0110
0000
0000
0000
;

//---------------dance-single - ----------------
#NOTES:
     dance-single:
     :
     Beginner:
     3:
     0.118994,0.237740,0.008677,0.112796,0.000000,96.000000,95.000000,1.000000,13.000000,0.000000,0.000000,0.118994,0.237740,0.008677,0.112796,0.000000,96.000000,95.000000,1.000000,13.000000,0.000000,0.000000:
// measure 0
0000
0000
0000
0000
,  // measure 1
0000
0000
0000
0000
,  // measure 2
0000
0000
0000
0000
,  // measure 3
0000
0000
0000
0000
,  // measure 4
0000
0000
0000
0000
,  // measure 5
0000
0000
0000
0000
,  // measure 6
0000
0000
0000
0000
,  // measure 7
0000
0000
0000
0000
,  // measure 8
0000
0000
0000
0000
,  // measure 9
1000
0000
0000
0000
,  // measure 10
0001
0000
0000
0000
,  // measure 11
1000
0000
0000
0000
,  // measure 12
0001
0000
0000
0000
,  // measure 13
0100
0000
0100
0000
,  // measure 14
0010
0000
0010
0000
,  // measure 15
0100
0000
0010
0000
,  // measure 16
0200
0000
0300
0000
,  // measure 17
1000
0000
0000
0000
,  // measure 18
0001
0000
0000
0000
,  // measure 19
1000
0000
0000
0000
,  // measure 20
0001
0000
0000
0000
,  // measure 21
0100
0000
0000
0000
,  // measure 22
0010
0000
0000
0000
,  // measure 23
0100
0000
0000
0000
,  // measure 24
0010
0000
0000
0000
,  // measure 25
2000
0000
3000
0000
,  // measure 26
2000
0000
3000
0000
,  // measure 27
0002
0000
0003
0000
,  // measure 28
0002
0000
0003
0000
,  // measure 29
0020
0000
0030
0000
,  // measure 30
0020
0000
0030
0000
,  // measure 31
0200
0000
0300
0000
,  // measure 32
0200
0000
0300
0000
,  // measure 33
1000
0000
0001
0000
,  // measure 34
1000
0000
0001
0000
,  // measure 35
0010
0000
0100
0000
,  // measure 36
0010
0000
0100
0000
,  // measure 37
0001
0001
0001
0000
,  // measure 38
1000
1000
1000
0000
,  // measure 39
0010
0010
0010
0000
,  // measure 40
0100
0100
0100
0000
,  // measure 41
1001
0000
0000
0000
,  // measure 42
0100
0000
0000
0000
,  // measure 43
0010
0000
0000
0000
,  // measure 44
0100
0000
0000
0000
,  // measure 45
1000
0000
1000
0000
,  // measure 46
0001
0000
0001
0000
,  // measure 47
0010
0000
0010
0000
,  // measure 48
0100
0000
0100
0000
,  // measure 49
0010
0000
0100
0000
,  // measure 50
0010
0000
0010
0000
,  // measure 51
1000
0000
0010
0000
,  // measure 52
1000
0000
1000
0000
,  // measure 53
0001
0000
1000
0000
,  // measure 54
0001
0000
0001
0000
,  // measure 55
0100
0000
0001
0000
,  // measure 56
0100
0000
0100
0000
,  // measure 57
0010
0000
1000
0000
,  // measure 58
0010
0000
1000
0000
,  // measure 59
0001
0000
0100
0000
,  // measure 60
0001
0000
0100
0000
,  // measure 61
0010
0000
0100
0000
,  // measure 62
0010
0000
0100
0000
,  // measure 63
1000
0000
0001
0000
,  // measure 64
1000
0000
0001
0000
,  // measure 65
0200
0000
0300
0000
,  // measure 66
0020
0000
0030
0000
,  // measure 67
2000
0000
3000
0000
,  // measure 68
0002
0000
0003
0000
;
