#TITLE:Venom;
#SUBTITLE:;
#ARTIST:kors k vs L.E.D.-G;
#TITLETRANSLIT:;
#SUBTITLETRANSLIT:;
#ARTISTTRANSLIT:;
#GENRE:;
#CREDIT:;
#BANNER:Venom.png;
#BACKGROUND:Venom-bg.png;
#LYRICSPATH:;
#CDTITLE:;
#MUSIC:Venom.ogg;
#OFFSET:-0.250000;
#SAMPLESTART:20.414000;
#SAMPLELENGTH:15.000000;
#SELECTABLE:YES;
#BPMS:0.000000=190.000000
;
#STOPS:
;
#BGCHANGES:;
#KEYSOUNDS:;
#ATTACKS:;

//---------------dance-single - ----------------
#NOTES:
     dance-single:
     :
     Hard:
     16:
     0.737980,0.946417,0.299699,0.094642,0.291812,655.000000,617.000000,38.000000,12.000000,0.000000,0.000000,0.737980,0.946417,0.299699,0.094642,0.291812,655.000000,617.000000,38.000000,12.000000,0.000000,0.000000:
// measure 0
0000
0000
0000
0000
,  // measure 1
0000
0000
0000
0000
,  // measure 2
0000
0000
0000
0000
,  // measure 3
0000
0000
0000
0000
,  // measure 4
0000
0000
0000
0000
,  // measure 5
0000
0000
0000
0000
,  // measure 6
0000
0000
0000
0000
,  // measure 7
0000
0000
0000
0000
,  // measure 8
1000
0100
0010
0001
0100
1000
0010
0100
,  // measure 9
1000
0001
0010
0100
0010
0001
1000
0100
,  // measure 10
0001
1000
0010
0001
0100
0010
1000
0100
,  // measure 11
0010
0001
0010
0100
0000
1000
0100
0010
,  // measure 12
0100
0100
0001
0001
,  // measure 13
0010
0010
1000
1000
,  // measure 14
0010
0100
1000
0100
0001
0010
1000
0100
,  // measure 15
0020
0000
0000
0000
0030
0000
0000
0000
0100
0010
0100
0010
0100
0000
0000
0000
,  // measure 16
1010
0000
0000
0000
1000
0000
0001
0000
0010
0000
0000
0010
0000
0000
0100
0000
,  // measure 17
0010
0000
0001
0100
0000
0100
0001
0000
1000
0000
0000
0001
0000
1000
0010
0000
,  // measure 18
0000
0000
0100
0000
0000
0010
0000
0100
0000
0010
0000
0001
1000
0000
0001
0000
,  // measure 19
0100
0000
0010
0000
1000
0010
0000
0001
0000
1000
0000
0001
0100
0010
0001
0010
,  // measure 20
0000
0000
0000
0000
1001
0000
0001
1000
0000
0100
0000
1000
0010
0000
0100
0000
,  // measure 21
0001
0000
1000
0010
0000
0010
1000
0000
0001
0000
0100
0010
0000
1000
0000
0100
,  // measure 22
0001
0000
0001
0000
0001
0000
0010
0100
0000
0100
0100
0000
0010
0000
1000
0100
,  // measure 23
1000
0000
0010
0000
0010
0001
0010
0001
0000
0100
0010
0000
0001
0000
1000
0000
,  // measure 24
1100
0000
0000
0000
0010
0001
0000
0010
0000
0000
1000
0000
0100
0000
0001
0000
,  // measure 25
0100
0000
1000
0000
1000
0000
0000
0100
0010
0000
0001
0000
1000
0000
0010
0000
,  // measure 26
0100
0000
0001
0000
0010
0000
0000
0001
0000
0000
0010
0000
0100
0000
0010
0000
,  // measure 27
1000
0000
0100
0000
1000
0000
0001
0000
0010
0000
0000
0100
0000
0000
0001
0000
,  // measure 28
0011
0000
0000
0000
1000
0100
0000
1000
0000
0000
0010
0000
0100
0000
0010
0000
,  // measure 29
0001
0000
1000
0000
0100
0000
0000
0001
1000
0000
0010
0000
0100
0000
0010
0000
,  // measure 30
0001
0000
1000
0000
0100
0000
1000
0000
0001
0000
0000
0100
0000
0000
0010
0000
,  // measure 31
0100
0000
0001
0000
1000
0000
0001
0000
0010
0000
0000
0100
0000
0000
0001
0000
,  // measure 32
1001
0000
1000
0000
0001
0000
0000
0001
0000
0000
0100
0000
0010
0000
0100
0000
,  // measure 33
0010
0000
1000
0000
1000
0000
0000
0010
0100
0000
0001
0000
0010
0000
0001
0000
,  // measure 34
0100
0000
1000
0000
0010
0000
0000
0100
0010
0000
1000
0000
0010
0000
0100
0000
,  // measure 35
0001
0000
1000
0000
0010
0000
0100
0010
0000
0000
0100
0000
0100
0000
0001
0000
,  // measure 36
1000
0000
0001
0000
0100
0000
0000
0100
0010
0000
1000
0000
0010
0000
0001
0000
,  // measure 37
1000
0000
0100
0000
0001
0100
0000
0001
0010
0000
0100
0000
1000
0000
0100
0000
,  // measure 38
0001
0001
1000
0100
0010
0100
0001
0010
,  // measure 39
1000
0000
1000
0000
0100
0000
0100
0000
0010
0100
0001
0010
1000
0100
0010
0000
,  // measure 40
2002
0000
0000
3003
0000
0000
0000
0000
0000
0000
0000
0000
0000
0000
0000
0000
,  // measure 41
0000
0000
0000
0000
,  // measure 42
0220
0000
0000
0330
0000
0000
0000
0000
0000
0000
0000
0000
0000
0000
0000
0000
,  // measure 43
2200
0000
0000
3300
0000
0000
0000
0000
0000
0000
0000
0000
0100
0000
0100
0000
,  // measure 44
0101
0001
0010
0001
0100
0010
1000
0010
,  // measure 45
0100
0001
1000
0001
0010
1000
0100
1000
,  // measure 46
0100
0010
0100
0001
1000
0010
0100
0001
0010
0100
1000
0001
0100
1000
0010
0001
,  // measure 47
0200
0000
0000
0000
0000
0000
0000
0000
0310
0000
0000
0000
0010
1000
0010
1000
,  // measure 48
0100
0000
1100
1000
0000
0110
0010
0100
,  // measure 49
0101
0000
0001
1001
0000
1000
1010
0010
,  // measure 50
0100
0000
0101
1000
0000
1001
0001
0010
,  // measure 51
0011
0000
0000
0010
0000
0000
0110
0000
0000
1000
0000
0000
1100
0000
0100
0000
,  // measure 52
0001
0000
0101
1000
0000
1010
0010
0010
,  // measure 53
0110
0000
0000
0010
0000
0000
0011
0000
0000
0000
0001
0000
1001
0000
1000
0000
,  // measure 54
0100
0000
1010
0100
0000
0101
0010
0001
,  // measure 55
2000
0000
0000
3000
,  // measure 56
0100
0001
0010
0100
1000
0010
0100
0001
,  // measure 57
0010
0100
0010
1000
0100
0001
1000
0010
,  // measure 58
0010
0100
0001
0010
0100
0001
1000
0010
,  // measure 59
0100
1000
0100
0010
0000
0100
0001
0010
,  // measure 60
0110
0100
1000
0001
0100
0010
1000
0001
,  // measure 61
0010
1000
0100
1000
0001
0010
0100
1000
,  // measure 62
1000
0100
0010
0100
0001
0010
1000
0010
,  // measure 63
0100
0000
0001
0010
0000
0001
0000
1000
,  // measure 64
1010
0000
0100
0000
0010
1000
0010
0001
,  // measure 65
0100
0010
1000
0010
0100
0001
0010
1000
,  // measure 66
0001
0001
1000
1000
0010
0010
0100
0100
,  // measure 67
0002
0000
0000
0000
0003
0000
0000
0000
1000
0010
1000
0010
0100
0000
0001
0000
,  // measure 68
0110
0000
1000
0010
0100
0001
0010
0100
,  // measure 69
0010
1000
0001
0100
0010
1000
0100
0001
,  // measure 70
0010
0000
1000
0010
0100
0010
1000
0001
,  // measure 71
0100
0010
0100
0001
0010
0100
0001
1000
,  // measure 72
1000
0000
0001
0010
0100
0001
1000
0001
,  // measure 73
0100
0010
1000
0001
1000
0100
0001
0010
,  // measure 74
0010
0000
0100
1000
0010
0001
0100
0010
,  // measure 75
1010
1000
0100
0101
0000
0001
0001
0001
,  // measure 76
1001
0000
1000
0010
0100
0001
1000
0001
,  // measure 77
0100
0010
1000
0100
0001
0010
0001
0100
,  // measure 78
0100
0000
0001
1000
0010
1000
0100
0001
,  // measure 79
0010
0100
1000
0001
0100
0010
0001
0010
,  // measure 80
0010
0000
1000
0010
0001
0100
0010
0100
,  // measure 81
0001
1000
0001
0010
0100
1000
0001
0100
,  // measure 82
0100
0000
0001
0000
0000
0000
1000
0000
0000
0000
0010
0000
0100
0000
0001
0100
,  // measure 83
0001
0010
1000
0010
0000
0100
0001
0100
,  // measure 84
0110
0000
1000
0010
0100
0001
0100
0010
,  // measure 85
0001
1000
0010
0100
0010
0001
0100
0010
,  // measure 86
0100
0000
1000
0001
0010
0001
0100
0010
,  // measure 87
1000
0000
0100
0000
0010
0000
0001
0000
1000
0000
0010
0000
0100
0000
1000
0010
,  // measure 88
1000
0000
0001
0010
0110
0010
0001
1000
,  // measure 89
1100
0000
0010
0100
0110
0010
0001
0010
,  // measure 90
0100
0000
0001
0000
0010
0000
1000
0000
0100
0000
0001
0000
1000
0001
1000
0001
,  // measure 91
0010
0100
0001
0010
0000
1000
0100
0001
,  // measure 92
2002
0000
0000
0000
,  // measure 93
3003
0000
0000
0000
,  // measure 94
0000
0000
0000
0000
,  // measure 95
0010
0000
0100
0001
0100
0000
1000
0001
1000
0000
1000
0000
0010
0001
1000
0100
,  // measure 96
0110
0000
0000
0000
;
