#VERSION:0.83;
#TITLE:Ultra boy;
#SUBTITLE:;
#ARTIST:V.C.O. feat. Yuko Asai;
#TITLETRANSLIT:;
#SUBTITLETRANSLIT:;
#ARTISTTRANSLIT:;
#GENRE:;
#CREDIT:;
#MUSIC:Ultra boy.ogg;
#BANNER:Ultra boy.png;
#BACKGROUND:Ultra boy-bg.png;
#CDTITLE:;
#SAMPLESTART:65.995;
#SAMPLELENGTH:15.000;
#SELECTABLE:YES;
#OFFSET:-0.429;
#BPMS:0.000=150.000;
#STOPS:;
#SPEEDS:0.000=1.000=0.000=0;
#SCROLLS:0.000=1.000;
#TICKCOUNTS:0.000=4;
#TIMESIGNATURES:0.000=4=4;
#LABELS:0.000=Song Start;
#COMBOS:0.000=1;
#ORIGIN:;
#PREVIEWVID:;
#JACKET:;
#CDIMAGE:;
#DISCIMAGE:;
#BGCHANGES:;
#FGCHANGES:;

//--------------- dance-single - ----------------
#NOTEDATA:;
#STEPSTYPE:dance-single;
#DESCRIPTION:;
#DIFFICULTY:Beginner;
#METER:1;
#RADARVALUES:0.20292,0.275275,0.11405,0.11405,0,137,126,11,11,0,0,0,0,0,0.20292,0.275275,0.11405,0.11405,0,137,126,11,11,0,0,0,0,0;
#CHARTNAME:;
#CHARTSTYLE:;
#CREDIT:;
#NOTES:
0000
0000
0000
0000
,
0000
0000
0000
0000
,
0000
0000
0000
0000
,
0000
0000
0000
0000
,
0000
0000
0000
0000
,
0000
0000
0000
0000
,
0000
0000
0000
0000
,
0000
0000
0000
0000
,
0000
0000
0000
0000
,
1000
0000
0000
0000
,
1000
0000
0000
0000
,
0001
0000
0000
0000
,
0001
0000
0000
0000
,
0100
0000
0000
0000
,
0100
0000
0000
0000
,
0010
0000
0000
0000
,
0010
0000
0000
0000
,
0110
0000
0000
0000
,
0000
0000
0000
0000
,
0001
0000
0000
0000
,
0000
0000
0000
0000
,
1000
0000
0000
0000
,
0000
0000
0000
0000
,
0001
0000
0000
0000
,
0000
0000
0000
0000
,
1001
0000
0000
0000
,
0000
0000
0000
0000
,
0100
0000
0000
0000
,
0000
0000
0000
0000
,
0010
0000
0000
0000
,
0000
0000
0000
0000
,
0100
0000
0000
0000
,
0000
0000
0000
0000
,
1000
0000
0000
0000
,
1000
0000
0000
0000
,
0001
0000
0000
0000
,
0001
0000
0000
0000
,
2000
0000
0000
0000
,
3000
0000
0000
0000
,
0002
0000
0000
0000
,
0003
0000
0000
0000
,
0100
0000
0100
0000
,
0100
0000
0000
0000
,
0010
0000
0010
0000
,
0010
0000
0000
0000
,
0001
0000
0001
0000
,
0001
0000
0000
0000
,
1000
0000
1000
0000
,
1000
0000
0000
0000
,
0010
0000
0000
0000
,
0010
0000
0000
0000
,
0100
0000
0000
0000
,
0100
0000
0000
0000
,
1000
0000
0000
0000
,
1000
0000
0000
0000
,
0001
0000
0000
0000
,
0001
0000
0000
0000
,
0100
0000
0000
0000
,
0010
0000
0000
0000
,
0110
0000
0000
0000
;

//--------------- dance-single - ----------------
#NOTEDATA:;
#STEPSTYPE:dance-single;
#DESCRIPTION:;
#DIFFICULTY:Easy;
#METER:3;
#RADARVALUES:0.20292,0.275275,0.11405,0.11405,0,137,126,11,11,0,0,0,0,0,0.20292,0.275275,0.11405,0.11405,0,137,126,11,11,0,0,0,0,0;
#CHARTNAME:;
#CHARTSTYLE:;
#CREDIT:;
#NOTES:
0000
0000
0000
0000
,
0000
0000
0000
0000
,
0000
0000
0000
0000
,
0000
0000
0000
0000
,
0000
0000
0000
0000
,
0000
0000
0000
0000
,
0000
0000
0000
0000
,
0000
0000
0000
0000
,
0000
0000
0000
0000
,
0010
0000
0100
0000
,
1000
0001
1000
0000
,
0100
0000
1000
0010
,
1000
0000
0100
0000
,
1001
0000
0100
0000
,
0110
0000
0001
0000
,
0010
0001
0100
0001
,
0020
0000
0000
0030
,
0100
0000
1000
0000
,
0001
0001
0010
0000
,
1000
0000
0001
0000
,
0100
0100
0010
0000
,
1000
0000
0001
0000
,
1000
1000
0100
0000
,
0010
0000
0001
0010
,
0010
0000
0110
0000
,
0200
0000
0300
1000
,
0001
0010
0001
0000
,
0002
0000
0003
0010
,
0100
0010
1000
0000
,
0020
0000
0030
0001
,
0100
1000
0100
0000
,
2000
0000
3000
0010
,
0100
0001
0100
0000
,
0010
0000
0110
0000
,
1000
0001
1000
0000
,
0010
0001
0010
0100
,
0100
0000
1001
0000
,
2000
0000
0000
3000
,
0002
0000
0000
0003
,
0020
0000
0000
0030
,
0200
0300
0220
0330
,
0000
0100
1000
0010
,
0001
0000
0001
0100
,
1000
0000
0010
0100
,
0100
0001
1000
0000
,
0100
1000
0100
0000
,
0010
0100
0010
0000
,
0001
1000
0001
0100
,
1000
0000
1001
0000
,
0100
0010
0100
0000
,
0001
0001
1000
0000
,
0010
0001
0010
0000
,
0100
0100
0010
0000
,
1000
0000
0110
0000
,
0010
0000
1001
0000
,
1000
0010
0100
0010
,
0001
0000
0110
0000
,
0010
0000
0100
0000
,
1000
0000
1001
0000
,
0001
0000
0000
0000
;

//--------------- dance-single - ----------------
#NOTEDATA:;
#STEPSTYPE:dance-single;
#DESCRIPTION:;
#DIFFICULTY:Medium;
#METER:7;
#RADARVALUES:0.315489,0.336447,0.134786,0.331782,0,213,200,13,32,0,0,0,0,0,0.315489,0.336447,0.134786,0.331782,0,213,200,13,32,0,0,0,0,0;
#CHARTNAME:;
#CHARTSTYLE:;
#CREDIT:;
#NOTES:
0000
0000
0000
0000
,
0000
0000
0000
0000
,
0000
0000
0000
0000
,
0000
0000
0000
0000
,
0000
0000
0000
0000
,
0000
0000
0000
0000
,
0000
0000
0000
0000
,
0000
0000
0000
0000
,
0000
0000
0000
0000
,
0010
1000
0100
0100
,
0001
0000
1000
0001
0000
1000
0010
0000
,
0100
0001
0100
0010
,
0100
1000
0100
0000
0010
0000
0010
0000
,
2200
3300
2020
3030
,
0202
0303
0022
0033
,
1000
0010
0100
0010
,
0200
0001
0301
1001
,
0000
0010
0001
0100
,
1000
0000
1000
0000
0010
0100
0010
0100
,
0000
1000
0010
0001
,
1000
0000
0100
0000
0001
0100
0001
0100
,
0000
0100
0010
1000
,
0001
0000
1000
0000
0100
1000
0100
1000
,
0000
0001
0010
0100
,
0001
0000
0100
0000
1000
0010
1000
0010
,
0100
0001
0100
0001
,
0010
0000
0100
0000
0001
0000
1000
1000
,
1000
0010
1000
0001
,
0010
0000
0010
0000
1000
0000
0100
0100
,
0100
0010
1000
0010
,
0001
0000
1000
0000
0100
0000
0001
0001
,
0001
0100
0010
0100
,
1000
0000
0001
0000
0010
0010
0010
0000
,
2000
0000
3100
0001
,
0010
1000
0001
0000
,
0001
0000
1000
0000
0010
0000
1000
0010
,
1000
0000
0001
0000
0100
0000
0010
1000
,
0020
0030
0100
0001
,
0200
0310
0010
1000
,
0002
0103
1000
0100
,
2000
3000
0011
1010
,
0000
0001
0100
1000
,
0100
0100
0010
1000
,
0200
0300
0010
1000
,
1000
0000
0001
0010
0001
0000
0100
0000
,
0020
1030
0100
0001
,
2000
3100
0010
0001
,
0200
0300
0001
1000
,
1000
0000
0100
0001
0100
0000
0110
0000
,
2000
3000
0001
0020
,
1030
0000
0100
0000
0010
0100
0010
0000
,
0002
0003
0100
2000
,
3001
0000
0001
0000
0010
1000
0010
0000
,
0220
0330
2002
3003
,
0202
0303
2020
3030
,
0001
0100
1000
0010
,
0200
1000
1300
1001
,
0020
0100
0000
0130
,
0010
0000
0100
0000
0010
0000
1000
0100
,
0100
0000
0000
0000
;

//--------------- dance-single - ----------------
#NOTEDATA:;
#STEPSTYPE:dance-single;
#DESCRIPTION:;
#DIFFICULTY:Hard;
#METER:11;
#RADARVALUES:0.389547,0.519964,0.186627,0.508041,0,263,245,18,49,0,0,0,0,0,0.389547,0.519964,0.186627,0.508041,0,263,245,18,49,0,0,0,0,0;
#CHARTNAME:;
#CHARTSTYLE:;
#CREDIT:;
#NOTES:
0000
0000
0000
0000
,
0000
0000
0000
0000
,
0000
0000
0000
0000
,
0000
0000
0000
0000
,
0000
0000
0000
0000
,
0000
0000
0000
0000
,
0000
0000
0000
0000
,
0000
0000
0000
0000
,
0000
0020
2030
3200
,
0301
0100
0010
0100
0000
1000
0100
0010
,
1000
0100
0000
0001
0100
0010
0100
0000
,
0001
0010
0001
0100
0000
0001
0100
0010
,
0100
1000
0000
0001
0100
0010
0010
0000
,
2000
0000
3010
0100
0020
0000
0130
0001
,
0200
0000
1300
0010
2000
0100
3100
0000
,
0002
0000
2003
0000
3020
0000
0032
1000
,
0003
0100
0001
0100
0010
0010
0110
0000
,
0010
0000
0100
0000
1000
0000
0001
0100
,
0000
0100
0010
0000
0002
1000
0103
0000
,
0010
0000
0001
0000
0010
0000
0100
1000
,
0000
1000
0010
0000
0200
0010
0301
0000
,
0010
0000
1000
0000
0001
0000
1000
0010
,
0000
0100
0010
0000
2000
0001
3010
0000
,
0100
0000
1000
0000
0001
0000
0010
0001
,
0000
1000
0100
0000
0001
0010
1010
0000
,
0100
0000
0100
0000
0100
0000
0001
1000
,
0000
0010
1000
0000
0100
0001
0101
0000
,
1000
0000
1000
0000
1000
0000
0010
0001
,
0000
0010
1000
0000
0001
1000
1001
0000
,
0001
0000
0010
0000
0001
0000
0100
0010
,
0100
0000
1000
0000
0100
0000
1000
0001
,
1000
0000
0010
0001
0010
0100
0000
1000
,
0100
1000
0010
0001
0000
0100
1100
0000
,
0020
0000
1000
0000
0100
0000
1030
0001
,
0000
0100
0001
0000
0010
1000
0010
0000
,
0001
0000
0100
0010
0000
0001
0200
0000
,
1000
0000
1300
0000
0100
0001
0100
0000
,
0020
0000
0000
0002
0030
0000
1003
2000
,
0000
0100
0010
3010
,
0202
0000
0003
0020
0300
0000
0230
2000
,
0300
3001
0011
1001
,
1000
0020
0230
0320
,
0032
0003
2000
3200
,
2300
0000
3000
0010
0020
0000
0000
0000
,
0030
0100
1000
0001
,
0010
0001
0011
0010
,
0100
1000
1100
0100
,
0002
0000
0000
1000
2000
0000
0003
0000
,
3000
0011
0101
1100
,
0020
0000
0130
0200
0000
0301
0002
0000
,
1003
0010
0100
0001
,
2000
0000
3010
0020
0000
1030
2000
0000
,
3001
0000
0100
0010
1000
0000
0100
0000
,
0012
0000
0103
1000
1200
0000
0310
0001
,
2001
0000
3100
0010
1020
0000
0031
0001
,
2000
0000
3002
0000
0203
0000
0310
0020
,
0000
0030
1000
0001
0000
1000
0000
0200
,
0000
0010
0001
0010
,
1300
0000
1000
0100
0010
0100
0001
0000
,
1100
0000
0000
0000
;
