#VERSION:0.83;
#TITLE:Towards The Horizon;
#SUBTITLE:;
#ARTIST:Camellia;
#TITLETRANSLIT:;
#SUBTITLETRANSLIT:;
#ARTISTTRANSLIT:;
#GENRE:;
#ORIGIN:;
#CREDIT:;
#BANNER:Towards The Horizon.png;
#BACKGROUND:Towards The Horizon-bg.png;
#PREVIEWVID:;
#JACKET:;
#CDIMAGE:;
#DISCIMAGE:;
#LYRICSPATH:;
#CDTITLE:;
#MUSIC:Towards The Horizon.ogg;
#OFFSET:-0.609896;
#SAMPLESTART:39.470474;
#SAMPLELENGTH:12.467533;
#SELECTABLE:YES;
#BPMS:0.000=154.000,
36.000=155.000,
64.000=77.500,
66.000=154.000,
98.000=154.500,
162.000=77.250,
180.000=154.000,
216.000=154.500,
244.000=77.500,
247.750=155.000,
256.500=77.500,
260.000=155.000;
#STOPS:243.750=1.558,
256.250=0.290;
#DELAYS:;
#WARPS:;
#TIMESIGNATURES:0.000=4=4;
#TICKCOUNTS:0.000=4;
#COMBOS:0.000=1;
#SPEEDS:0.000=1.000=0.000=0;
#SCROLLS:0.000=1.000;
#FAKES:;
#LABELS:0.000=Song Start;
#BGCHANGES:;
#KEYSOUNDS:;
#ATTACKS:
;

//---------------dance-single - ----------------
#NOTEDATA:;
#CHARTNAME:;
#STEPSTYPE:dance-single;
#DESCRIPTION:;
#CHARTSTYLE:;
#DIFFICULTY:Hard;
#METER:15;
#RADARVALUES:0.603557,0.907417,0.377510,0.329317,0.586345,526.000000,479.000000,47.000000,41.000000,0.000000,0.000000,0.000000,0.000000,0.000000,0.603557,0.907417,0.377510,0.329317,0.586345,526.000000,479.000000,47.000000,41.000000,0.000000,0.000000,0.000000,0.000000,0.000000;
#CREDIT:;
#NOTES:
// measure 0
0000
0000
0000
0000
,  // measure 1
0000
0000
0000
0000
,  // measure 2
0000
0000
0000
0000
,  // measure 3
0000
0000
0000
0000
,  // measure 4
0000
0000
0000
0000
,  // measure 5
0000
0000
0000
0000
,  // measure 6
0000
0000
0000
0000
,  // measure 7
0000
0000
0000
0000
,  // measure 8
0000
0000
0000
0000
,  // measure 9
0200
0000
0000
0000
1300
0000
0000
0010
0000
0000
0001
0000
0101
0000
0000
0000
,  // measure 10
0002
0000
0000
0000
0013
0000
0000
0100
0000
0000
1000
0000
1001
0000
0000
0000
,  // measure 11
0020
0000
0000
0000
0130
0000
0000
1000
0000
0000
0100
0000
0110
0000
0000
0000
,  // measure 12
2000
0000
0000
0000
3001
0000
0000
1000
0000
0000
0010
0000
1010
0000
0000
0000
,  // measure 13
0100
0000
0001
0000
0100
0000
0010
0100
0000
0000
0010
0000
1100
0000
0000
0000
,  // measure 14
0001
0000
1000
0000
0001
0000
0001
0010
0000
0000
0100
0000
0101
0000
0000
0000
,  // measure 15
1100
0000
0100
0000
0101
0000
0001
0000
0010
0000
0010
0000
0010
0001
0010
1000
,  // measure 16
0200
0000
0000
0300
0010
0000
1010
0100
,  // measure 17
0001
0100
0000
0001
0100
0010
0100
0000
1000
0000
0000
0000
0101
0000
0001
0000
,  // measure 18
0010
1000
0000
0010
2000
0000
0000
0000
3100
0000
0000
0000
0011
0000
0100
0000
,  // measure 19
1000
0010
0000
1000
0100
0000
0010
0001
0010
0000
0100
0000
1100
0000
0001
0100
,  // measure 20
0010
1000
0100
1000
0001
0000
0110
1000
,  // measure 21
0100
0001
0000
0100
1000
0010
1000
0000
0100
0000
0000
0000
1010
0000
1000
0000
,  // measure 22
0001
0100
0000
0001
0020
0000
0000
0000
1030
0000
0000
0000
0100
0010
0100
0010
,  // measure 23
0001
0000
0000
0000
1000
0100
1000
0100
0010
0000
0001
0010
0000
0001
0100
0010
,  // measure 24
2000
0000
0000
0000
3001
0000
0000
0000
0010
0000
0100
0000
0010
0001
0010
0100
,  // measure 25
0010
0000
1000
0000
1001
0000
0001
0000
0100
0000
1000
0000
0100
0010
0100
1000
,  // measure 26
0001
0000
0010
0000
0000
0000
1000
0001
1000
0000
0000
0100
0200
0000
0000
0000
,  // measure 27
1000
0000
0000
0000
0010
0000
0000
0000
1300
0000
0000
0010
0001
0000
0100
0000
,  // measure 28
0001
0000
0010
0000
1010
0000
1000
0000
0001
0000
0010
0000
0001
0100
0001
0100
,  // measure 29
0010
0000
1000
0000
1001
0000
0010
0000
0010
0000
0100
0001
0010
1000
0100
1000
,  // measure 30
0010
0000
0001
0000
0000
0000
0100
0001
0100
0000
0000
1000
2000
0000
0000
0000
,  // measure 31
0010
0000
0001
0000
3100
0000
0011
0001
,  // measure 32
0000
0000
0100
0000
0110
0000
0001
0000
2000
0000
0000
0000
0000
0000
3010
0100
,  // measure 33
0010
0000
0100
0000
0001
0000
0010
0000
0100
0000
1000
0100
0000
1000
0001
0000
,  // measure 34
1001
0000
0010
0000
0001
0000
0010
0000
0200
0000
0000
0000
0301
0000
0010
1000
,  // measure 35
1010
0000
0000
0000
0100
0000
0000
0000
0001
0000
0010
0001
0000
0100
0010
0000
,  // measure 36
1001
0000
1000
0000
0011
0000
0100
0000
0020
0000
0000
0000
1030
0000
0100
0010
,  // measure 37
0100
0000
0001
0000
0010
0000
1000
0000
0100
0000
0010
0001
0000
0000
0001
0010
,  // measure 38
0001
0000
1000
0000
0010
0000
1000
0000
0002
0000
0000
0000
0003
0000
0100
1000
,  // measure 39
1100
0000
0000
0000
0100
0000
0000
0000
0100
0000
0001
0010
0000
1000
0010
0000
,  // measure 40
0101
0000
0000
0000
0000
0000
0010
0000
0000
0000
0000
0000
0001
0000
0000
1000
0000
0000
0001
0000
0000
1000
0000
0000
0200
0000
0000
0000
0000
0000
0000
0000
0000
0310
0001
0010
0002
0000
0000
0000
0000
0000
0000
0000
0000
0000
0000
0000
,  // measure 41
0003
0000
0000
0000
0000
0000
0000
0000
0000
0000
0000
0000
0100
0000
0000
0000
0000
0000
0000
0000
0000
0000
0000
0000
1000
0000
0000
0000
0010
0000
0000
0000
1000
0000
0000
0000
0010
0000
0000
0000
0000
0000
0000
0000
0000
0000
0000
0000
0001
0000
0000
0000
0000
0000
0000
0000
0000
0000
0000
0000
0100
0000
0000
0000
0000
0000
0000
0000
0000
0000
0000
0000
0010
0000
0000
0000
0000
0000
0000
0000
0000
0000
0000
0000
0100
0000
0000
0000
0000
0000
0000
0000
0000
0000
0000
0000
2000
0000
0000
0000
0000
0000
0000
0000
0000
0000
0000
0000
0000
0000
0000
0000
0000
0000
0000
0000
0000
0000
0000
0000
3000
0000
0000
0000
0000
0000
0000
0000
0000
0000
0000
0000
0010
0000
0000
0000
0000
0000
0100
0000
0000
0000
0000
0000
0020
0000
0000
0000
0000
0000
0000
0000
0000
0000
0000
0000
0000
0000
0000
0000
0000
0000
0000
0000
0000
0000
0000
0000
0000
0000
0000
0000
0000
0000
0000
0000
0000
0000
0000
0000
1000
0000
0000
0000
0000
0000
0000
0000
0000
0000
0000
0000
,  // measure 42
0030
0000
0000
0000
0000
0000
0000
0000
0000
0000
0000
0000
0000
0000
0000
0000
0000
0000
0000
0000
0000
0000
0000
0000
0100
0000
0000
0000
0000
0000
0000
0000
0000
0000
0000
0000
0001
0000
0000
0000
0000
0000
0000
0000
0000
0000
0000
0000
0000
0000
0000
0000
0000
0000
0000
0000
0000
0000
0000
0000
0100
0000
0000
0000
0000
0000
0000
0000
0000
0000
0000
0000
1000
0000
0000
0000
0000
0000
0100
0000
0000
0000
0000
0000
1000
0000
0000
0000
0000
0000
0100
0000
0000
0000
0000
0000
0002
0000
0000
0000
0000
0000
0000
0000
0000
0000
0000
0000
0000
0000
0000
0000
0000
0000
0000
0000
0000
0000
0000
0000
0003
0000
0000
0000
0000
0000
0000
0000
0000
0000
0000
0000
0100
0000
0000
0000
1000
0000
0000
0000
0010
0000
0000
0000
0200
0000
0000
0000
0000
0000
0000
0000
0000
0000
0000
0000
0000
0000
0000
0000
0000
0000
0000
0000
0000
0000
0000
0000
0000
0000
0000
0000
0000
0000
0000
0000
0000
0000
0000
0000
0000
0000
0000
0000
0000
0000
0000
0000
0000
0000
0000
0000
,  // measure 43
0300
0000
0000
0000
0000
0000
0000
0000
0000
0000
0000
0000
0010
0000
0000
0000
0000
0000
0000
0000
0000
0000
0000
0000
0001
0000
0000
0000
0010
0000
0000
0000
1000
0000
0000
0000
0001
0000
0000
0000
0000
0000
0000
0000
0000
0000
0000
0000
0010
0000
0000
0000
0000
0000
0000
0000
0000
0000
0000
0000
0100
0000
0000
0000
0000
0000
0000
0000
0000
0000
0000
0000
1000
0000
0000
0000
0000
0000
0000
0000
0000
0000
0000
0000
0001
0000
0000
0000
0000
0000
0000
0000
0000
0000
0000
0000
0020
0000
0000
0000
0000
0000
0000
0000
0000
0000
0000
0000
0000
0000
0000
0000
0000
0000
0000
0000
0000
0000
0000
0000
0030
0000
0000
0000
0000
0000
0000
0000
0000
0000
0000
0000
0001
0000
0000
0000
0000
0000
1000
0000
0000
0000
0000
0000
0002
0000
0000
0000
0000
0000
0000
0000
0000
0000
0000
0000
0000
0000
0000
0000
0000
0000
0000
0000
0000
0000
0000
0000
0003
0000
0000
0000
0000
0000
0000
0000
0000
0000
0000
0000
0100
0000
0000
0000
0000
0000
0020
0000
0000
0000
0000
0000
,  // measure 44
0200
0330
2200
3300
2002
0000
0000
0000
,  // measure 45
3003
0000
0000
0000
0011
0000
0000
0000
1100
0000
0000
0000
0100
0001
0100
0000
,  // measure 46
1001
0000
0000
1000
0100
0000
0010
0000
0100
0000
0000
0001
0010
0000
0001
0000
,  // measure 47
0010
0000
0000
1000
0001
0000
0100
0000
1000
0000
0010
0000
0001
0000
0010
0000
,  // measure 48
0200
0000
0000
0000
0300
0000
1000
0001
1000
0000
0010
0000
0100
0000
0001
0000
,  // measure 49
0001
0010
0010
0100
0100
1000
1010
0000
,  // measure 50
0011
0000
0000
0010
0100
0000
1000
0000
0001
0000
0000
1000
0001
0000
0100
0000
,  // measure 51
0010
0000
0000
0001
1000
0000
0100
0000
0010
0000
0001
0000
0100
0000
0010
0000
,  // measure 52
2000
0000
0000
0000
3000
0000
0010
0100
0010
0000
0010
0000
0001
0100
1000
0100
,  // measure 53
0001
0000
0011
0000
1100
1000
1001
0010
,  // measure 54
0101
0000
0000
0001
0100
0000
0010
0000
0001
0000
1000
0100
1000
0000
0010
0000
,  // measure 55
0100
0010
0100
0000
1000
0000
0001
0010
1000
0000
0001
0000
0010
0000
0100
0000
,  // measure 56
0020
0000
0000
0000
1030
0000
0100
1000
0001
0000
0010
0000
0001
0000
0001
0000
,  // measure 57
0100
0000
0010
0000
0012
0000
0000
0000
0103
0000
0100
0000
1000
0100
0010
0100
,  // measure 58
0002
0000
0000
0000
0003
0000
0010
1000
0010
0000
0100
0000
0010
0000
0001
0000
,  // measure 59
2000
0000
0000
0000
3000
0000
0100
0001
0100
0000
1000
0000
0010
0000
1000
0000
,  // measure 60
0200
0000
0001
0000
0010
0000
0001
0000
1000
0000
0010
0000
0001
0000
0001
0300
,  // measure 61
0010
0000
0000
0000
0100
0001
0100
0001
0110
0000
1000
0100
1000
0000
0000
0000
0001
0000
0000
1000
0000
0010
1000
0000
1010
0000
0100
0000
0100
0000
0020
0000
,  // measure 62
0000
0000
0000
1000
0000
0031
1000
0000
0000
0201
0000
0000
0000
0310
0001
0010
,  // measure 63
0001
1000
0000
0100
0010
0100
0000
1000
0000
0001
0000
0010
0000
0011
0000
0100
,  // measure 64
0000
0000
0000
0000
1000
0010
0100
0010
0101
0000
0001
1000
0001
0000
0000
0000
0100
0000
0010
0100
0000
0010
0001
0000
1100
0000
0110
0000
2010
0000
0000
0000
,  // measure 65
3020
0000
0000
0001
0030
0000
0001
0010
1000
0000
0100
0001
1000
0010
1000
0000
,  // measure 66
0101
0000
0000
0000
0000
0000
0001
0000
0100
0000
0000
0000
0000
0220
0000
0000
0000
0000
0000
0000
0000
0000
0000
0000
0000
0000
0000
0000
0000
0000
0000
0000
,  // measure 67
0000
0000
0000
0000
,  // measure 68
0000
0000
0000
0000
0000
0000
0000
0000
0000
0000
0000
0000
0000
0000
0000
0330
0000
0000
0000
0000
0000
0000
0000
0000
0000
0000
0000
0000
0000
0000
0000
0000
;

//---------------dance-single - ----------------
#NOTEDATA:;
#CHARTNAME:;
#STEPSTYPE:dance-single;
#DESCRIPTION:;
#CHARTSTYLE:;
#DIFFICULTY:Medium;
#METER:10;
#RADARVALUES:0.413081,0.567169,0.297189,0.289157,0.100402,360.000000,323.000000,37.000000,36.000000,0.000000,0.000000,0.000000,0.000000,0.000000,0.413081,0.567169,0.297189,0.289157,0.100402,360.000000,323.000000,37.000000,36.000000,0.000000,0.000000,0.000000,0.000000,0.000000;
#CREDIT:;
#NOTES:
0000
0000
0000
0000
,
0000
0000
0000
0000
,
0000
0000
0000
0000
,
0000
0000
0000
0000
,
0000
0000
0000
0000
,
0000
0000
0000
0000
,
0000
0000
0000
0000
,
0000
0000
0000
0000
,
0000
0000
0000
0000
,
0010
0000
0001
0000
1000
0100
1000
0000
,
0100
0000
0001
0010
0000
0001
0100
0000
,
1000
0000
0100
0000
0010
1000
0010
0000
,
0001
0000
1000
0100
0010
1000
0001
0000
,
0100
0000
0101
0000
0010
0100
0100
0000
,
1010
0000
0001
0010
0001
1000
1000
0000
,
0010
0100
1000
0010
0100
0001
0010
0010
,
0002
0000
0000
0003
2000
0000
3010
0000
,
0100
0010
0100
0000
0020
0000
0130
0000
,
1000
0001
1000
0000
0200
0000
0310
0001
,
1000
0010
1000
0000
0100
0100
0010
1000
,
0010
0100
1000
0000
0120
0000
1030
0000
,
0010
0001
0010
0000
2100
0000
3010
0000
,
0001
0100
0001
0000
0200
0000
0310
0000
,
1001
0000
0010
1000
0020
0100
0130
0000
,
0011
0101
0001
0100
,
1000
0001
0100
0000
0001
0000
0010
1000
,
0100
0010
0000
0001
0010
0000
0100
0000
,
1100
0000
0010
0001
0010
0000
0001
1000
,
0001
0000
1010
0000
0010
0000
1000
0010
,
0100
0000
0001
0010
0100
0001
0100
0000
,
0010
1000
1000
0010
0100
0000
0101
0000
,
0010
1000
0010
0000
0010
0000
0100
0000
,
0011
1001
2000
0010
,
3010
0100
0001
0000
1000
0000
0010
0100
,
1000
0100
0010
0000
0002
0000
0100
0000
,
0103
0000
1000
0100
0010
0000
0010
0001
,
0100
1000
1000
0000
0200
0000
0302
0000
,
0103
0010
1000
0000
0001
1000
0010
1000
,
0100
0000
1000
0001
2000
0000
3000
0000
,
0110
0100
0010
0001
,
1001
0000
0000
0000
0010
0000
1000
0000
0010
0000
0000
0100
0200
0000
0000
0000
,
0300
0010
0001
0000
0100
1000
0100
0010
0002
0000
0003
0000
1020
0000
0000
0000
,
0130
0000
1000
0000
1001
0000
0100
1000
0100
0000
0000
0001
0002
0000
0000
0000
,
0003
0010
1000
0000
0010
0001
0010
0100
2000
0000
3000
0000
0200
0000
0300
0000
,
2020
3030
0022
0033
0220
0000
0000
0000
,
0330
0100
0010
1001
,
0010
0000
1000
0001
1000
0000
0001
0010
,
0001
0000
1000
0100
1000
0010
0001
0000
,
0100
0000
0101
0000
0010
0100
1000
0000
,
0100
1000
0100
0001
0001
0000
0110
0000
,
1000
0000
0100
0001
0100
0000
0010
0100
,
0010
0000
0001
0100
0001
0010
0001
0000
,
1000
0000
1100
0000
0010
0100
0001
0010
,
2000
0000
3020
0000
0230
0001
0301
0000
,
0110
0000
1000
0010
0001
0000
0001
0100
,
0010
0000
0010
0001
0100
0010
0100
0000
,
1000
0000
1001
0000
1000
0100
0001
0000
,
0001
0100
0010
0100
1000
0000
0011
0000
,
0200
0000
0300
0000
1000
0010
1000
0000
,
0002
0000
0003
0000
0010
0100
0010
0000
,
1010
0011
0101
1001
,
0020
0000
0001
0000
1030
0100
1000
0000
0011
0000
0100
0000
0010
0001
0010
2010
,
0000
0000
0000
3000
0000
0100
0000
0000
0000
0001
0000
0010
0000
0001
0000
0000
,
0000
0010
0000
1000
0000
0100
0000
0001
0000
0010
0000
0100
0000
1200
0000
0000
,
0000
0000
1300
0000
0010
0100
0010
0000
1001
0000
0011
0000
0110
1000
0002
0000
,
0013
0000
0100
0000
0100
1000
0010
0001
,
0100
0000
1000
2002
0000
0000
0000
0000
,
0000
3003
0000
0000
;

//---------------dance-single - ----------------
#NOTEDATA:;
#CHARTNAME:;
#STEPSTYPE:dance-single;
#DESCRIPTION:;
#CHARTSTYLE:;
#DIFFICULTY:Easy;
#METER:6;
#RADARVALUES:0.258176,0.399849,0.192771,0.313253,0.032129,225.000000,201.000000,24.000000,39.000000,0.000000,0.000000,0.000000,0.000000,0.000000,0.258176,0.399849,0.192771,0.313253,0.032129,225.000000,201.000000,24.000000,39.000000,0.000000,0.000000,0.000000,0.000000,0.000000;
#CREDIT:;
#NOTES:
0000
0000
0000
0000
,
0000
0000
0000
0000
,
0000
0000
0000
0000
,
0000
0000
0000
0000
,
0000
0000
0000
0000
,
0000
0000
0000
0000
,
0000
0000
0000
0000
,
0000
0000
0000
0000
,
0000
0000
0000
0000
,
0100
0001
2000
0000
,
3000
0001
0010
0100
,
0002
0003
0010
0001
,
0100
1000
0100
0000
,
2000
3000
1000
0001
,
0200
0300
0100
0001
,
0010
0010
0100
0010
,
0000
0000
1001
0000
,
0010
1000
1100
0000
,
0100
0010
0011
0000
,
0100
0010
1000
0010
,
0002
0003
0110
0010
,
1000
0001
0011
0100
,
0010
0010
0100
0000
,
1001
0000
0010
0100
,
0110
0000
1000
0001
,
1000
1000
0010
0100
,
0001
0010
0002
0003
,
2000
3000
0010
0100
,
0200
0300
1000
0010
,
0100
0010
1000
0100
,
0001
0010
0200
0300
,
0002
0003
1000
0001
,
2002
3003
0010
0000
,
1000
0100
0100
0000
,
0001
1000
0001
0000
,
0101
0000
0010
1000
,
1100
0000
0020
0000
,
1030
0100
2000
0000
,
3001
0010
0002
0000
,
0103
0010
0100
1000
,
1000
0100
0020
0001
,
0030
0100
0010
0001
0020
0030
2000
3000
,
0200
0300
0110
0100
0002
0000
0100
0000
,
0003
0010
1000
0100
2000
3000
0002
0003
,
0202
0303
2200
3300
2002
0000
0000
0000
,
3003
0010
0010
0010
,
2001
3100
0001
0010
,
0001
0100
1000
0010
,
0200
0300
1000
1000
,
0100
0001
0020
0030
,
0210
0301
0010
1000
,
0001
0100
0010
0010
,
1000
0100
0010
0100
,
0001
0000
0011
0000
,
0200
0301
0010
0100
,
2000
3001
0010
0001
,
2002
3003
0100
0010
,
0010
0100
1000
0100
,
0002
0003
1000
0010
,
2000
3000
0100
0001
,
0020
0000
1000
0000
0100
0000
1000
0030
,
0100
0000
0001
0000
0011
0000
0001
0000
1000
0000
0001
0000
1000
0000
0000
0110
,
0000
0000
0000
0000
0000
0001
0000
0000
0000
1000
0000
0000
0000
0010
0000
0000
,
0000
1000
0000
0000
0000
1000
0000
0000
0000
0100
0000
0000
0000
0101
0000
0000
,
0000
0100
1001
0100
0010
1000
1000
1010
,
0100
0001
1000
0010
,
1000
0000
0000
1001
0000
0000
0000
0000
;
