#VERSION:0.83;
#TITLE:Tooku;
#SUBTITLE:;
#ARTIST:MAKI;
#TITLETRANSLIT:;
#SUBTITLETRANSLIT:;
#ARTISTTRANSLIT:;
#GENRE:;
#ORIGIN:;
#CREDIT:;
#BANNER:Tooku.png;
#BACKGROUND:Tooku-bg.png;
#PREVIEWVID:;
#JACKET:;
#CDIMAGE:;
#DISCIMAGE:;
#LYRICSPATH:;
#CDTITLE:;
#MUSIC:Tooku.ogg;
#OFFSET:-0.344691;
#SAMPLESTART:42.873001;
#SAMPLELENGTH:13.617023;
#SELECTABLE:YES;
#BPMS:0.000=141.000,
234.000=132.000,
235.000=126.000,
236.000=119.000;
#STOPS:;
#DELAYS:;
#WARPS:;
#TIMESIGNATURES:0.000=4=4;
#TICKCOUNTS:0.000=4;
#COMBOS:0.000=1;
#SPEEDS:0.000=1.000=0.000=0;
#SCROLLS:0.000=1.000;
#FAKES:;
#LABELS:0.000=Song Start;
#BGCHANGES:;
#KEYSOUNDS:;
#ATTACKS:
;

//---------------dance-single - ----------------
#NOTEDATA:;
#CHARTNAME:;
#STEPSTYPE:dance-single;
#DESCRIPTION:;
#CHARTSTYLE:;
#DIFFICULTY:Hard;
#METER:11;
#RADARVALUES:0.402454,0.499470,0.196133,0.454671,0.004458,316.000000,294.000000,22.000000,51.000000,0.000000,0.000000,0.000000,0.000000,0.000000,0.402454,0.499470,0.196133,0.454671,0.004458,316.000000,294.000000,22.000000,51.000000,0.000000,0.000000,0.000000,0.000000,0.000000;
#CREDIT:;
#NOTES:
0000
0000
0000
0000
,
0000
0000
0000
0000
,
0000
0000
0000
0000
,
0000
0000
0000
0000
,
0000
0000
0000
0000
0000
0000
1000
0002
,
0000
0000
1003
0020
0000
0000
1030
0200
,
0000
0000
0010
0000
0310
0000
0100
0020
,
0000
0000
0130
0002
0000
0000
0103
2000
,
0002
3003
0220
0330
,
0010
0000
1000
0000
0010
0100
0001
0000
,
1000
0100
0001
0010
0001
0000
0100
0001
,
0000
0000
0010
0001
0000
0000
0001
0001
,
0000
0000
0100
0010
0100
0000
1100
0000
,
1000
0000
0001
0000
1000
0010
0100
0000
,
0100
1000
0100
0010
1000
0000
0100
0010
,
0000
0000
1000
0010
0000
0001
0000
0020
,
0000
0000
0100
0000
0130
1000
0001
0000
,
1002
0000
0103
0000
1000
0000
0100
0010
,
0001
0100
0010
1000
0100
0000
1000
0010
,
1000
0000
0100
0001
0100
0000
0010
0001
,
0010
0100
1000
0000
0100
0010
0010
0000
,
0120
0000
1030
0000
0001
0100
0010
0000
,
0010
1000
0100
0001
0001
0010
1000
0000
,
0010
0001
0010
0000
0100
0001
0100
0000
,
0010
0100
1000
0100
0010
0000
0110
0000
,
0001
0100
0001
0010
2000
0000
3100
0000
,
0100
0010
0001
1000
0100
0000
0001
0000
,
0020
0000
0030
0100
0201
0000
0010
0000
,
0310
0000
2000
0000
3010
0001
0100
0000
,
1000
0010
0100
0001
0020
0000
1030
0000
,
0001
1000
0001
0010
0010
0000
1000
0000
,
0102
0000
0010
0000
0100
0000
1003
1000
,
0000
0010
0100
0010
0001
1000
1010
0000
,
0020
0000
0032
0000
0023
0100
0130
0000
,
2000
0000
3020
0000
2030
0001
3001
0000
,
0200
0010
0301
0000
0200
1000
0310
0000
,
2000
0100
0010
0100
3001
0000
0011
0000
,
0200
0000
0302
0000
0203
1000
1300
0000
,
0020
0000
0230
0000
0301
1000
0100
0010
,
2000
0000
0000
0200
0000
0000
3300
0000
,
0010
0001
0100
0010
0010
1000
0010
0000
,
1100
0000
0101
0000
0010
0001
0010
0000
,
0101
0000
0011
0000
1000
1000
0001
0002
,
0000
0000
0013
2000
0000
0000
3100
0002
,
0000
0000
1000
0000
1003
0000
0010
0200
,
0000
0000
0310
0002
0000
0000
0103
2000
,
0000
0000
0010
0010
3010
0000
0100
0001
,
0010
0000
0010
1000
0100
0000
0100
1000
,
0100
0001
0010
0001
0001
0000
0100
1000
,
0100
0000
0010
1000
0010
0000
0001
0100
,
0010
0100
0100
0000
1000
0001
1001
0000
,
0020
0000
2030
0000
3100
0010
0001
1000
,
0200
0000
0320
0000
0130
0001
1000
1000
,
0020
0000
0032
0000
0103
1000
0010
0100
,
2000
0000
3002
0000
0023
0100
0130
0000
,
0010
1000
0010
0100
0000
0100
0001
0010
,
0001
0000
1000
0100
0100
0001
1001
0000
,
0100
0001
0100
0010
0010
1000
0100
0001
,
1010
1100
0011
0110
,
1001
0000
0000
2002
0000
0000
0000
0000
0000
0000
0000
0000
0000
0000
0000
0000
,
0000
0000
0000
0000
,
0000
0000
0000
3003
,
0000
0110
0000
0000
;

//---------------dance-single - ----------------
#NOTEDATA:;
#CHARTNAME:;
#STEPSTYPE:dance-single;
#DESCRIPTION:;
#CHARTSTYLE:;
#DIFFICULTY:Medium;
#METER:8;
#RADARVALUES:0.362973,0.388476,0.089151,0.142642,0.004458,285.000000,275.000000,10.000000,16.000000,0.000000,0.000000,0.000000,0.000000,0.000000,0.362973,0.388476,0.089151,0.142642,0.004458,285.000000,275.000000,10.000000,16.000000,0.000000,0.000000,0.000000,0.000000,0.000000;
#CREDIT:;
#NOTES:
0000
0000
0000
0000
,
0000
0000
0000
0000
,
0000
0000
0000
0000
,
0000
0000
0000
0000
,
0000
0000
0000
0000
,
0001
0000
0100
0010
0000
0100
0010
0000
,
1000
0000
0010
1000
0000
0010
1000
0000
,
0100
0000
0001
0010
0000
0001
0010
0000
,
1000
0100
1000
0000
0010
0000
0110
0000
,
0020
1000
0100
0130
,
0001
0000
0001
1000
0100
0000
0010
1000
,
0100
0000
0100
0001
1000
0000
1000
0001
,
0100
0000
0001
1000
0000
0001
1000
0000
,
0200
1000
0010
0310
,
0100
0000
0100
1000
0001
0000
1000
0100
,
0010
0000
0010
0001
0100
0000
0100
0010
,
0001
0000
1000
0010
0001
0000
1001
0000
,
2000
0100
0001
3001
,
1000
0000
0001
0100
0001
0000
1000
0010
,
0100
0000
0001
0100
0010
0000
0100
0001
,
0010
0000
0010
1000
0000
1000
0100
0000
,
0020
0001
1000
1030
,
0100
0000
1000
0001
1000
0010
0001
0000
,
0100
0000
1000
0010
0100
0000
0001
0100
,
0001
0000
0010
0100
0010
0001
1000
0000
,
0010
0000
0001
0000
0001
0100
1000
0000
,
0001
0000
0010
0000
0010
1000
0100
0000
,
0002
1000
0103
0001
,
0010
0001
1000
0100
,
1000
0000
0001
0000
0001
0010
1000
0000
,
0001
0000
1000
0000
1000
0100
0010
0000
,
2000
0100
3001
0010
,
0001
1000
1000
0110
,
1000
0000
0001
0000
0001
1000
0100
0000
,
0010
0000
0100
0000
0100
0010
0001
0000
,
2000
0000
0100
0000
3100
0000
0001
0010
,
0001
0000
0010
0100
0010
0001
1000
0000
,
0100
0000
0001
0000
0001
0100
0010
0000
,
0100
0000
1000
0000
1000
0001
0010
0000
,
0001
0000
0100
0010
0000
0100
1000
0010
,
1000
0011
1100
1001
,
0010
0000
1000
0001
0000
0001
0100
0000
,
0010
0001
0100
0000
0100
0000
0011
0000
,
0100
0000
0001
1000
0000
0001
1000
0000
,
0010
0000
1000
0010
0000
1000
0010
0000
,
0001
0000
0010
0100
0000
0010
0100
0000
,
0001
1000
0001
0000
0010
0000
1010
0000
,
1000
0000
0001
0100
0001
0000
0010
1000
,
0100
0000
0100
0001
0000
1000
0010
0000
,
0001
0000
1000
0100
0000
0100
1000
0000
,
0001
0100
1000
0010
1000
0000
0101
0000
,
0100
0000
0100
0000
0010
0001
0010
0000
,
1000
0000
1000
0000
0100
0010
0100
0000
,
0200
0010
0001
0301
,
0002
0010
1000
1003
,
0010
0000
0010
0100
0010
0000
1000
0100
,
0001
0100
0001
0000
0010
1000
0010
0000
,
0002
1003
2000
3010
,
0020
0230
0302
2003
,
3100
0000
0000
0200
0000
0000
0000
0000
0000
0000
0000
0000
0000
0000
0000
0000
,
0000
0000
0000
0000
,
0000
0000
0000
0300
,
0000
1001
0000
0000
;

//---------------dance-single - ----------------
#NOTEDATA:;
#CHARTNAME:;
#STEPSTYPE:dance-single;
#DESCRIPTION:;
#CHARTSTYLE:;
#DIFFICULTY:Easy;
#METER:4;
#RADARVALUES:0.229246,0.249735,0.089151,0.347690,0.000000,180.000000,170.000000,10.000000,39.000000,0.000000,0.000000,0.000000,0.000000,0.000000,0.229246,0.249735,0.089151,0.347690,0.000000,180.000000,170.000000,10.000000,39.000000,0.000000,0.000000,0.000000,0.000000,0.000000;
#CREDIT:;
#NOTES:
0000
0000
0000
0000
,
0000
0000
0000
0000
,
0000
0000
0000
0000
,
0000
0000
0000
0000
,
0000
0000
0000
0000
,
0020
0030
1000
0100
,
0200
0300
1000
0001
,
0002
0003
0010
0001
,
0100
0000
1001
0000
,
0200
0300
1000
0010
,
0001
0010
0010
0000
,
0002
0003
0200
0300
,
0010
1000
2000
3000
,
0110
0000
0100
1000
,
0010
0001
0001
0000
,
2000
3000
0010
1000
,
0010
0100
0100
0000
,
0001
0100
0002
0003
,
0010
0001
0020
0030
,
0100
1000
0010
0001
,
0001
0100
2000
3000
,
0010
1000
0010
0010
,
0100
1000
0001
0001
,
0100
0001
0100
0010
,
0020
0030
2002
3003
,
0100
0001
0002
0003
,
0010
1000
0001
1000
,
2000
3000
2002
0000
,
3003
0010
0100
0100
,
0010
1000
0020
0030
,
0001
0100
1000
0100
,
0200
0300
0020
0030
,
1000
0001
2000
3000
,
0010
0001
0010
0100
,
1000
0010
1000
0001
,
0020
0030
0220
0000
,
0330
0001
1000
1000
,
0010
0001
0020
0030
,
1000
0001
2000
3000
,
0100
0010
0100
0001
,
0001
0000
0110
0000
,
0100
1000
0200
0300
,
0010
0001
1000
0001
,
0002
0003
0020
0030
,
0010
0100
0200
0300
,
1000
0001
1000
0010
,
0001
1000
2000
3000
,
1001
0000
0100
0010
,
0100
0001
0001
0000
,
0100
0000
1000
0100
,
0010
0000
0220
0330
,
1000
0001
1000
1000
,
0010
0001
0010
0010
,
0200
0300
0010
0001
,
0001
1000
0100
0000
,
0001
0010
0001
0001
,
0100
0010
0100
0100
,
0010
0100
0001
1000
,
0200
0300
0002
0003
,
0220
0000
0000
0000
,
0000
0000
0000
0000
,
0000
0000
0000
0330
,
0000
1001
0000
0000
;

//---------------dance-single - ----------------
#NOTEDATA:;
#CHARTNAME:;
#STEPSTYPE:dance-single;
#DESCRIPTION:;
#CHARTSTYLE:;
#DIFFICULTY:Beginner;
#METER:1;
#RADARVALUES:0.090425,0.131498,0.026745,0.000000,0.000000,71.000000,68.000000,3.000000,0.000000,0.000000,0.000000,0.000000,0.000000,0.000000,0.090425,0.131498,0.026745,0.000000,0.000000,71.000000,68.000000,3.000000,0.000000,0.000000,0.000000,0.000000,0.000000,0.000000;
#CREDIT:;
#NOTES:
// measure 0
0000
0000
0000
0000
,  // measure 1
0000
0000
0000
0000
,  // measure 2
0000
0000
0000
0000
,  // measure 3
0000
0000
0000
0000
,  // measure 4
0000
0000
0000
0000
,  // measure 5
1000
0000
0000
0000
,  // measure 6
1000
0000
0000
0000
,  // measure 7
0001
0000
0000
0000
,  // measure 8
0001
0000
0000
0000
,  // measure 9
1001
0000
0000
0000
,  // measure 10
1000
0000
0000
0000
,  // measure 11
1000
0000
0000
0000
,  // measure 12
1000
0000
0000
0000
,  // measure 13
0110
0000
0000
0000
,  // measure 14
0100
0000
0000
0000
,  // measure 15
0100
0000
0000
0000
,  // measure 16
0100
0000
0000
0000
,  // measure 17
0001
0000
0000
0000
,  // measure 18
0001
0000
0000
0000
,  // measure 19
1000
0000
0000
0000
,  // measure 20
1000
0000
0000
0000
,  // measure 21
0010
0000
0000
0000
,  // measure 22
0010
0000
0000
0000
,  // measure 23
0100
0000
0000
0000
,  // measure 24
0100
0000
0000
0000
,  // measure 25
0001
0000
0001
0000
,  // measure 26
0001
0000
0000
0000
,  // measure 27
1000
0000
1000
0000
,  // measure 28
1000
0000
0000
0000
,  // measure 29
0100
0000
0100
0000
,  // measure 30
0100
0000
0000
0000
,  // measure 31
0010
0000
0010
0000
,  // measure 32
0010
0000
0000
0000
,  // measure 33
1000
0000
1000
0000
,  // measure 34
1000
0000
0000
0000
,  // measure 35
0010
0000
0010
0000
,  // measure 36
0010
0000
0000
0000
,  // measure 37
0100
0000
0100
0000
,  // measure 38
0100
0000
0000
0000
,  // measure 39
0001
0000
0001
0000
,  // measure 40
0001
0000
0000
0000
,  // measure 41
0010
0000
0010
0000
,  // measure 42
0010
0000
0000
0000
,  // measure 43
1000
0000
0000
0000
,  // measure 44
0001
0000
0000
0000
,  // measure 45
0010
0000
0000
0000
,  // measure 46
0100
0000
0000
0000
,  // measure 47
1000
0000
0000
0000
,  // measure 48
0010
0000
0000
0000
,  // measure 49
0001
0000
0000
0000
,  // measure 50
0100
0000
0000
0000
,  // measure 51
0001
0000
0001
0000
,  // measure 52
0001
0000
0000
0000
,  // measure 53
1000
0000
1000
0000
,  // measure 54
1000
0000
0000
0000
,  // measure 55
0010
0000
0010
0000
,  // measure 56
0010
0000
0000
0000
,  // measure 57
0100
0000
0100
0000
,  // measure 58
0100
0000
0000
0000
,  // measure 59
1001
0000
0000
0000
;
