#TITLE:Throat;
#SUBTITLE:;
#ARTIST:Hommarju add. YUNRO;
#TITLETRANSLIT:;
#SUBTITLETRANSLIT:;
#ARTISTTRANSLIT:;
#GENRE:;
#CREDIT:;
#BANNER:Throat.png;
#BACKGROUND:Throat-bg.png;
#LYRICSPATH:;
#CDTITLE:;
#MUSIC:Throat.mp3;
#OFFSET:-0.571000;
#SAMPLESTART:90.078003;
#SAMPLELENGTH:12.800000;
#SELECTABLE:YES;
#BPMS:0.000000=150.000000
;
#STOPS:160.500000=1.000000,
166.000000=1.000000
;
#BGCHANGES:;
#KEYSOUNDS:;
#ATTACKS:;

//---------------dance-single - ----------------
#NOTES:
     dance-single:
     :
     Beginner:
     3:
     0.140316,0.175189,0.082539,0.107301,0.000000,119.000000,109.000000,10.000000,13.000000,0.000000,0.000000,0.140316,0.175189,0.082539,0.107301,0.000000,119.000000,109.000000,10.000000,13.000000,0.000000,0.000000:
0000
0000
0000
0000
,
0000
0000
0000
0000
,
0000
0000
0000
0000
,
0000
0000
0000
0000
,
1001
0000
0000
0000
,
1000
0000
1000
0000
,
0110
0000
0000
0000
,
0010
0000
0010
0000
,
0100
0000
0100
0000
,
0010
0000
0100
0000
,
0001
0000
0001
0000
,
1000
0000
0001
0000
,
0010
0000
0010
0000
,
0100
0000
0010
0000
,
1000
0000
1000
0000
,
0001
0000
1000
0000
,
1001
0000
0000
0000
,
0001
0000
0000
0000
,
1000
0000
0000
0000
,
1000
0000
0000
0000
,
0110
0000
0000
0000
,
0010
0000
0000
0000
,
0100
0000
0000
0000
,
0100
0000
0000
0000
,
2000
0000
3000
0000
,
0001
0000
1000
0000
,
0002
0000
0003
0000
,
0010
0000
0100
0000
,
0020
0000
0030
0000
,
0100
0000
0001
0000
,
0200
0000
0300
0000
,
2002
0000
3003
0000
,
0010
0000
0010
0000
,
0100
0000
0100
0000
,
0010
0000
1000
0000
,
0010
0000
0001
0000
,
1000
0000
1000
0000
,
0001
0000
0001
0000
,
1000
0000
0010
0000
,
1000
0000
0100
0000
,
0110
0000
0000
0000
,
0000
0000
0000
1001
0000
0000
0000
0000
,
0000
0000
0000
0020
,
0000
0030
0000
0100
,
0000
0100
0000
0200
,
0000
0300
0000
0002
,
0000
0003
0000
1000
,
0000
1000
0000
0001
,
0000
0001
0000
0100
,
0000
0010
0000
1000
,
0000
0001
0000
0100
,
0000
0100
0000
0010
,
0000
0010
0000
1000
,
0000
0001
0000
0100
,
0000
0010
0000
1001
,
0000
0001
0000
1000
,
0000
0001
0000
0010
,
0000
0100
0000
0020
,
0000
0030
0000
0100
,
0000
0100
0000
0001
,
0000
0001
0000
0200
,
0000
0300
0000
0200
,
0000
0300
0000
0110
,
0000
0010
0000
1000
,
0000
0010
0000
1000
,
0000
0001
0000
2000
,
0000
3000
0000
0001
,
0000
0001
0000
1000
,
0000
1000
0000
0010
,
0000
0010
0000
0100
,
0000
0100
0000
1001
;

//---------------dance-single - ----------------
#NOTES:
     dance-single:
     :
     Easy:
     5:
     0.229930,0.291981,0.066031,0.074285,0.000000,195.000000,187.000000,8.000000,9.000000,0.000000,0.000000,0.229930,0.291981,0.066031,0.074285,0.000000,195.000000,187.000000,8.000000,9.000000,0.000000,0.000000:
0000
0000
0000
0000
,
0000
0000
0000
0000
,
0000
0000
0000
0000
,
0000
0000
0000
0000
,
0020
0000
0100
0000
,
0130
1000
0001
0010
,
2000
0000
0001
0000
,
3001
0010
0100
0010
,
0110
0000
1000
0001
,
0000
0001
0010
0001
,
0000
1000
0100
1000
,
0000
0010
0100
0010
,
0000
0100
1000
0100
,
0000
0010
1000
0010
,
0000
0100
0001
0100
,
0000
1000
0010
1000
,
1001
0000
0001
0000
,
0010
1000
0010
0000
,
0100
0000
0001
0000
,
0010
0001
0010
0000
,
1000
0000
0100
0000
,
0010
1000
0010
0000
,
0001
0000
0100
0000
,
0010
0100
0010
0000
,
1001
0000
0100
0000
,
0010
0001
0010
0000
,
1000
0000
0001
0000
,
0100
1000
0100
0000
,
0001
0000
0100
0000
,
0010
0001
0010
0000
,
1000
0000
1000
0000
,
0001
1000
0001
0000
,
0200
0000
0010
0300
,
0010
1000
0010
0000
,
0100
0100
0001
1000
,
0001
0010
0100
0000
,
2000
0000
0001
3000
,
0001
0100
0001
0000
,
0010
0010
0100
0100
,
1000
0001
0010
1000
,
1001
0000
0000
0001
0000
0000
0000
1000
,
0000
0000
0000
0110
0000
0000
0010
0000
,
0000
0100
0000
0020
,
0000
0000
0000
1000
,
0000
1000
0030
0110
,
0000
0000
0000
0100
,
0100
0100
0000
0010
,
0001
1000
0000
0001
,
1000
0100
0000
1000
,
0010
0100
0001
0100
,
0010
1000
0000
0002
,
0000
0100
0000
0103
,
0010
1000
0000
0010
,
0010
0100
0100
0010
,
1000
0001
0100
0110
,
0000
0010
0000
1000
,
0100
1000
0000
0001
,
0100
1000
0100
0020
,
0000
0030
0000
1000
,
1000
0001
0001
1000
,
0010
0100
0010
2000
,
0000
0010
3000
0100
,
0010
0001
0000
1000
,
1000
0100
0000
0010
,
0001
0100
0000
0010
,
1000
0001
0010
2000
,
0000
0000
3000
0001
,
0000
1000
0000
0010
,
0000
0100
0000
0001
,
0001
1000
1000
0010
,
0001
0100
1000
1001
;

//---------------dance-single - ----------------
#NOTES:
     dance-single:
     :
     Medium:
     8:
     0.338409,0.379576,0.123808,0.140316,0.004127,287.000000,272.000000,15.000000,17.000000,0.000000,0.000000,0.338409,0.379576,0.123808,0.140316,0.004127,287.000000,272.000000,15.000000,17.000000,0.000000,0.000000:
0000
0000
0000
0000
,
0000
0000
0000
0000
,
0000
0000
0000
0000
,
0000
0000
0000
0000
,
0120
0000
0130
1000
,
0100
0001
0010
0100
,
1200
0000
1300
0010
,
0100
0010
0001
1000
,
1001
0000
0001
0000
0010
0000
1000
0010
,
0000
0100
0000
0010
1000
0000
0001
0000
,
0100
0000
0010
0000
1000
0000
0001
1000
,
0000
0010
0000
1000
0100
0000
1000
0000
,
0010
0000
0100
0000
1000
0000
0010
0100
,
0000
0001
0000
0100
0010
0000
1000
0000
,
0100
0000
0001
0000
0010
0000
1000
0100
,
0000
1000
0000
0001
0010
0000
1000
0000
,
2010
0000
3001
0100
,
0010
0000
0100
0001
0000
1000
0000
0000
,
0000
0000
0001
0000
1000
0000
0001
0200
,
0000
0010
0010
1000
,
0310
1000
0100
0001
,
0100
0000
0010
0001
0000
1000
0000
0000
,
0000
0000
0100
0000
0001
0000
0010
0002
,
0000
1000
1000
0103
,
0110
0000
0010
0000
0001
0000
0100
1000
,
0100
0000
1000
0001
0000
0010
0000
0000
,
0000
0000
1000
0000
0001
0000
0100
0020
,
0000
0001
0001
1000
,
0031
0000
0100
0000
0010
0000
1000
0010
,
1000
0000
0100
0001
0000
1000
0000
0000
,
0010
0010
0100
0100
,
0010
0001
0100
1000
,
2002
3003
0001
0100
,
0010
0100
0000
0100
0001
0000
1000
0000
,
0100
0000
1000
0000
0010
0100
0010
0000
,
1000
0100
0010
0001
,
0101
0000
0000
0000
1000
0000
0000
0001
0000
0000
1000
0000
0010
0000
0000
0000
,
0100
0010
0000
0010
1000
0100
1000
0000
,
0001
0000
0100
0010
0000
1000
0100
0000
,
1000
0001
0010
0100
,
1100
0000
0000
0010
0000
1000
0010
1000
,
0000
0100
0000
0101
0000
0000
1000
0001
,
1000
0000
0010
0100
0010
0000
1010
0000
,
0200
0000
0000
1300
,
0010
0000
0001
0000
0100
0000
0011
0001
,
0000
0000
0000
0000
0000
0000
0010
1000
,
0100
0000
0010
0001
0100
0000
0220
0000
,
0330
1000
0001
1000
,
0100
0010
1000
0020
,
0031
0100
1000
0001
,
1000
0010
0100
2000
,
0001
3001
0100
0010
,
0100
1000
0100
0001
,
0001
1000
1000
0010
,
0100
0000
0010
1000
1010
0000
0100
0000
,
0001
0000
0100
0010
0000
1000
0000
0001
,
0000
1000
0100
0000
0001
0000
1000
0000
,
1000
0000
0010
1000
0000
0020
0000
0000
,
0100
0000
0130
1000
,
1000
0100
0100
0010
,
1000
0010
0001
2002
,
3000
0100
0100
1000
,
0010
1000
0103
0001
,
0100
0000
0010
0100
0000
1000
0000
0001
,
0000
1000
0100
0000
0010
0000
0100
0000
,
0001
0000
1000
0010
0000
2000
0000
0000
,
0100
0000
3100
0010
,
0010
0100
0100
1000
,
1000
0001
0001
0010
,
0100
0001
0100
1000
,
0010
0100
0001
1001
;

//---------------dance-single - ----------------
#NOTES:
     dance-single:
     :
     Hard:
     12:
     0.518816,0.670964,0.297140,0.173332,0.115554,440.000000,404.000000,36.000000,21.000000,0.000000,0.000000,0.518816,0.670964,0.297140,0.173332,0.115554,440.000000,404.000000,36.000000,21.000000,0.000000,0.000000:
// measure 0
0000
0000
0000
0000
,  // measure 1
0000
0000
0000
0000
,  // measure 2
0000
0000
0000
0000
,  // measure 3
0000
0000
0000
0000
,  // measure 4
0100
0201
0000
0000
0301
1000
0100
1000
,  // measure 5
0010
0100
0001
0010
0100
1000
0010
1000
,  // measure 6
0001
1002
0000
0000
0103
0010
1000
0010
,  // measure 7
0100
0100
0001
0001
1000
0100
0010
0001
,  // measure 8
1001
0000
0010
0100
0001
1000
0010
0100
,  // measure 9
0000
0010
0000
0010
1000
0010
0100
0001
,  // measure 10
0000
1000
0010
1000
0001
0100
0010
1000
,  // measure 11
0000
0001
0000
0001
1000
0010
0100
0001
,  // measure 12
0000
0100
0010
0100
0001
1000
0100
0010
,  // measure 13
0000
0100
0000
0100
1000
0001
1000
0100
,  // measure 14
0000
0010
0001
1000
0001
0100
0010
1000
,  // measure 15
0000
0001
0000
0001
1000
0001
0010
0100
,  // measure 16
0000
1000
0100
0000
1000
0000
0010
0100
,  // measure 17
0010
0000
1000
0001
0000
0020
0000
0030
,  // measure 18
0000
0001
0010
0001
0100
0000
0010
2000
,  // measure 19
0000
3100
0010
0001
0010
0001
1000
0010
,  // measure 20
0000
0100
0010
0000
1000
1000
0010
0100
,  // measure 21
0001
0000
0100
0001
0000
2000
0000
3000
,  // measure 22
0000
0001
0100
0001
0010
0010
0001
0200
,  // measure 23
0000
0000
0310
0000
1000
0100
1000
0000
0010
0000
0220
0000
0000
0000
0330
0000
,  // measure 24
1000
0001
0010
0000
0001
0100
0001
1000
,  // measure 25
0010
0000
0100
0001
0000
0020
0000
0030
,  // measure 26
0000
0100
0010
0000
0001
1000
0001
0200
,  // measure 27
0000
0000
0301
0000
0000
0001
0000
0010
0001
0000
0100
0000
0010
0000
1000
0000
,  // measure 28
0000
0100
0010
0000
0100
1000
0010
1000
,  // measure 29
0001
0000
0100
0010
0000
2000
0000
3000
,  // measure 30
0100
0000
0000
1100
0000
0000
1000
0000
,  // measure 31
0000
1001
0000
0000
0010
0000
0011
0000
,  // measure 32
0210
0000
1300
0010
1000
0001
0100
0010
,  // measure 33
1000
0000
1010
0000
0000
0100
0000
0000
0100
0000
0010
0000
1000
0000
0001
0000
,  // measure 34
1000
0000
0000
0010
0000
0100
0000
0010
0000
1000
0000
1000
0001
0000
0100
0000
,  // measure 35
0010
0110
0000
1000
0100
1000
0010
0001
,  // measure 36
0011
0000
0000
0000
0100
0001
0000
0100
0000
0010
0100
0000
1000
0000
0100
0000
,  // measure 37
1000
0000
1001
0000
0000
0001
0000
0000
0001
0000
0010
0000
0100
0010
0000
0000
,  // measure 38
1000
0000
0000
0010
0000
0000
0100
0000
0000
0001
0000
0000
1000
0100
0000
0000
,  // measure 39
0010
0100
0010
0001
1000
0010
0100
0001
,  // measure 40
0100
0000
0110
0000
1000
0000
1000
0010
0000
0000
0100
0000
0001
1000
0000
0000
,  // measure 41
0010
0000
1000
0100
1000
0000
0001
0000
1001
0000
0100
0000
0100
0000
0100
0000
,  // measure 42
0110
0000
0010
0000
0010
0000
1010
0000
1000
0001
1000
0000
0100
0000
0101
0000
,  // measure 43
0002
0000
0000
0000
0000
0003
1000
0010
,  // measure 44
0100
0001
1000
0100
1000
0100
0010
0220
,  // measure 45
0330
0000
0000
0000
0000
1000
1000
1000
,  // measure 46
1001
0000
0001
0000
0001
0000
0011
0000
0010
0100
0010
0000
2000
0000
0000
0000
,  // measure 47
3010
0000
0100
0001
0100
0000
0010
0000
,  // measure 48
1000
0100
1000
0001
0100
0000
0002
1000
,  // measure 49
0003
0000
1000
0010
1000
0000
0001
0100
,  // measure 50
0001
0000
0010
0000
0100
0000
0001
0000
1000
0000
0000
0000
0020
0000
0000
0100
,  // measure 51
0000
0100
0030
0001
1000
0010
0100
0001
,  // measure 52
0010
0100
1000
0100
1000
0000
0100
0100
,  // measure 53
0001
0000
0001
0000
1000
0000
1000
0000
0010
0000
0010
0000
0100
0010
0100
0000
,  // measure 54
0001
0100
0001
0000
1000
0001
1000
0001
1000
0000
0000
0000
1010
0000
0000
0000
,  // measure 55
0100
0001
0100
0010
0000
1000
0000
1000
,  // measure 56
0010
0100
0010
0000
1000
0000
0110
0000
,  // measure 57
1000
0000
0001
0100
0000
0020
0000
0000
,  // measure 58
0130
0000
0000
0010
0010
0000
1000
0000
,  // measure 59
1001
0000
0010
0000
1010
0000
1000
0100
,  // measure 60
1000
0001
0000
1000
0000
0201
0000
0000
,  // measure 61
0310
0000
1000
0000
0100
0000
1000
0001
,  // measure 62
0010
0001
0010
0100
0100
0000
0011
0001
,  // measure 63
0100
0000
0010
1000
0000
0010
0000
0110
,  // measure 64
0000
0010
1000
0000
1001
0000
0001
0001
,  // measure 65
0100
0000
0010
1000
0000
0200
0000
0000
,  // measure 66
1300
0000
0000
0100
0100
0000
0010
0000
,  // measure 67
0000
0110
0000
0000
0100
0000
0000
1100
,  // measure 68
0000
0000
1001
0000
0100
0101
0000
0010
,  // measure 69
0011
0000
1000
1010
0000
0100
0110
0010
,  // measure 70
0001
0000
1001
0000
1000
0000
0001
0000
0010
0000
1000
0010
0000
0000
0000
0000
;
