#TITLE:The Sky of Sadness;
#SUBTITLE:-vastitude remix-;
#ARTIST:PHQUASE;
#TITLETRANSLIT:;
#SUBTITLETRANSLIT:;
#ARTISTTRANSLIT:;
#GENRE:;
#CREDIT:;
#BANNER:The Sky of Sadness -vastitude remix-.png;
#BACKGROUND:The Sky of Sadness -vastitude remix--bg.png;
#LYRICSPATH:;
#CDTITLE:;
#MUSIC:The Sky of Sadness -vastitude remix-.mp3;
#OFFSET:0.708354;
#SAMPLESTART:86.859940;
#SAMPLELENGTH:15.000000;
#SELECTABLE:YES;
#BPMS:0.000000=160.000000
,4.000000=80.000000
,28.000000=160.000000
,88.000000=80.000000
,93.750000=160.000000
,152.000000=53.333000
,160.000000=80.000000
,172.000000=160.000000
;
#STOPS:93.750000=1.950000,
268.000000=0.900000
;
#BGCHANGES:;
#KEYSOUNDS:;
#ATTACKS:;

//---------------dance-single - ----------------
#NOTES:
     dance-single:
     :
     Hard:
     14:
     0.664139,0.942201,0.388037,0.343263,0.582055,623.000000,571.000000,52.000000,46.000000,0.000000,0.000000,0.664139,0.942201,0.388037,0.343263,0.582055,623.000000,571.000000,52.000000,46.000000,0.000000,0.000000:
// measure 0
0000
0000
0000
0000
,  // measure 1
2000
0000
0000
0000
0000
0000
3010
0000
0000
0100
0001
0000
0020
0000
0000
0000
,  // measure 2
0030
0000
2000
0000
0000
0000
3000
0000
0001
0000
0000
0010
0000
0000
0001
0000
,  // measure 3
0000
0100
0010
0000
2000
0000
0000
0000
3000
0000
0200
0000
0000
0010
0301
0010
,  // measure 4
0200
0000
0000
1000
0000
0000
0010
0000
0001
0000
1000
0300
0002
0000
0000
0010
,  // measure 5
0000
0000
0100
0000
1000
0000
0013
0000
0100
0000
1000
0010
1000
0000
0010
0000
,  // measure 6
0001
0000
0000
1000
0000
0000
0001
0000
0000
0000
0000
0000
1000
0000
0000
0010
0000
0000
0001
0000
0000
0100
0000
0000
0010
0000
0000
1000
0000
0000
0100
0000
0010
0000
1000
0000
0010
0000
0100
0000
0001
0000
1000
0000
0000
0001
0000
0000
,  // measure 7
0020
0000
1030
0100
1000
0000
0002
0000
,  // measure 8
0103
1000
0100
0000
2000
0000
3100
0010
,  // measure 9
0100
0000
0200
0010
0301
0010
0100
0000
,  // measure 10
1000
0010
0100
0010
0001
0000
0100
1000
,  // measure 11
0100
0010
0100
0000
0001
0010
1000
0100
,  // measure 12
1000
0001
0100
0100
0001
1000
0110
0000
,  // measure 13
0010
1000
0000
0100
0000
0100
0000
0010
1000
0000
0010
0000
1000
0001
0000
1000
,  // measure 14
0000
1000
0000
0100
0010
0000
0100
0000
0001
0010
0000
1000
0000
0010
0000
0100
,  // measure 15
1000
0000
0010
0000
0100
0010
0000
0010
0000
0001
0000
1000
0010
0000
1000
0000
,  // measure 16
0010
0000
0000
0000
1100
0000
0000
0101
0000
0000
1000
0000
1000
0000
0000
0000
,  // measure 17
0110
0000
0000
1010
0000
0000
0001
0000
0001
0000
0010
0000
0100
0000
0010
0000
,  // measure 18
0100
0000
0000
1000
0000
0000
1000
0000
0100
0000
0010
0000
0100
0000
1000
0000
0100
0000
0001
0000
0010
0000
1000
0000
,  // measure 19
0100
0000
0000
0220
0000
0000
0000
0000
0000
0000
0030
0000
0001
0000
0000
0000
,  // measure 20
1000
0000
0310
0001
2002
0000
0000
0000
,  // measure 21
0003
0000
0000
0000
0100
0000
0010
0000
3100
0000
0001
1000
0001
0010
0000
0000
,  // measure 22
0011
0000
0000
0010
0000
0100
0000
0010
1000
0000
0000
0000
0011
0000
0000
0001
0000
0100
0000
0010
0100
0000
0000
0000
0101
0000
0000
1000
0000
0010
0000
0100
,  // measure 23
1000
0000
0010
0000
1100
0000
1000
0000
0010
0000
0010
0001
1000
0001
0100
0000
0020
0000
0000
0000
0000
0000
0000
0000
0000
0000
0000
0000
0000
0000
0000
0000
,  // measure 24
1030
0000
0100
0000
0100
0000
0001
0000
0010
0000
0010
0000
0100
0001
0100
0001
,  // measure 25
0010
0000
1000
0000
0010
0000
1000
0000
0001
0010
0001
0010
1000
0000
0100
0000
,  // measure 26
1100
0000
0010
1000
0010
0000
0100
0000
1000
0010
1000
0100
0001
0000
0100
0000
,  // measure 27
0101
0010
1000
0100
0001
1000
1000
0010
,  // measure 28
0100
0000
0100
0000
0001
0010
0100
0010
1000
0000
0100
0000
0001
0000
0010
0000
,  // measure 29
0100
1000
0100
0010
0100
0000
0010
0000
0110
0000
1000
0100
1000
0000
1000
0000
,  // measure 30
0010
0100
0010
0001
0020
0000
0001
0000
0031
0000
0100
0000
1100
0000
0010
0000
,  // measure 31
0001
0000
0100
0000
0101
0000
0010
0000
1000
0000
0100
0000
1000
0100
0010
0100
,  // measure 32
0001
0000
0100
0000
1000
0000
0100
0000
0010
0001
0100
0001
1000
0000
1010
0000
,  // measure 33
1100
0000
0100
0000
0110
0000
0001
1000
0001
0010
0100
1000
0001
0000
1000
0000
,  // measure 34
0001
0010
1010
1000
0100
0001
0001
0010
,  // measure 35
0001
0000
0001
0000
0100
1000
0100
0010
1000
0000
0100
0000
0010
0000
0100
0000
,  // measure 36
0010
1000
0100
1000
0001
0000
0100
0000
0101
0000
0010
0000
0100
0000
1000
0010
,  // measure 37
0100
0010
0100
0001
2000
0000
0010
0000
0010
0000
0001
0000
3100
0000
0001
0000
,  // measure 38
0020
0000
0000
0000
0130
1000
0200
0000
0000
0000
1300
0001
2000
0000
0000
0000
3010
0100
0020
0000
0000
0000
0030
0000
,  // measure 39
2002
0000
0000
0000
3000
0000
0000
0000
0103
0000
0010
0000
0220
0000
0000
0000
0030
0000
0000
0000
0301
0000
0010
0000
0022
0000
0000
0000
0003
0000
0000
0000
1030
0000
0100
0000
1000
0000
0000
0001
0000
0000
0100
0000
0000
0010
0000
0000
,  // measure 40
2000
0000
0001
0000
3001
0010
0200
0000
1000
0000
1300
0001
0020
0000
0100
0000
,  // measure 41
0130
0001
2000
0000
0001
0000
3001
0000
0110
0000
0100
0001
0010
0100
1000
0100
,  // measure 42
1000
0000
0001
0000
0010
0000
0100
0000
0010
0001
0010
0000
0100
0010
0100
0000
1000
0001
1000
0000
1000
0100
1000
0001
0100
0000
0010
0100
0001
1000
0001
0000
,  // measure 43
0010
1000
0100
0001
0010
0001
0001
0100
,  // measure 44
0010
0000
1000
0001
0100
0000
0100
0000
1000
0000
0001
0000
1000
0000
0010
0000
,  // measure 45
0100
0000
1000
0000
1000
0000
0100
0000
0010
0000
0001
1000
0010
0000
0010
0000
,  // measure 46
2002
0000
3003
0010
0100
1000
2200
0000
,  // measure 47
3300
0001
0010
0001
0202
0000
0303
0000
,  // measure 48
0010
0000
1000
0000
0101
0000
0000
0011
0000
0000
1010
0000
0000
1001
0000
0000
,  // measure 49
0010
1000
0000
1000
0010
0000
0100
0001
0100
0000
0010
0000
0001
0010
0000
0010
,  // measure 50
0100
0000
1000
0100
1000
0000
0001
0000
0100
0001
0000
0100
0001
0000
0010
0100
,  // measure 51
0010
0000
1000
0000
0100
0000
0010
0000
1000
0000
0001
0010
0001
0100
0010
0000
,  // measure 52
2200
0000
0000
0000
3300
0000
0001
0000
1000
0000
0010
0000
1010
0000
0000
1100
,  // measure 53
0000
0000
1001
0000
0000
0101
0000
0000
0022
0000
0000
0000
0000
0000
0000
0000
,  // measure 54
0033
0000
1000
0001
1000
0000
0000
0010
0000
0000
1100
0000
0000
0000
0010
0001
,  // measure 55
0020
1000
0100
0031
,  // measure 56
1000
0100
0001
0100
0010
0000
0001
0010
,  // measure 57
0001
0100
1000
0100
1000
0010
1000
0100
,  // measure 58
0001
0100
0001
0000
0010
0000
0100
0000
1010
0000
0000
0000
1000
0010
1000
0000
,  // measure 59
0100
0000
1000
0000
1001
0000
0000
0000
0100
0000
0010
0000
0100
0000
0001
0010
,  // measure 60
0100
0010
1000
0000
0101
0000
0000
0011
0000
0000
0110
0000
0000
1001
0000
0000
,  // measure 61
0001
1000
0010
1000
0100
0100
0010
0100
,  // measure 62
1000
0000
0010
0000
0001
0000
0001
0000
1000
0000
0010
1000
0010
0000
0001
0000
,  // measure 63
0100
0000
1000
0000
0010
0000
0010
0000
0100
0000
0001
1000
0001
0000
1000
0000
,  // measure 64
0010
1000
0100
0010
0101
0000
0001
0010
,  // measure 65
1000
0000
0001
0000
1010
0000
0000
0000
0100
0000
0001
0000
1000
0000
0100
0010
,  // measure 66
0100
0000
0001
0000
1001
0000
0000
1010
0000
0000
0101
0000
0000
1100
0000
0000
,  // measure 67
0220
0000
0330
0000
0000
0000
0000
0000
0000
0000
0000
0000
0000
0000
0000
0000
0000
0000
0000
0000
0000
0000
0000
0000
0001
0000
0000
0000
0000
0000
0000
0000
0000
0000
0000
0000
1000
0000
0000
0000
0000
0000
0000
0000
0000
0000
0000
0000
0100
0000
0000
0000
0000
0000
0000
0000
0000
0000
0000
0000
1000
0000
0000
0000
0000
0000
0000
0000
0000
0000
0000
0000
0010
0000
0000
0000
0000
0000
0000
0000
0000
0000
0000
0000
0100
0000
0000
0000
0000
0000
0000
0000
0000
0000
0000
0000
0002
0000
0000
0000
0000
0000
0000
0000
0000
0000
0000
0000
0000
0000
0000
0000
0000
0000
0000
0000
0000
0000
0000
0000
0000
0000
0000
0000
0000
0000
0000
0000
0000
0000
0000
0000
0000
0000
0000
0000
0000
0000
0000
0000
0000
0000
0000
0000
0000
0000
0000
0000
0000
0000
0000
0000
0000
0000
0000
0000
0000
0000
0000
0000
0000
0000
0000
0000
0000
0000
0000
0000
0000
0000
0000
0000
0000
0000
0000
0000
0000
0000
0000
0000
0000
0000
0000
0000
0000
0000
0000
0000
0000
0000
0000
0000
,  // measure 68
0000
0003
0000
0000
;

//---------------dance-single - ----------------
#NOTES:
     dance-single:
     :
     Medium:
     11:
     0.447735,0.579256,0.179094,0.313414,0.082085,420.000000,396.000000,24.000000,42.000000,0.000000,0.000000,0.447735,0.579256,0.179094,0.313414,0.082085,420.000000,396.000000,24.000000,42.000000,0.000000,0.000000:
0000
0000
0000
0000
,
0002
0000
0000
2003
0000
0000
3002
0000
,
0000
0020
0000
0033
2000
0000
0000
3200
,
0000
0000
0320
0000
0000
2000
0000
3030
,
0200
0000
0310
0020
0000
0130
0200
0000
,
1300
2000
0001
3010
0020
0001
0031
0200
,
0010
0000
0310
0000
2000
0000
0010
0000
3001
0000
0100
1000
0010
0001
0100
0000
,
0001
0000
1000
0000
0010
0100
0010
0000
,
1000
0000
0100
1000
0100
0000
0001
0000
,
0010
1000
0010
0000
0001
0000
0100
0001
,
1000
0000
1010
0000
0010
0100
0010
0000
,
0110
0000
0001
0010
0001
0000
0101
0000
,
0010
0100
1000
0000
1010
0000
0010
0001
,
0100
0000
0010
1000
0100
1000
0010
0000
,
0100
0001
1000
0001
0100
0000
0001
0010
,
0100
0010
0001
0000
1000
0100
0010
0001
,
0020
0000
0000
0000
0130
0000
0000
1000
0000
0000
0100
0000
2000
0000
0000
0000
,
3001
0000
0000
0010
0000
0000
0001
0000
0020
0000
0000
0000
1000
0000
0000
0000
,
1030
0000
0001
1000
0010
1000
0001
0000
,
0220
0000
0030
0010
,
0001
0301
2002
0000
,
3000
0000
1000
0000
0100
1000
1003
0000
,
0010
0000
0001
0100
0001
0000
1000
0000
0100
0010
0100
0000
0010
0000
1000
0010
,
1000
0000
0001
1000
0100
0010
0100
0000
2000
0000
0000
0000
0000
0000
0000
0000
,
3010
0000
0001
0000
0010
0000
0100
0010
,
1000
0000
1000
0100
0001
1000
0010
0000
,
1000
0000
1010
0000
0001
0100
0010
0000
,
1000
0001
0100
0001
0010
0000
0001
0000
,
1010
0000
1000
0010
0001
0000
1000
0100
,
1000
0100
0001
0000
0100
0000
0101
0000
,
0010
1000
1000
0000
0010
0000
0110
0000
,
1000
0000
1000
0010
0100
0000
0001
1000
,
0010
0000
0100
1000
0100
1000
0010
0000
,
0001
1000
0001
0000
0010
0001
0010
0000
,
0100
1000
0001
1000
0100
0000
1000
0001
,
0010
0000
0001
1000
1000
0000
0100
0001
,
1000
0010
0100
0010
1000
0001
1000
0000
,
0010
0001
0010
0100
1000
0001
0001
0000
,
0011
0000
0100
0100
0000
0010
0010
0000
0001
0002
0000
0003
,
0110
0000
1000
0001
0000
0100
0001
0000
0010
1000
0100
1100
,
0020
0001
0031
2000
0010
3010
0001
0010
,
1000
0000
0200
0000
1000
0300
1000
0000
0001
0000
1000
0010
1000
0000
0010
0000
,
0100
0001
0100
0000
0001
0010
0001
0000
0001
0000
1000
0100
0001
0100
0100
0000
,
0110
0000
0010
1000
0010
1000
0001
0000
,
1000
0010
1000
0010
0100
0000
0100
1000
,
0010
0100
0010
1000
0100
0001
0001
0000
,
0200
0000
0301
0010
0001
0000
2000
0000
,
3010
0100
0010
0000
0002
0000
1003
0100
,
1000
0100
0001
1001
,
0010
0000
0001
0010
0100
0001
0010
0000
,
1000
0100
1000
0001
0010
0000
0100
0001
,
0010
0001
0100
1000
0010
1000
1000
0000
,
0020
0000
0130
0001
0010
0000
0200
0000
,
0320
0000
2030
0000
3001
0000
0010
0100
,
0001
0010
0010
0000
1000
0000
1010
0000
,
0020
0000
0000
0000
0001
0000
0000
0000
0001
0030
0000
0000
0200
0000
0000
0000
,
0010
1300
2000
0010
,
3100
0010
0200
0000
0010
1000
1300
0000
,
1001
0000
0010
1000
0010
0000
1010
0000
,
0001
0010
0001
0000
0110
0000
0001
0010
,
1000
0001
1000
0000
0001
0000
0011
0000
,
0010
1000
0100
1000
0001
0000
0001
0010
,
0001
0100
0010
0000
1000
0010
1000
0001
,
0100
0001
0010
1000
0100
0001
0001
0000
,
0020
0000
1030
0100
0100
0000
2000
0000
,
3010
0001
0001
0000
0020
0100
0031
0100
,
0100
0101
0011
1001
,
2000
0010
3010
0001
0110
0000
0000
0000
;

//---------------dance-single - ----------------
#NOTES:
     dance-single:
     :
     Easy:
     6:
     0.279301,0.405946,0.097009,0.440272,0.007462,262.000000,249.000000,13.000000,59.000000,0.000000,0.000000,0.279301,0.405946,0.097009,0.440272,0.007462,262.000000,249.000000,13.000000,59.000000,0.000000,0.000000:
0000
0000
0000
0000
,
0010
0000
0000
0100
0000
0000
0001
0000
,
0000
0010
0000
0000
0100
0000
0000
1000
,
0000
0000
0001
0000
0000
0110
0000
0000
,
0020
0030
0100
0200
0300
0001
0002
0003
,
1000
2000
0000
3010
0010
1000
1000
0100
,
0010
0010
0001
1000
0100
0220
0000
0330
,
0001
0100
0010
0001
,
1000
0100
0010
1000
,
1000
0001
0010
0010
,
0200
0000
1300
2000
,
0000
3100
0020
0000
,
0031
0002
1000
0103
,
0010
1000
0100
0010
,
0001
0100
0001
0010
,
0100
1000
0100
0100
,
1001
0000
0010
0110
,
0000
0100
1001
0000
,
0001
1000
0010
1000
,
0220
0000
0330
0010
,
1000
0100
2002
0000
,
3003
1000
0010
0100
,
0200
0000
0300
0001
0100
0010
0020
0000
,
0030
0001
1000
1000
0000
0000
0000
0000
,
0020
0030
0100
1000
,
0001
1000
1000
0200
,
0300
0010
1000
0010
,
0100
0100
2000
3000
,
0010
1000
0001
0100
,
0010
2000
3000
0100
,
0010
0002
1000
1003
,
0020
0130
0010
1000
,
0010
0100
0001
0002
,
0013
1000
0010
0100
,
0001
0001
0200
1300
,
0001
1000
0010
0100
,
0100
2000
3001
1000
,
0100
0001
1000
0010
,
0200
0000
0000
0320
0000
0000
0032
0000
0000
2000
0000
3003
,
0200
0000
0000
2300
0000
0000
3002
0000
0000
0010
0010
0013
,
0200
0000
1300
2000
0000
3001
0200
0000
,
0301
0020
0000
0030
1000
0100
1000
0001
,
0010
0001
0010
0001
1000
2002
0000
3003
,
0010
0100
0100
0010
,
1000
1000
0100
1000
,
0100
0001
0100
0100
,
2000
3000
0010
0002
,
0003
0100
0020
0030
,
0001
0001
0100
0110
,
1000
0010
1000
0100
,
0010
1000
0100
0010
,
0001
0010
1000
1000
,
0002
0003
1000
0020
,
0100
0130
1000
0100
,
0001
0020
1000
1030
,
0200
0000
0300
0010
,
1000
0010
0001
0100
,
0001
0010
0010
0010
,
2002
3003
0010
0220
,
0330
0100
2002
3003
,
1000
0010
0001
1000
,
0002
0100
0103
0200
,
1000
1300
0002
0010
,
1003
2000
0001
3100
,
0002
0003
1000
0200
,
0300
0100
0020
0030
,
0100
0010
1000
1001
,
0000
0100
0200
0000
,
0300
0000
0000
0000
;
