#TITLE:Temple of Anubis;
#SUBTITLE:;
#ARTIST:Massive New Krew;
#TITLETRANSLIT:;
#SUBTITLETRANSLIT:;
#ARTISTTRANSLIT:;
#GENRE:;
#CREDIT:;
#MUSIC:Temple of Anubis.ogg;
#BANNER:Temple of Anubis.png;
#BACKGROUND:Temple of Anubis-bg.png;
#CDTITLE:;
#SAMPLESTART:38.338;
#SAMPLELENGTH:15.000;
#SELECTABLE:YES;
#OFFSET:0.365;
#BPMS:0.000=154.855
,164.000=77.427
,180.000=154.855
;
#STOPS:;
#ORIGIN:;
#PREVIEWVID:;
#JACKET:Temple of Anubis-jacket.png;
#CDIMAGE:;
#DISCIMAGE:;
#BGCHANGES:;
#FGCHANGES:;

//--------------- dance-single - ----------------
#NOTES:
     dance-single:
     :
     Beginner:
     3:
     0,0,0,0,0:
0000
0000
0000
0000
,
0000
0000
0000
0000
,
0000
0000
0000
0000
,
0000
0000
0000
0000
,
0000
0000
0000
0000
,
0000
0000
0000
0000
,
0000
0000
0000
0000
,
0000
0000
0000
0000
,
0000
0000
0000
0000
,
0010
0000
0010
0000
,
0100
0000
0100
0000
,
1000
0000
1000
0000
,
0001
0000
0001
0000
,
0100
0000
0100
0000
,
0001
0000
0001
0000
,
1000
0000
1000
0000
,
0010
0000
0010
0000
,
1000
1000
1000
0000
,
0001
0001
0001
0000
,
0100
0100
0100
0000
,
0010
0010
0010
0000
,
1000
0000
1000
0000
,
0100
0000
0100
0000
,
0010
0000
0010
0000
,
0020
0000
0030
0000
,
0001
0000
0001
0000
,
0010
0000
0001
0000
,
1000
0000
1000
0000
,
0001
0000
1000
0000
,
0100
0000
0100
0000
,
0010
0000
0100
0000
,
0001
0000
1000
0000
,
0002
0000
0003
0000
,
0100
0100
0100
0000
,
0010
0000
0100
0000
,
0001
0001
0001
0000
,
1000
0000
0001
0000
,
0010
0010
0010
0000
,
0100
0100
0100
0000
,
1000
1000
1000
0000
,
2002
0000
3003
0000
,
0100
0000
0100
0000
0100
0100
0100
0000
,
0010
0000
0010
0000
0010
0010
0010
0000
,
1000
0000
1000
0000
1000
1000
1000
0000
,
0001
0000
0001
0000
0001
0001
0001
0000
,
1001
0000
0000
0000
,
0000
0000
0000
0000
,
0100
0000
0100
0000
,
0010
0000
0010
0000
,
1000
0000
1000
0000
,
0001
0000
0001
0000
,
0010
0000
0010
0000
,
1000
0000
1000
0000
,
0100
0000
0100
0000
,
0001
0000
0001
0000
,
0010
0010
0010
0000
,
1000
1000
1000
0000
,
0001
0001
0001
0000
,
0100
0100
0100
0000
,
0010
0000
0010
0000
,
1000
0000
1000
0000
,
0001
0000
0001
0000
,
0002
0000
0003
0000
,
0100
0000
0100
0000
,
1000
0000
0100
0000
,
0010
0000
0010
0000
,
0100
0000
0010
0000
,
0001
0000
0001
0000
,
1000
0000
0001
0000
,
1000
0000
1000
0000
,
2000
0000
3000
0000
,
0100
0100
0100
0000
,
0010
0000
0010
0000
,
1000
1000
1000
0000
,
0001
0000
0001
0000
,
0010
0010
0010
0000
,
0001
0001
0001
0000
,
1000
0000
0001
0000
,
2000
0000
3000
0000
,
1001
0000
0000
0000
;

//--------------- dance-single - ----------------
#NOTES:
     dance-single:
     :
     Easy:
     5:
     0,0,0,0,0:
0000
0000
0000
0000
,
0000
0000
0000
0000
,
0000
0000
0000
0000
,
0000
0000
0000
0000
,
0000
0000
0000
0000
,
0000
0000
0000
0000
,
0000
0000
0000
0000
,
0000
0000
0000
0000
,
0000
0000
0000
0000
,
1000
0000
0001
0000
,
1000
0010
1000
0000
,
0100
0000
0010
0000
,
0100
0001
0100
0000
,
0001
0000
0010
0000
,
0001
1000
0001
0000
,
1000
0000
1000
0000
,
0010
0100
0001
0000
,
1000
0010
1000
0000
,
0010
0100
0010
0000
,
0001
0010
0001
0000
,
1000
0001
1000
0000
,
0010
0010
0001
0000
,
0100
0100
0010
0000
,
1000
0100
0001
0100
,
0020
0000
0200
0330
,
0001
0010
0001
1000
,
0001
0100
0010
0000
,
1000
0100
1000
0010
,
0100
0001
0010
0000
,
0100
0001
0100
0010
,
1000
0100
0010
0000
,
0001
1000
0010
0200
,
0000
0001
0002
0303
,
0010
0001
1000
0010
,
0100
0001
0100
0000
,
0010
1000
0100
1000
,
0010
0100
0001
0000
,
0100
0100
0001
0000
,
1000
1000
0001
0000
,
0010
0100
0001
1000
,
0200
0000
0300
0000
,
1000
1000
0001
1000
,
0010
0010
1000
0010
,
0100
0100
0010
0100
,
0001
0100
0001
0001
,
2000
0000
0000
0000
,
0000
0000
3000
0000
,
0010
0000
0010
0000
,
0001
1000
0001
0000
,
0100
0000
0100
0000
,
0010
0001
0010
0000
,
1000
0000
1000
0000
,
0010
0100
0010
0000
,
0001
0000
0001
0000
,
1000
0010
1000
0000
,
0001
0000
1001
0000
,
0100
0000
0110
0000
,
0010
0000
0110
0000
,
1000
0000
1001
0000
,
0010
0010
0001
0000
,
0100
0100
0010
0000
,
1000
0100
1000
0010
,
0002
0000
0003
0000
,
1000
0100
1000
0010
,
0001
0100
0010
0000
,
0100
0001
0100
0010
,
1000
0001
0100
0000
,
1000
0010
1000
0100
,
0010
0001
0010
0000
,
0100
0010
0001
0020
,
0000
0100
0200
0330
,
1000
0001
0010
0001
,
0100
0010
1000
0000
,
0001
1000
0001
0100
,
0010
1000
0100
0000
,
0001
0001
0010
0000
,
1000
1000
0010
0000
,
0100
0010
0100
0001
,
1000
1000
0002
0003
,
1001
0000
0000
0000
;

//--------------- dance-single - ----------------
#NOTES:
     dance-single:
     :
     Medium:
     8:
     0,0,0,0,0:
0000
0000
0000
0000
,
0000
0000
0000
0000
,
0000
0000
0000
0000
,
0000
0000
0000
0000
,
0000
0000
0000
0000
,
0000
0000
0000
0000
,
0000
0000
0000
0000
,
0000
0000
0000
0000
,
0000
0000
0000
0000
,
0010
0000
0001
0000
0000
0010
0000
0100
,
0000
0010
0000
1000
0000
0000
0001
0000
,
1000
0000
1000
0000
0010
0000
0000
0100
,
0000
0001
0000
0010
0000
0002
0000
0000
,
0003
0000
0100
0000
0000
0100
0000
0010
,
0000
1000
0000
0100
0000
1000
0001
0000
,
0100
0000
0010
0000
0100
0000
0010
1000
,
0000
0001
0001
1001
,
0010
1000
0010
0100
,
0001
0000
0010
0000
0001
0000
0100
0010
,
0100
0010
0100
0001
,
1000
0000
0100
0000
1000
0000
0001
0010
,
0001
0000
0100
0000
0001
0000
1000
0001
,
1000
0000
0010
0000
1000
0000
0001
0100
,
0001
0010
1000
0001
,
0010
0010
0001
1001
,
1000
0010
1000
0001
,
0100
0000
0010
0000
0100
0000
0001
0010
,
0001
0100
0001
1000
,
0010
0000
1000
0000
0001
0000
0100
0001
,
0100
0010
0001
0010
,
0001
0000
1000
0000
0010
0000
0100
0010
,
0100
0000
1000
0000
0001
0000
1000
0200
,
0000
0010
0000
0000
0020
0000
0330
0000
,
0001
0100
0010
0100
,
0001
0000
0010
0000
0100
0000
1000
0010
,
1000
0100
0010
0100
,
0001
0000
1000
0000
0010
0000
0100
0001
,
0100
0001
1000
0001
,
0010
0000
0100
0000
1000
0000
0010
1000
,
0010
0100
0001
1000
,
0010
0000
0010
0000
0100
0010
0100
0000
,
1001
0000
0100
0000
0010
0000
0100
0001
,
0100
0000
1000
0000
0010
0000
1000
0001
,
1000
0000
0010
0000
0100
0000
0010
1000
,
0010
0010
1000
1000
0100
1000
0001
0010
,
0200
0000
0000
0000
,
0000
0000
0000
0000
,
0300
0000
1000
0000
0000
0001
0000
0010
,
0000
0001
0000
0100
0000
0000
0010
0000
,
1000
0000
1000
0000
0001
0000
0000
0100
,
0000
0010
0000
0100
0000
2000
0000
0000
,
3000
0000
0100
0000
0000
1000
0000
0010
,
0000
0100
0000
0001
0000
0100
0010
0000
,
1000
0000
0001
0000
1000
0000
0001
0010
,
0000
0100
0100
0110
,
0010
0000
1000
0010
0100
0000
0100
0000
,
0001
0000
1000
0001
0010
0000
0010
0000
,
0100
0000
1000
0100
0010
0000
0010
0000
,
0100
0000
0010
0100
0001
0000
1001
0000
,
1000
0000
0010
0100
0010
0000
1000
0010
,
1000
0000
0100
1000
0100
0000
1000
0001
,
1000
0010
0100
0001
,
1000
1000
0010
0110
,
0100
0001
0100
0000
0001
0000
1000
0000
,
0001
0100
0010
1000
,
0010
0100
0010
0000
1000
0000
0001
0000
,
1000
0010
0100
0001
,
0010
0001
0010
0000
1000
0000
0100
0000
,
0010
0000
0001
0000
0010
0000
1000
0010
,
1000
0001
0100
0020
,
0000
1000
0000
0000
2000
0000
3030
0000
,
0100
0010
1000
0001
,
0100
0000
0010
0000
0001
0100
0010
0100
,
0001
0010
0100
1000
,
0001
0000
1000
0000
0010
1000
0001
1000
,
0010
0000
0100
0000
0001
0000
1000
0001
,
1000
0000
0100
0000
0010
0000
0001
0010
,
0001
1000
0100
1000
,
0010
0010
1000
1001
,
0100
0000
0000
0000
;

//--------------- dance-single - ----------------
#NOTES:
     dance-single:
     :
     Hard:
     12:
     0.463546,0.734922,0.148845,0.148845,0.070701,436,416,20,20,0,0,0,0,0,0.463546,0.734922,0.148845,0.148845,0.070701,436,416,20,20,0,0,0,0,0:
0000
0000
0000
0000
,
0000
0000
0000
0000
,
0000
0000
0000
0000
,
0000
0000
0000
0000
,
0000
0000
0000
0000
,
0020
0000
0000
0032
0000
0000
0023
0000
,
0000
0230
0000
0000
0310
0000
0100
0000
,
2000
0000
0000
3002
0000
0000
2003
0000
,
0000
3200
0000
0000
0310
0000
0110
0000
,
1000
0000
0001
0010
0000
0001
0000
1000
,
0000
0010
0000
0100
0000
0010
0100
0010
,
1000
0000
0001
0010
0001
0100
0000
0010
,
0000
1000
0100
0010
0000
0002
0000
0000
,
0003
0000
0010
0010
0000
0001
0000
1000
,
0000
0010
0100
0001
0000
1000
0001
0000
,
0010
0000
0010
0000
0010
0001
1000
0010
,
0000
0100
0001
1000
0000
0010
0100
0001
,
1000
0000
0001
0000
1000
0010
1000
0000
,
0100
0000
0010
0000
0100
1000
0100
0000
,
0001
0000
0010
0000
0001
1000
0001
0000
,
0010
0000
0100
0000
0010
0001
0010
0000
,
0100
0001
0100
0000
1000
0010
1000
0000
,
0010
0100
0010
0000
0001
1000
0001
0000
,
0010
0100
0010
1000
0100
1000
0001
0100
,
0001
0000
0001
1000
0020
0000
0130
0000
,
1000
0100
1000
0000
0010
1000
0010
0100
,
0000
0001
0100
0000
0010
1000
0100
0000
,
0001
0100
0001
0000
0100
0010
0100
1000
,
0000
0010
1000
0000
0100
0010
1000
1000
,
0100
1000
0010
0000
0100
0001
0100
0010
,
0000
1000
0010
0000
1000
0001
0100
0000
,
1000
0010
1000
0001
0100
0010
1000
0100
,
0000
0010
0000
0000
0100
0000
1001
0000
,
1000
0001
0010
0000
0100
1000
0100
0010
,
0000
0001
0100
0000
1000
0100
1000
0001
,
1000
0010
0100
0000
0010
1000
0010
0001
,
0000
0100
0010
0000
0100
0001
0010
0001
,
1000
1000
0001
0000
0010
0010
0100
0000
,
0001
0000
0001
0000
1000
0000
0000
0000
0100
0000
0000
0010
0000
0000
0100
0000
,
1000
0010
0100
0010
1000
0001
0010
0100
,
1000
0000
0000
0001
0000
0000
1000
0000
0010
0000
0100
0000
0001
0000
0001
0000
,
0201
0000
0000
0000
0310
0000
2000
0000
0000
0001
0001
0000
3010
0000
0100
0000
,
0120
0000
0000
0000
1030
0000
0200
0000
0000
0010
0010
0000
1300
0000
0001
0000
,
1002
0000
0000
0000
0103
0000
0020
0000
0000
1000
1000
0000
0130
0000
0001
0000
,
1000
1000
0001
0001
0010
0010
0100
0010
0001
0100
0001
1000
0010
0100
0010
1000
,
0200
0000
0000
0000
,
0000
0000
0000
0300
,
0001
0000
1000
0010
0000
0100
0000
0010
,
0000
1000
0000
0001
0000
0010
0100
0000
,
1000
0000
0001
1000
0001
0010
0000
0100
,
0000
0010
0001
0100
0000
0020
0000
0000
,
0030
0000
1000
1000
0000
0001
0000
0100
,
0000
0010
0100
0001
0000
1000
0010
0000
,
0100
0000
0100
0000
0100
0010
1000
0010
,
0000
0100
0001
0010
0000
0100
1000
0010
,
1010
0000
0000
0110
0000
0000
0011
0000
,
0101
0000
0000
1001
0000
0000
1100
0000
,
0110
0000
0000
1010
0000
0000
1100
0000
,
0011
0000
0000
1001
0000
0000
0110
0000
,
0010
1000
0010
0000
0100
0010
0100
0000
,
0001
0100
0001
0000
1000
0001
1000
0000
,
0010
0100
0001
0100
0010
1000
0100
0010
,
0100
0000
0100
1000
0002
0000
0013
0000
,
0100
0010
0100
0000
1000
0100
1000
0000
,
0001
0000
0000
0100
0000
0000
0001
0000
1000
0000
0100
0000
0010
0000
0100
0000
,
1000
0001
1000
0000
0010
1000
0010
0000
,
0100
0000
0000
0010
0000
0000
0100
0000
0001
0000
0010
0000
0110
0000
0000
0000
,
1000
0010
1000
0000
0100
1000
0100
0000
,
1000
0000
0000
0010
0000
0000
1000
0000
0100
0000
1000
0000
0010
0000
0000
0000
,
0001
0010
0001
1000
0001
0100
0010
0100
,
0000
0001
0000
0000
1000
0000
0110
0000
,
0010
1000
0001
0000
0100
0001
0010
0000
,
0100
0000
0000
1000
0000
0000
0010
0000
1000
0000
0010
0000
0100
0000
0001
0000
,
1000
0100
0010
0000
0001
1000
0010
0000
,
0100
0000
0000
0001
0000
0000
0010
0000
0001
0000
1000
0000
0100
0000
1000
0000
,
0010
0100
0001
0000
1000
0100
0010
0000
,
0001
0000
0000
1000
0000
0000
0100
0000
1000
0000
0010
0000
0100
0000
0010
0000
,
0001
0100
0010
0100
0001
1000
0010
0100
,
1000
1000
0001
0010
0200
0000
0301
0000
,
1001
0000
0000
0000
;

//--------------- dance-single - ----------------
#NOTES:
     dance-single:
     :
     Challenge:
     16:
     0.742098,1.381653,0.238152,0.074422,0.688408,698,666,32,10,0,0,0,0,0,0.742098,1.381653,0.238152,0.074422,0.688408,698,666,32,10,0,0,0,0,0:
0000
0000
0000
0000
,
0000
0000
0000
0000
,
0000
0000
0000
0000
,
0000
0000
0000
0000
,
0000
0000
0000
0000
0000
0000
0000
0000
0000
0000
0000
0000
0001
0000
0001
1000
,
0001
0010
0001
0100
,
0010
1000
0100
1000
,
0001
0010
0100
0001
,
1000
0100
0000
0100
0001
0000
0100
0000
0010
0000
1000
0000
1100
0000
0000
0000
,
0010
0100
0010
0001
1000
0000
0001
0000
0000
0000
1000
0000
0010
0000
0100
0000
,
0000
0000
0001
0000
0100
0000
0010
0000
0000
0000
1000
0000
0001
0000
0100
0001
,
0010
0001
1000
0001
1000
0010
0100
0001
,
0000
1000
0001
0100
0000
0020
0000
0000
,
1030
0000
1000
0010
0000
0100
0010
0001
,
0000
0000
1000
0000
0010
0000
0100
0000
0000
0000
0001
0000
1000
0000
0001
1000
,
0010
0100
0010
0100
0010
1000
0100
0010
,
0000
0000
0001
0000
1000
0000
0010
0000
0000
0000
0100
0000
0010
1000
0010
1000
,
0100
0001
0010
0001
0100
0010
1000
0000
,
0001
0100
0010
0100
0001
0010
0100
0000
,
1000
0001
0100
0001
1000
0010
0001
0000
,
0100
0010
1000
0010
0100
0001
0010
0000
,
1000
0000
0010
0000
1000
0000
0100
1000
0100
0000
0010
0000
0100
0000
0010
0001
,
0010
0000
0001
0000
0100
0000
0001
1000
0001
0000
0100
0000
0010
0000
0100
0010
,
1000
0010
1000
0100
0001
0100
0001
0010
0001
1000
0010
0100
0001
1000
0100
0001
,
1000
0010
1000
0001
0200
0000
0310
0000
,
0100
0000
0001
0000
0010
0000
0001
1000
0000
0001
0100
0000
0010
0000
1000
0100
,
0000
1000
0100
0000
0001
0000
0100
0010
0100
0000
0010
0000
1000
0000
0010
0000
,
1000
0000
0100
0000
0001
0000
0010
1000
0000
0010
1000
0000
0100
0000
0001
0010
,
0000
0001
0010
0000
0100
0000
0001
1000
0001
0000
1000
0000
0100
0000
0100
0000
,
0110
0000
0001
0000
1000
0000
0010
0100
0000
0010
0100
0000
1000
0000
0001
0100
,
0000
0001
0100
0000
1000
0000
0010
1000
0010
0000
0100
0000
1000
0000
0001
0000
,
0100
0000
0010
0000
0001
0000
1000
0000
0100
0000
0010
1000
0010
0100
0001
1000
,
0000
0010
0010
0000
0001
0000
1010
0000
,
1000
0000
0010
0000
0100
0000
0001
0100
0000
0100
0001
0000
1000
0000
0100
0010
,
0000
0010
0100
0000
1000
0000
0001
0100
0001
0000
0010
0001
0000
0010
0000
1000
,
0100
0000
0001
0000
0010
0000
1000
0001
0000
0001
1000
0000
0100
0000
0010
1000
,
0000
1000
0010
0000
0001
0000
1000
0100
1000
0010
0100
0000
0001
0000
1000
0000
,
0101
0000
0100
0000
0100
0000
0010
0001
1100
0000
1000
0000
0001
0100
0001
0000
,
0110
0000
0010
0000
0001
0000
1000
0010
1000
0000
0001
0100
0000
0001
1000
0000
,
1001
0000
0001
0000
0010
0000
0100
0000
1000
0100
1000
0010
0100
0001
0010
0100
,
1000
0000
0001
0100
0000
1000
0100
0000
1000
0010
0100
0001
1000
0000
1000
0000
,
0110
0000
0001
0000
0010
0000
0100
0010
0000
0100
0020
0000
1030
0000
0100
1000
0100
0000
0001
0010
0000
0001
0010
0000
0100
0000
1000
0000
0010
1000
0000
1000
,
0010
0000
0100
0000
0010
0000
1000
0001
0000
1000
0002
0000
0103
0000
0010
0001
0010
0000
1000
0100
0000
1000
0100
0000
0001
0000
0010
0000
0100
0001
0000
0001
,
0101
0000
1000
0000
0010
0000
0100
0001
0000
0100
0002
0000
1003
0000
0001
0100
0001
0000
1000
0010
0000
1000
0010
0000
0100
0000
1000
0000
0001
0010
0000
0010
,
0001
0000
0100
0000
1000
0000
0100
0000
0001
0000
0010
0000
0100
0000
0010
0001
0010
0100
1000
0010
0001
0100
1000
0001
0100
0010
1000
0100
0010
0001
0010
0100
,
2000
0000
0000
0000
,
0000
0000
0000
0000
,
3001
0100
0001
0100
0010
0000
1000
0000
0000
0000
0010
0000
1000
0000
0001
0000
,
0000
0000
0100
0000
0010
0000
1000
0000
0000
0000
0001
0000
0100
0000
0010
0001
,
0100
0001
1000
0010
1000
0100
0001
1000
,
0000
0010
0100
0001
0000
2000
0000
0000
,
3100
0000
0100
0010
0000
0001
1000
0100
,
0000
0000
1000
0000
0010
0000
0001
0000
0000
0000
0100
0000
0010
0000
0100
0010
,
1000
0100
1000
0100
1000
0001
0010
0100
,
0000
0000
0010
0000
1000
0000
0001
0000
0000
0000
0010
0000
0001
0010
0100
1000
,
0010
0000
1010
1000
0000
1001
0001
0011
,
0010
0000
0110
0100
0000
1100
1000
1010
,
0010
0000
0011
0001
0000
0101
0100
0110
,
0010
0000
1010
1000
0000
1100
1001
0000
,
0010
0100
0010
0100
0001
0100
0001
0100
,
0110
1000
0010
1000
1001
1000
0001
1000
,
0010
0100
0010
0100
0001
1000
0001
1000
0100
0001
0010
1000
0010
0100
0001
0010
,
1000
1000
0010
0100
0002
0000
0013
0000
,
1010
0000
0001
0000
0100
0000
0010
0100
0000
0100
0010
0000
1000
0000
0001
1000
,
0000
1000
0001
0010
0000
0001
0010
0000
0100
0000
1000
0000
0010
0100
0000
0100
,
0001
0000
0100
0000
0010
0000
1000
0010
0000
0010
1000
0000
0100
0000
0010
0001
,
0000
0001
0010
0100
0000
0010
0100
0000
0001
0000
1000
0000
1001
0000
0001
0000
,
0100
0000
0010
0000
1000
0000
0010
1000
0000
1000
0010
0000
0100
0000
0001
0100
,
0000
0100
0001
1000
0000
0001
1000
0000
0100
0000
0010
0000
1000
0001
0000
0001
,
1000
0000
0010
0000
0100
0000
0001
0000
1000
0010
0100
0010
1000
0001
0010
0200
,
0000
0001
0001
0000
1300
0000
0101
0000
,
0100
0000
0010
0000
1000
0000
0010
0100
0010
0100
0001
0000
1000
0000
0001
1000
,
0001
1000
0010
0000
1000
0000
0100
1000
0100
0000
0010
0000
0001
0000
1000
0010
,
1000
0000
0010
0000
0100
0000
0001
0100
0001
0100
0010
0000
1000
0000
0010
0000
,
0011
0000
1000
0000
1010
0000
0001
0000
0101
0000
1000
0000
0001
1000
0001
1000
,
1001
0010
1000
0010
0100
0001
0100
0010
,
0101
1000
0010
0100
0001
0010
0100
1000
,
0001
0010
1000
0001
0100
0010
0001
1000
0010
0100
0001
0010
0100
1000
0001
0010
,
1000
0000
0010
0100
0000
0010
0100
0000
0002
0000
0000
0000
0013
0000
0000
0000
,
0110
0000
0000
0000
;
