#VERSION:0.83;
#TITLE:THE SAFARI;
#SUBTITLE:;
#ARTIST:Lion MUSASHI;
#TITLETRANSLIT:;
#SUBTITLETRANSLIT:;
#ARTISTTRANSLIT:;
#GENRE:;
#ORIGIN:;
#CREDIT:;
#BANNER:THE SAFARI.png;
#BACKGROUND:THE SAFARI-bg.jpg;
#PREVIEWVID:;
#JACKET:;
#CDIMAGE:;
#DISCIMAGE:;
#LYRICSPATH:;
#CDTITLE:;
#MUSIC:THE SAFARI.mp3;
#OFFSET:0.181234;
#SAMPLESTART:32.192001;
#SAMPLELENGTH:12.799999;
#SELECTABLE:YES;
#DISPLAYBPM:150.000000;
#BPMS:0.000=150.000,
131.750=300.000,
132.500=150.000;
#STOPS:12.750=0.400,
131.750=0.150,
163.750=0.400;
#DELAYS:;
#WARPS:;
#TIMESIGNATURES:0.000=4=4;
#TICKCOUNTS:0.000=4;
#COMBOS:0.000=1;
#SPEEDS:0.000=1.000=0.000=0;
#SCROLLS:0.000=1.000;
#FAKES:;
#LABELS:0.000=Song Start;
#BGCHANGES:;
#KEYSOUNDS:;
#ATTACKS:
;

//---------------dance-single - ----------------
#NOTEDATA:;
#CHARTNAME:;
#STEPSTYPE:dance-single;
#DESCRIPTION:;
#CHARTSTYLE:;
#DIFFICULTY:Hard;
#METER:12;
#RADARVALUES:0.559478,0.602956,0.241182,0.344546,0.258410,341.000000,320.000000,21.000000,30.000000,0.000000,0.000000,0.000000,0.000000,0.000000,0.559478,0.602956,0.241182,0.344546,0.258410,341.000000,320.000000,21.000000,30.000000,0.000000,0.000000,0.000000,0.000000,0.000000;
#CREDIT:;
#DISPLAYBPM:150.000000;
#NOTES:
0000
0000
0000
0000
,
0010
0001
0000
0001
0100
0000
0010
0000
1000
0000
0000
0000
0010
1000
0000
1000
,
0001
0100
0010
0000
0001
0010
0001
0000
,
0100
1000
0100
1000
0001
0000
0000
0000
1000
0000
0000
0000
1000
0000
0010
0000
,
0200
0000
0000
0000
,
0000
0000
0000
0000
0300
0001
0010
0100
,
0002
0000
0000
0003
,
2000
0000
3020
0000
0230
0000
0301
0001
,
0020
0100
1000
0031
,
0010
0000
0000
0000
0100
0000
0000
0000
1100
0000
0000
0100
0001
0000
0100
0000
,
0210
0001
1000
0310
,
1000
0010
0000
0010
0001
0010
0000
0010
0100
0000
1000
0000
0100
0000
0001
0000
,
1000
0000
1000
0000
1000
0100
0010
0001
,
1000
0000
1000
0000
1000
0100
0010
0001
,
0001
0000
0001
0000
0001
0100
0010
1000
,
0001
0000
0001
0000
0001
0100
0010
1000
,
0100
0000
0100
0000
0100
1000
0100
0001
,
0010
0000
0010
0000
0010
0001
0010
1000
,
1000
0000
0100
0001
0010
1000
0100
0000
,
0010
1000
0000
1000
0100
1000
0000
1000
0100
0000
0001
0000
0010
0000
0001
0000
,
0100
0000
0000
0000
1100
0000
0000
0000
0001
0010
0001
0010
0001
0000
0010
0000
,
0001
0000
0000
0000
1001
0000
0000
0000
0100
0001
0100
0001
0100
0000
0001
0000
,
0010
0000
0000
0000
0110
0000
0000
0000
0010
1000
0010
1000
0010
0000
1000
0000
,
0001
0000
0000
0000
0011
0000
0000
0000
1000
0100
1000
0100
1000
0000
0100
0000
,
0100
0000
0000
0000
0101
0000
0000
0000
1000
0100
1000
0010
0001
0000
1000
0000
,
1000
0000
0000
0000
1100
0000
0000
0000
0010
0001
0100
0001
0010
0000
0100
0000
,
0010
0000
0100
0000
0100
1000
0001
0000
,
0001
0000
0000
0010
0000
0000
0100
0000
0000
0010
0000
0000
0001
1000
0001
0000
,
0200
0000
0000
2300
0000
0000
3020
0000
0000
0001
0000
0000
0130
0000
0001
0000
,
2000
0000
0000
3200
0000
0000
0302
0000
0000
0010
0000
0000
0013
0000
0100
0000
,
0002
0000
0000
2003
0000
0000
3002
0000
0000
0100
0000
0000
1003
0000
0001
0000
,
0020
0000
0000
0032
0000
0000
0203
0000
0000
0000
1000
0000
1300
0000
1000
0000
,
0100
0010
0100
0001
1000
0010
0001
0100
,
0000
0000
2000
0000
0000
3200
0000
0320
0000
0001
0000
0001
1000
0030
0100
0000
,
0101
0000
0000
0011
0000
0000
1001
0000
0000
0000
0100
0000
0010
0000
0100
0000
,
1000
1002
0000
0000
,
0010
0000
0010
0000
0010
0010
0013
0000
,
0100
0010
1000
0001
0100
0100
0110
0000
,
1000
0001
1000
0010
0100
0001
1010
0000
,
0100
0001
0100
0001
0010
0001
0101
0000
,
0010
0001
1000
0010
0100
0001
1010
0010
,
1001
0000
0100
0010
1010
0000
0100
0001
,
0100
0010
1000
0100
0011
0000
0100
0001
,
0010
0001
0010
1000
0110
0000
2000
0000
,
3002
0000
0203
0000
0310
0000
1000
0010
,
1000
0100
1000
1000
0100
0010
0001
1000
,
0010
0100
0001
0001
0010
0100
0001
1000
,
0100
1000
0010
0010
0001
0100
1000
0010
,
0100
0001
0100
0100
1000
0001
2000
0000
,
0010
0000
3010
0002
,
0100
0000
0103
0200
,
0001
0000
0000
0000
0000
0000
0000
0000
0301
0000
0000
0000
0100
1000
0000
1000
,
0000
0010
0001
0000
0120
0000
0000
0000
1030
0000
0000
0000
0000
0000
0000
0000
;

//---------------dance-single - ----------------
#NOTEDATA:;
#CHARTNAME:;
#STEPSTYPE:dance-single;
#DESCRIPTION:;
#CHARTSTYLE:;
#DIFFICULTY:Challenge;
#METER:17;
#RADARVALUES:0.948323,0.934582,0.689093,0.080394,1.246109,578.000000,518.000000,60.000000,7.000000,0.000000,0.000000,0.000000,0.000000,0.000000,0.948323,0.934582,0.689093,0.080394,1.246109,578.000000,518.000000,60.000000,7.000000,0.000000,0.000000,0.000000,0.000000,0.000000;
#CREDIT:;
#DISPLAYBPM:150.000000;
#NOTES:
0000
0000
0000
0000
,
0110
0001
1000
0000
1100
0010
0100
0000
0011
0000
0100
0000
0110
0001
0010
0000
,
1001
0100
0010
0000
1100
0000
0010
0000
0011
1000
0100
0000
0110
1000
0010
0000
,
0001
0100
0010
1000
0010
0001
0010
0000
0100
1000
0000
1000
0010
0100
0010
0000
,
0020
0000
0000
0100
0000
0100
1000
0000
0000
0000
1000
0000
0000
0000
0000
0000
,
0100
0001
0000
0100
0000
0100
0031
0000
0010
1000
0000
1000
0100
0000
0001
0000
,
0200
0010
0000
0010
0000
0001
0010
0000
0000
0000
0010
0000
0300
0000
0000
0000
,
0001
1000
0000
1000
0100
0010
0000
0010
1000
0001
0000
0001
0100
0001
0100
0000
,
1010
0100
1000
0000
1000
0010
1000
0000
0001
0100
0001
0000
0010
0100
0010
0000
,
0110
0001
1000
0000
0010
0100
0010
0000
0100
1000
0100
0000
0100
0001
0100
0000
,
1010
0100
0010
0000
0100
0010
0001
0000
0001
1000
0100
0000
0010
0100
1000
0000
,
0110
0010
0000
0010
1010
1000
0000
1000
0100
0010
0001
0010
1000
0100
0010
0000
,
1001
1000
0000
0010
0000
1000
0010
0000
0100
0000
1000
0000
0100
0000
0010
0000
,
1100
0001
0000
0001
0000
0010
0001
0000
1000
0000
0010
0000
1000
0000
0100
0000
,
0110
1000
0000
1000
0000
0100
1000
0000
0001
0000
0010
0000
0100
0000
0001
0000
,
0101
0010
0000
0010
0000
0100
1000
0000
0010
0000
0001
0000
0100
0000
0010
0000
,
1100
0001
0000
1000
0000
0001
0001
0000
1000
0000
0010
0000
0100
0000
1000
0000
,
0110
0010
0000
0100
0000
1000
1000
0000
0001
0000
1000
0000
0100
0000
0010
0000
,
1010
0001
0000
0100
0000
0010
0010
0000
0100
0000
0010
0000
1000
0000
0001
0000
,
1000
0001
0000
1000
0100
0010
0000
0100
0001
0010
1000
0000
1000
0000
1010
0000
,
0120
0100
0000
0100
0030
1000
0100
0000
1000
0001
1000
0000
0100
0000
0100
0000
,
0012
0010
0000
0100
0003
0100
0010
0000
0100
1000
0010
0000
1000
0000
1000
0000
,
2001
0001
0000
0010
3000
0100
0010
0000
1000
0010
0100
0000
1000
0000
1000
0000
,
1020
1000
0000
0100
0030
0001
0001
0000
0100
1000
0100
0000
0001
0000
0001
0000
,
1000
0100
0000
1000
0000
0010
0100
0000
0001
0010
0100
1000
0100
0000
0010
0000
,
0010
0100
0000
0100
0000
0010
0001
0000
0010
1000
0100
0010
1000
0000
0100
0000
,
0001
0010
0000
0010
0000
0100
1000
0000
0100
0001
0010
1000
0100
0000
0010
0000
,
0100
1000
0000
1000
0100
0001
0000
0001
0010
0100
0010
1000
0100
0001
1000
0000
,
1010
0000
0000
0101
0000
0000
0110
0000
0000
0010
0000
0010
0001
0000
0010
0000
,
0011
0000
0000
1100
0000
0000
1010
0000
0000
1000
0000
1000
0100
0000
0010
0000
,
0110
0000
0000
0101
0000
0000
1001
0000
0000
1000
0000
0001
0100
0000
1000
0000
,
1100
0000
0000
1010
0000
0000
0110
0000
0000
0001
0100
1000
0010
0100
1000
0001
,
0010
0100
0000
0100
0010
0000
1000
0001
0000
0001
1000
0000
0100
0000
0010
0000
,
0000
0000
0011
0000
0000
1100
0000
0110
0000
0010
0100
0000
0010
0001
0010
0000
,
1001
0000
0000
1010
0000
0000
0110
0000
0000
0010
0100
0010
1000
0100
0010
0001
,
0100
0001
2001
0000
0001
0000
3001
0000
,
0100
0001
0000
0010
0100
0010
0000
1000
0100
0010
1000
0001
0010
0100
1000
0000
,
0011
0100
0000
0010
0000
0100
1000
0000
0100
0000
1000
0000
0100
0001
0010
0000
,
1010
1000
0000
0100
0000
0001
0100
0000
1000
0000
0100
1000
0010
0000
0100
0000
,
0101
1000
0000
0100
0000
0001
0010
0000
0100
0000
0010
0000
0010
0100
1000
0000
,
1100
0001
0000
0001
0000
0010
0001
0000
0100
0010
0100
0000
0100
1000
0100
0000
,
1001
0000
0000
0000
0010
0100
1000
0000
0010
1000
0001
0000
0011
0100
0000
0001
,
0000
0100
1000
0000
0100
0010
1000
0000
0001
0100
0010
0000
0110
0100
0000
0010
,
0000
0010
0001
0000
1000
0100
0001
0000
0100
0001
1000
0000
0001
0001
0000
0100
,
0010
0010
0000
1000
1000
0000
0100
0000
0110
0000
0110
0000
0001
0100
0000
1000
,
0000
0100
1000
0000
0100
0010
0100
0001
1000
0000
1001
0000
1000
0001
0000
0010
,
0000
1000
0100
0000
0010
0100
0010
1000
0001
0000
0101
0000
0100
0001
0000
1000
,
0000
0100
0001
0000
1000
0010
1000
0001
0100
0000
0110
0000
0100
1000
0000
0001
,
0000
0100
0010
0000
0001
1000
0100
1000
0010
0000
0011
0000
0001
0001
0000
0001
,
0000
0100
0100
0000
0010
1000
0010
1000
0010
0000
0010
0000
1000
1000
0000
1000
,
0000
0010
0010
0000
0100
0010
0100
0010
0100
0000
0100
0000
0010
0010
0000
0010
,
0000
0001
0001
0000
0010
1000
0100
0010
0001
0000
1010
0000
0100
0010
0000
0100
,
0000
0001
1000
0000
0110
0000
0000
0000
1001
0000
0000
0000
0000
0000
0000
0000
;

//---------------dance-single - ----------------
#NOTEDATA:;
#CHARTNAME:;
#STEPSTYPE:dance-single;
#DESCRIPTION:;
#CHARTSTYLE:;
#DIFFICULTY:Medium;
#METER:8;
#RADARVALUES:0.433144,0.454371,0.264152,0.447910,0.040197,264.000000,241.000000,23.000000,39.000000,0.000000,0.000000,0.000000,0.000000,0.000000,0.433144,0.454371,0.264152,0.447910,0.040197,264.000000,241.000000,23.000000,39.000000,0.000000,0.000000,0.000000,0.000000,0.000000;
#CREDIT:;
#DISPLAYBPM:150.000000;
#NOTES:
0000
0000
0000
0000
,
0100
0001
0100
0010
1000
0000
0010
0100
,
1000
0100
0010
0000
1000
0000
0001
0000
,
0010
1000
1001
0000
1100
0000
1000
0100
,
2000
0001
0000
3001
,
0020
0000
1000
0000
0100
0000
1030
0100
,
0002
0010
0000
0013
,
0100
1000
0010
0011
,
2000
0010
0000
3010
,
0200
1000
0010
1300
,
0020
0030
0200
0300
,
1000
0000
0100
0000
0010
1000
0010
0000
,
2002
0000
0003
0000
3010
0001
0010
0000
,
0220
0000
0300
0000
1030
0100
1000
0000
,
0022
0000
0030
0000
0103
0010
0100
0000
,
2200
0000
3000
0000
0301
1000
0001
0000
,
1000
0000
0010
0000
0100
0000
0001
0010
,
1000
0000
0010
0000
0100
0000
0010
1000
,
0100
0010
1000
0010
,
0110
0101
1100
1001
,
2000
0000
3001
0000
0010
0100
0010
0100
,
0002
0000
0013
0000
1000
0100
0001
0100
,
0020
0000
1030
0000
0001
0010
1000
0010
,
0200
0000
0310
0000
0100
0001
0010
0001
,
2000
0000
3100
0000
0010
0100
1000
0010
,
0002
0000
0013
0000
0100
1000
0001
1000
,
0020
0000
0130
0000
1000
0100
0001
0000
,
0100
1000
0010
0110
,
0001
0000
0000
1000
0000
0000
2001
0000
0000
0000
0000
0000
3001
0000
0000
0000
,
0100
0000
0000
0010
0000
0000
0210
0000
0000
0000
0000
0000
0310
0000
0000
0000
,
0001
0000
0000
0100
0000
0000
0102
0000
0000
0000
0000
0000
0103
0000
0000
0000
,
1000
0000
0000
0001
0000
0000
2010
0000
0000
0000
0001
0000
3001
0000
0000
0000
,
0100
0000
0001
0000
1000
0001
0100
0001
,
0000
0000
0100
0000
0000
0001
0000
0001
0000
0000
0100
0000
0010
0000
0000
0000
,
0001
0000
0000
1000
0000
0000
0020
0000
0000
0000
0100
0000
1030
0000
0000
0000
,
0010
2002
0000
3003
,
0010
1000
0010
1100
,
0100
0000
0010
0000
0100
0001
0100
0000
,
0001
0000
0100
0000
0001
0010
1000
0000
,
0100
0000
1000
0000
0100
0010
1000
0000
,
0010
0000
1000
0000
0010
0100
0001
1000
,
0110
0000
0100
0010
1000
0000
1000
0000
,
0010
0000
0100
1000
0100
0000
0010
0000
,
0001
0000
1000
0100
0001
0000
0100
0000
,
0001
0000
0010
0000
1010
0000
0100
0010
,
0100
0000
1000
0100
1000
0000
0001
1000
,
0100
1000
0001
0000
1000
0000
0001
0010
,
1000
0000
0010
1000
0100
0000
0001
0010
,
0100
0010
0000
0001
0001
0000
0220
0000
,
0030
1000
0310
0022
,
0030
1000
0013
2020
,
3000
0001
1030
0200
,
0302
2003
0020
3030
;

//---------------dance-single - ----------------
#NOTEDATA:;
#CHARTNAME:;
#STEPSTYPE:dance-single;
#DESCRIPTION:;
#CHARTSTYLE:;
#DIFFICULTY:Easy;
#METER:5;
#RADARVALUES:0.252667,0.241182,0.034455,0.367516,0.000000,154.000000,151.000000,3.000000,32.000000,0.000000,0.000000,0.000000,0.000000,0.000000,0.252667,0.241182,0.034455,0.367516,0.000000,154.000000,151.000000,3.000000,32.000000,0.000000,0.000000,0.000000,0.000000,0.000000;
#CREDIT:;
#DISPLAYBPM:150.000000;
#NOTES:
// measure 0
0000
0000
0000
0000
,  // measure 1
0020
0030
0100
1000
,  // measure 2
0002
0003
0010
1000
,  // measure 3
0100
1000
0010
0100
,  // measure 4
0002
0000
0000
0003
,  // measure 5
0020
0030
0200
0300
,  // measure 6
2000
0000
0000
3000
,  // measure 7
0010
0001
0200
0300
,  // measure 8
1000
1000
2000
3000
,  // measure 9
0010
0010
0020
0030
,  // measure 10
0100
0001
0200
0300
,  // measure 11
0010
1000
0002
0003
,  // measure 12
0200
0300
1000
1000
,  // measure 13
0020
0030
0100
0100
,  // measure 14
0002
0003
0010
0010
,  // measure 15
0002
0003
0100
0100
,  // measure 16
2000
3000
0100
0001
,  // measure 17
0020
0030
0100
1000
,  // measure 18
0002
0003
2000
3000
,  // measure 19
0010
1000
0020
0030
,  // measure 20
0100
0000
1000
0010
,  // measure 21
1000
0000
0100
0001
,  // measure 22
0010
0000
0010
1000
,  // measure 23
0100
0001
1000
0000
,  // measure 24
0010
0010
1000
0000
,  // measure 25
0100
0100
0001
0000
,  // measure 26
0010
1000
0001
0100
,  // measure 27
0010
0000
0110
0000
,  // measure 28
1000
0001
1000
0000
,  // measure 29
0010
1000
0010
0000
,  // measure 30
0100
0001
0100
0000
,  // measure 31
0010
0001
0010
0000
,  // measure 32
1000
0100
0001
0100
,  // measure 33
0000
0010
1000
0010
,  // measure 34
0100
0000
0001
0000
,  // measure 35
0010
0020
0000
0030
,  // measure 36
1000
0100
0001
0010
,  // measure 37
0200
0300
0001
0001
,  // measure 38
0020
0030
0100
0100
,  // measure 39
0020
0030
1000
1000
,  // measure 40
0200
0300
1000
0001
,  // measure 41
0110
0000
1000
0100
,  // measure 42
0000
1000
0001
0100
,  // measure 43
1000
0010
0000
0001
,  // measure 44
1000
0020
0030
0100
,  // measure 45
1000
0100
0010
0100
,  // measure 46
0100
0001
0000
0010
,  // measure 47
1000
0100
1000
0001
,  // measure 48
0001
0010
0000
2000
,  // measure 49
3000
0001
0010
0002
,  // measure 50
0003
0100
1000
0020
,  // measure 51
0030
0200
0300
1000
,  // measure 52
0001
2002
3003
0000
;
