#TITLE:THE SAFARI;
#SUBTITLE:-DJ TOTTO mix-;
#ARTIST:DJ TOTTO;
#TITLETRANSLIT:;
#SUBTITLETRANSLIT:;
#ARTISTTRANSLIT:;
#GENRE:;
#CREDIT:;
#BANNER:THE SAFARI -DJ TOTTO mix-.png;
#BACKGROUND:THE SAFARI -DJ TOTTO mix--bg.png;
#LYRICSPATH:;
#CDTITLE:;
#MUSIC:THE SAFARI -DJ TOTTO mix-.mp3;
#OFFSET:-0.646957;
#SAMPLESTART:54.973076;
#SAMPLELENGTH:12.799995;
#SELECTABLE:YES;
#BPMS:0.000000=150.000000
;
#STOPS:
;
#BGCHANGES:;
#KEYSOUNDS:;
#ATTACKS:;

//---------------dance-single - ----------------
#NOTES:
     dance-single:
     :
     Hard:
     14:
     0.570716,0.673386,0.344703,0.397734,0.433088,452.000000,413.000000,39.000000,45.000000,0.000000,0.000000,0.570716,0.673386,0.344703,0.397734,0.433088,452.000000,413.000000,39.000000,45.000000,0.000000,0.000000:
0000
0000
0000
0000
,
0000
0000
0000
0000
,
2001
0002
0000
0000
,
0000
0000
0000
0000
3003
0000
0000
0000
0010
0000
0000
0001
0010
0000
0100
0000
,
0020
0200
0000
0000
,
0000
0000
0000
0330
,
0102
0200
0000
0000
,
0000
0000
0000
0000
0303
0000
0000
0000
1000
0000
0000
0100
1000
0000
0010
0000
,
2000
0020
0000
3030
,
0220
0000
0000
0330
,
0020
0001
0100
0100
,
1000
0000
0000
0000
0031
0000
0000
0000
0100
0000
0000
1000
0100
0000
0010
0000
,
0001
1000
0002
0000
0010
0000
0010
0000
,
0203
1000
0001
1300
,
0100
0001
0100
0001
0010
0100
0010
0100
,
1000
0010
1000
0010
0001
1000
0001
1000
,
0101
0100
1100
1000
1010
0010
0011
0001
,
1000
0000
0001
0000
1000
0010
0100
0010
0002
0000
0000
0000
0103
0000
0000
0000
,
2200
0000
0000
3000
,
0020
0000
0000
0300
,
0002
0000
0000
0030
,
2000
0000
0000
3003
,
0201
0010
0001
0001
,
2300
0001
0010
0010
,
3002
0100
1000
0100
,
0023
1000
0001
0130
,
1010
0000
0000
0101
0000
0000
0021
0000
0000
0001
0000
0000
1030
0000
0100
0000
,
0101
0000
0000
1100
0000
0000
0210
0000
0000
0010
0000
0000
0301
0000
0010
0000
,
1001
0000
0000
0110
0000
0000
2100
0000
0000
0010
0000
0000
3100
0000
0001
0000
,
0101
0000
0000
1010
0000
0000
1002
0000
0000
0000
0010
0000
0103
1000
0100
0000
,
0011
0000
0000
1100
0000
0000
1020
0000
0000
0100
0000
0000
0031
0000
1000
0000
,
0000
0000
0110
0000
0000
1001
0000
0012
0000
0100
0000
0000
1003
0000
0100
0000
,
0010
0010
1000
1000
0001
0001
0100
0100
,
0001
0010
0001
0000
0100
0001
0100
0000
0010
1000
0100
0002
2000
0000
3003
0000
,
0100
0000
0000
0010
0100
0000
0001
0000
0010
0000
0100
0000
1000
0000
0100
0000
,
1000
0000
0000
0001
1000
0000
0100
0000
0010
0000
1000
0000
0010
0000
0100
0000
,
0010
0000
0000
1000
0010
0000
0001
0000
1000
0000
0010
0000
0100
0000
0010
0000
,
0001
0000
0000
1000
0001
0000
0010
0000
0100
0000
0010
0000
1000
0000
1000
0000
,
0100
0000
0000
0010
0001
0000
1000
0000
0010
0000
0001
0000
0010
0000
0100
0000
,
0001
0000
0000
1000
0100
0000
0010
0000
0100
0000
0001
0000
1000
0000
0100
0000
,
0001
0000
0000
0010
1000
0000
0100
0000
0001
0000
1000
0000
0010
0000
0100
0000
,
0001
0000
1000
0001
1000
0000
0010
0000
0100
0010
0100
0000
0001
0000
0001
0000
,
1100
0000
0000
0001
0100
0000
0001
0000
0010
0100
0000
1000
0100
0000
0001
0000
,
0010
0000
0000
1000
0100
0000
1000
0000
0001
0010
0000
1000
0100
0000
0010
0000
,
0100
0000
0000
0001
0010
0000
1000
0000
0100
0010
0000
0100
1000
0000
0100
0000
,
1000
0000
0000
0010
0001
0000
0100
0000
0010
0001
0010
0001
0100
1000
0100
0000
,
0010
0000
0000
0001
0010
0000
1000
0000
0100
1000
0000
0001
1000
0000
0010
0000
,
0100
0000
1000
0000
0001
1000
0000
0010
0100
0010
0000
0001
1000
0000
0100
0000
,
0001
0000
0000
0001
1000
0000
0010
0000
1000
0100
0000
0001
0100
0000
1000
0000
,
0020
0100
0000
0100
0030
0000
0101
0000
0000
0010
1000
0000
1001
0000
1001
0000
,
0100
0020
0000
0000
0130
0000
0000
0000
0001
0100
0001
0100
0001
0010
0000
0000
,
1000
0200
0000
0000
1300
0000
0000
0000
0010
0100
0010
0100
0010
1000
0000
0000
,
0010
0002
0000
0000
0013
0000
0000
0000
1000
0010
1000
0010
1000
0001
0000
0000
,
0001
2000
0000
0000
3001
0000
0000
0000
0100
1000
0100
1000
0100
0001
0000
0000
,
0010
2000
0000
0000
3100
0000
0000
0000
0001
0100
0001
0100
0001
0010
0000
0000
,
0100
0002
0000
0000
1003
0000
0000
0000
0100
0010
0100
0010
0100
1000
0000
0000
,
0010
0200
0000
0000
1300
0000
0000
0000
1000
0010
1000
0010
1000
0100
0000
0000
,
0001
0020
0000
0000
0130
0000
0000
0000
0010
0001
0010
0001
0010
1000
0100
0000
,
0010
0100
0000
0100
0010
0000
0100
0000
1000
0000
0001
0000
0100
0000
0001
0000
,
1000
0010
0000
0010
1000
0000
0010
0000
0100
0000
0010
0000
0100
0000
1000
0000
,
0001
0100
0000
0100
0001
0000
0100
0000
1000
0000
0100
0000
0001
0000
0100
0000
,
1010
0000
0000
0101
0000
0000
0110
0000
0000
1001
0000
0000
0010
0000
0010
0000
,
0220
0030
0001
1000
,
0010
1000
0001
0001
,
0310
1000
0100
1000
0001
0010
0100
0001
,
2001
0000
0000
0010
0000
0000
0100
0000
3100
0000
0010
0000
0011
0000
0100
0000
,
2020
3030
0000
0000
;

//---------------dance-single - ----------------
#NOTES:
     dance-single:
     :
     Medium:
     9:
     0.338389,0.408340,0.123739,0.344703,0.039773,268.000000,254.000000,14.000000,39.000000,0.000000,0.000000,0.338389,0.408340,0.123739,0.344703,0.039773,268.000000,254.000000,14.000000,39.000000,0.000000,0.000000:
0000
0000
0000
0000
,
0000
0000
0000
0000
,
0220
0000
0000
0000
,
0330
0000
1000
0001
,
2002
0000
0000
0000
,
3003
0000
0000
0000
,
0202
0000
0000
0000
,
0303
0000
0010
1000
,
2020
0000
3030
0000
,
0220
0000
0000
0330
,
2000
0000
0010
0000
,
0010
0000
3100
0001
,
0200
0000
1000
0000
,
0001
1000
1000
0300
,
0001
0010
0100
0010
,
1000
0001
0010
0001
,
0010
0100
0010
0000
1000
0001
1000
0000
,
0100
0010
0001
1000
0010
0000
1001
0000
,
0020
0000
0000
0030
,
2000
0000
0000
3000
,
0002
0000
0000
0003
,
0200
0000
0000
0300
,
0020
0000
1000
1000
,
2030
0000
0100
0100
,
3200
0000
0001
0001
,
0302
0000
0010
0013
,
1000
0000
0000
0001
0000
0000
2000
0000
0000
0000
0000
0000
3010
0000
0000
0000
,
0100
0000
0000
0001
0000
0000
0200
0000
0000
0000
0000
0000
1300
0000
0000
0000
,
0010
0000
0000
0100
0000
0000
0020
0000
0000
0000
0000
0000
1030
0000
0000
0000
,
0001
0000
0000
0010
0000
0000
0002
0000
0000
0000
0000
0000
0103
0000
0000
0000
,
0010
0000
0000
1000
0000
0000
0020
0000
0000
0000
0000
0000
0031
0000
0000
0000
,
0000
0000
1000
0000
0000
0001
0000
2000
0000
0000
0000
0000
3100
0000
0000
0000
,
0010
0010
1000
0001
,
0100
0010
0100
0010
0001
0000
1001
0000
,
0001
0000
1000
0000
0100
0000
0001
0100
,
0010
0000
1000
0000
0001
0000
0100
0010
,
0001
0000
1000
0000
0010
0000
0100
0001
,
1000
0000
0010
0000
0100
0000
0010
0010
,
0001
0000
0010
0000
1000
0000
0100
0001
,
1000
0000
0010
0000
0001
0000
1000
0100
,
0001
0000
0010
0000
0100
0000
0001
0010
,
0100
0001
1000
0110
,
0010
0000
0001
0000
0010
1000
0010
1000
,
0100
0000
1000
0000
0001
0100
0001
0100
,
0010
0000
0001
0000
1000
0001
1000
0001
,
0010
0000
0100
0000
0010
1000
0010
1000
,
0001
0000
0100
0000
0010
0100
0010
0100
,
1000
0000
0100
0000
0001
1000
0001
1000
,
0010
0000
0100
0000
0010
0001
0010
0001
,
0200
0300
0110
1001
,
2000
0000
0001
0000
3001
0100
0001
0000
,
0020
0000
0100
0000
0130
1000
0100
0000
,
0002
0000
0010
0000
0013
0100
0010
0000
,
2000
0000
0100
0000
3100
0001
0100
0000
,
0002
0000
0100
0000
1003
0100
1000
0000
,
0020
0000
1000
0000
0031
1000
0001
0000
,
0200
0000
0010
0000
0301
0010
0001
0000
,
2000
0000
0001
0000
3001
0010
0110
0000
,
0100
0000
0100
1000
0010
0100
0010
0000
,
0001
0000
0001
0010
0100
0001
0100
0000
,
0010
0000
0010
1000
0001
0010
0001
0000
,
0100
0000
0000
0001
0000
0000
0010
0000
0000
2000
0000
0000
0100
0000
3000
0000
,
0202
0303
0010
0001
,
0100
0010
0100
0001
,
1000
0010
1000
0000
0001
0100
0001
0000
,
0210
1000
0001
0301
,
0011
0000
0000
0000
;

//---------------dance-single - ----------------
#NOTES:
     dance-single:
     :
     Easy:
     6:
     0.268944,0.350006,0.159094,0.212125,0.000000,213.000000,195.000000,18.000000,24.000000,0.000000,0.000000,0.268944,0.350006,0.159094,0.212125,0.000000,213.000000,195.000000,18.000000,24.000000,0.000000,0.000000:
0000
0000
0000
0000
,
0000
0000
0000
0000
,
1001
0000
0000
0000
,
0000
0000
0100
1000
,
0100
0000
0000
0000
,
0000
0000
0000
0000
,
0110
0000
0000
0000
,
0000
0000
1000
0001
,
1000
0000
0000
0000
,
0011
0000
0000
0000
,
0010
0000
0100
0000
,
1000
0000
0001
0100
,
0001
0000
1000
0000
,
0010
0000
0001
0000
,
1000
0100
1000
0100
,
0001
0010
0001
0010
,
1000
1000
0001
0001
,
0100
0010
0200
0300
,
1001
0000
0000
0000
,
1100
0000
0000
0000
,
0101
0000
0000
0000
,
1010
0000
0000
0000
,
0102
0000
0100
0003
,
2001
0000
0001
3000
,
1200
0000
1000
0300
,
0210
0000
0010
0300
,
0100
0001
0200
0300
,
1000
0001
2000
3000
,
0010
0100
0020
0030
,
0001
1000
0002
0003
,
0100
1000
0100
0010
,
0100
0001
1000
1000
,
0010
0100
0010
0100
,
0001
1000
2002
3003
,
0100
0010
0001
0010
,
0001
0100
0010
0100
,
1000
0100
0001
0100
,
0001
1000
0010
0010
,
1000
0001
0010
0100
,
0010
1000
0100
0001
,
1000
0001
0010
0100
,
0001
0010
0100
0110
,
2000
3100
0001
0100
,
0020
0031
1000
0001
,
0200
0301
0010
0001
,
2000
3010
0100
0010
,
0200
0301
0010
1000
,
0020
0130
0001
0010
,
2000
3001
0100
0010
,
0200
0300
1000
1001
,
0010
0010
1000
0010
,
1000
1000
0001
1000
,
0001
0001
0100
0010
,
0100
0100
1000
0100
,
0010
0010
0001
0100
,
1000
1000
0010
0001
,
0100
0100
0001
0010
,
2000
3000
0001
1001
,
0010
0000
1000
0000
0010
0010
0010
0000
,
0100
0000
1000
0000
0100
0100
0100
0000
,
0001
0000
0010
0000
0001
0001
0001
0000
,
0100
0000
0010
0000
0100
0100
0100
0000
,
2002
0000
0000
3003
,
0100
0000
0010
0000
,
0001
0001
1000
1000
,
0220
0000
0000
0330
,
1001
0000
0000
0000
;

//---------------dance-single - ----------------
#NOTES:
     dance-single:
     :
     Beginner:
     4:
     0.155306,0.232453,0.079547,0.097224,0.000000,123.000000,114.000000,9.000000,11.000000,0.000000,0.000000,0.155306,0.232453,0.079547,0.097224,0.000000,123.000000,114.000000,9.000000,11.000000,0.000000,0.000000:
// measure 0
0000
0000
0000
0000
,  // measure 1
0000
0000
0000
0000
,  // measure 2
0010
0000
0000
0000
,  // measure 3
0000
0000
0100
0000
,  // measure 4
0100
0000
0000
0000
,  // measure 5
0000
0000
0000
0000
,  // measure 6
1000
0000
0000
0000
,  // measure 7
0000
0000
0001
0000
,  // measure 8
0001
0000
0000
0000
,  // measure 9
0100
0000
0000
0000
,  // measure 10
0110
0000
0000
0000
,  // measure 11
0001
0000
0000
0000
,  // measure 12
1000
0000
0000
0000
,  // measure 13
0100
0000
0000
0000
,  // measure 14
0010
0000
0010
0000
,  // measure 15
1000
0000
1000
0000
,  // measure 16
0001
0000
0001
0000
,  // measure 17
0100
0100
0100
0000
,  // measure 18
2000
0000
0000
0000
,  // measure 19
3000
0000
0000
0000
,  // measure 20
0002
0000
0000
0000
,  // measure 21
0003
0000
0000
0000
,  // measure 22
0020
0000
0000
0000
,  // measure 23
0030
0000
0000
0000
,  // measure 24
0200
0000
0000
0000
,  // measure 25
0300
0000
0000
0000
,  // measure 26
1000
0000
1001
0000
,  // measure 27
0010
0000
0110
0000
,  // measure 28
0001
0000
1001
0000
,  // measure 29
0100
0000
0110
0000
,  // measure 30
1000
1000
1000
0000
,  // measure 31
0001
0001
0001
0000
,  // measure 32
0100
0000
0010
0000
,  // measure 33
0100
0000
1001
0000
,  // measure 34
0010
0000
0100
0000
,  // measure 35
0010
0000
0001
0000
,  // measure 36
1000
0000
0100
0000
,  // measure 37
1000
0000
0010
0000
,  // measure 38
0100
0000
1000
0000
,  // measure 39
0100
0000
0001
0000
,  // measure 40
0010
0000
0100
0000
,  // measure 41
0010
0000
1000
0000
,  // measure 42
0001
0001
0001
0000
,  // measure 43
1000
0000
0100
0000
,  // measure 44
1000
1000
1000
0000
,  // measure 45
0010
0000
0100
0000
,  // measure 46
0010
0010
0010
0000
,  // measure 47
0001
0000
0100
0000
,  // measure 48
0001
0001
0001
0000
,  // measure 49
1001
0000
0000
0000
,  // measure 50
0010
0000
0100
0100
,  // measure 51
0100
0000
1000
1000
,  // measure 52
1000
0000
0001
0001
,  // measure 53
0001
0000
0010
0010
,  // measure 54
0010
0000
0100
0100
,  // measure 55
0100
0000
1000
1000
,  // measure 56
1000
0000
0001
0001
,  // measure 57
0001
0000
0110
0000
,  // measure 58
0200
0300
1000
0000
,  // measure 59
2000
3000
0001
0000
,  // measure 60
0002
0003
0010
0000
,  // measure 61
0020
0030
0100
0000
,  // measure 62
0200
0000
0300
0000
,  // measure 63
1000
0000
0010
0000
,  // measure 64
0100
0000
0001
0000
,  // measure 65
0220
0000
0000
0330
;
