#VERSION:0.83;
#TITLE:THE LYCANTHROPE;
#SUBTITLE:;
#ARTIST:L.E.D.;
#TITLETRANSLIT:;
#SUBTITLETRANSLIT:;
#ARTISTTRANSLIT:;
#GENRE:;
#ORIGIN:;
#CREDIT:;
#BANNER:THE LYCANTHROPE.png;
#BACKGROUND:THE LYCANTHROPE-bg.png;
#PREVIEWVID:;
#JACKET:THE LYCANTHROPE-jacket.png;
#CDIMAGE:;
#DISCIMAGE:;
#LYRICSPATH:;
#CDTITLE:;
#MUSIC:THE LYCANTHROPE.ogg;
#OFFSET:-0.356229;
#SAMPLESTART:76.164833;
#SAMPLELENGTH:15.000000;
#SELECTABLE:YES;
#BPMS:0.000=155.000;
#STOPS:;
#DELAYS:;
#WARPS:;
#TIMESIGNATURES:0.000=4=4;
#TICKCOUNTS:0.000=4;
#COMBOS:0.000=1;
#SPEEDS:0.000=1.000=0.000=0;
#SCROLLS:0.000=1.000;
#FAKES:;
#LABELS:0.000=Song Start;
#BGCHANGES:;
#KEYSOUNDS:;
#ATTACKS:
;

//---------------dance-single - ----------------
#NOTEDATA:;
#CHARTNAME:;
#STEPSTYPE:dance-single;
#DESCRIPTION:;
#CHARTSTYLE:;
#DIFFICULTY:Hard;
#METER:13;
#RADARVALUES:0.582885,0.720514,0.180708,0.171197,0.123642,429.000000,410.000000,19.000000,18.000000,0.000000,0.000000,0.000000,0.000000,0.000000,0.582885,0.720514,0.180708,0.171197,0.123642,429.000000,410.000000,19.000000,18.000000,0.000000,0.000000,0.000000,0.000000,0.000000;
#CREDIT:;
#NOTES:
0000
0000
0000
0000
,
0000
0000
0000
0000
,
0000
0000
0000
0000
,
0000
0000
0000
0000
,
0000
0000
0000
0000
,
0010
0001
0100
0000
0110
0000
1000
0001
,
1000
0000
0101
0000
0100
1000
0100
0000
,
0001
0000
1000
0000
0010
0000
1000
0000
0100
0000
0000
0101
0000
0000
0010
1000
,
0010
0000
0000
1100
0000
0000
0001
0010
0001
0000
0010
0000
0100
0000
1000
0000
,
0010
0000
0100
0000
0001
0000
0000
0000
1000
0000
0000
0010
0000
0000
0100
0000
,
0001
0000
1000
0000
0001
0000
0100
0000
0010
0000
0000
0100
0000
0000
1000
0000
,
0001
0000
0100
0000
0010
0000
1000
0000
0001
0000
0000
1000
0000
0000
0001
0000
,
0010
0000
0100
0000
0001
0000
1000
0000
1000
0000
0000
0100
0000
0000
0010
0000
,
0001
0000
0100
0000
0010
0000
0000
0000
0001
0000
0000
1000
0000
0000
0100
0000
,
0010
0000
1000
0000
0100
0000
0100
0000
0010
0000
0000
1000
0000
0000
0001
0000
,
0100
1000
0100
0001
0010
0100
0010
1000
,
0001
0000
0000
0011
0000
0000
0100
0000
0100
0000
0000
1010
0000
0001
1000
0001
,
1000
0000
0010
0000
0100
0000
0000
0000
0001
0000
0000
1000
0000
0000
0010
0000
,
0100
0000
0001
0000
1000
0000
0010
0000
0100
0000
0000
0001
0000
0000
0100
0000
,
0010
0000
1000
0000
0001
0000
0000
0000
0100
0000
0000
1000
0000
0000
0010
0000
,
0100
0000
0001
0000
0100
0000
0010
0000
0100
0000
0000
0001
0000
0000
0010
0000
,
1000
0000
0001
0000
1000
0000
0000
0000
0010
0000
0000
1000
0000
0000
0100
0000
,
0001
0000
1000
0000
0001
0000
0100
0000
1000
0000
0000
0001
0000
0000
0000
0000
,
1001
1000
0010
0000
1100
0100
0010
0000
,
0100
0000
0000
1001
0000
0000
0010
0000
1000
0000
0100
0000
0010
0000
0100
0000
,
0001
0000
1000
0000
0010
0000
1000
1000
,
0100
0001
0010
0000
0001
0000
0100
0001
,
1000
0000
0100
0010
0100
0000
0001
1000
,
0100
0010
0100
0001
1000
0000
1001
0000
,
0010
1000
0001
0000
0100
1000
0010
0000
,
0001
0100
0001
0010
1000
0000
0100
0001
,
1000
0100
0010
0001
1000
0000
0001
1000
,
0010
0010
0100
0100
0001
1000
0100
0000
,
0020
0001
0130
1000
0200
0010
0301
1000
,
0002
0010
0103
0010
2000
0100
0010
0100
,
3002
0100
1003
0010
2000
0100
3001
0010
,
0200
1000
0310
0001
0020
1000
0100
0100
,
0031
0100
0001
0010
1000
0100
0010
0001
,
0100
0010
0001
0001
1000
1000
0100
0100
,
0010
1000
0001
0100
0010
0100
0001
1000
,
0010
0001
1000
0010
0100
0100
0001
0010
,
0220
0000
0000
0000
,
0000
0000
0000
0330
,
2200
0000
0000
0000
,
0000
0000
0000
3300
,
0001
0010
0100
0010
1000
0100
0001
0010
,
1000
1000
0100
0100
0001
0010
0001
0100
,
1000
0010
0010
0100
0001
0001
1000
0010
,
1000
0001
1000
0000
0010
0001
0010
0000
0100
1000
0100
1000
0010
0001
0100
0000
,
1001
0000
0100
0010
1000
0100
0001
1000
,
1000
0100
0010
0100
0001
0010
0100
0010
,
0101
0000
1000
0010
0100
0001
0100
0010
,
1000
0100
1000
0001
0010
0001
0100
0010
,
0011
0000
0100
0010
1000
1000
0001
1000
,
0010
1000
0100
0001
1000
0010
0100
0010
,
1010
0000
1000
0010
1000
0001
0100
0010
,
0001
0001
0100
0010
1000
0100
0010
0100
,
2000
0000
3001
0010
0100
0001
0100
0010
,
1000
1000
0010
0100
0001
0100
0010
1000
,
0020
0000
0130
0100
0001
1000
0010
0100
,
0001
1000
0010
0100
1000
0001
0010
0001
,
2000
0100
3001
0100
0010
0100
1000
0001
,
0200
0010
0301
1000
0010
0100
0001
1000
,
0010
0010
0001
0001
0100
0100
1000
1000
,
0010
1000
0100
0001
0011
1000
0110
0010
,
2002
0000
0000
0000
0000
0000
0000
3003
;

//---------------dance-single - ----------------
#NOTEDATA:;
#CHARTNAME:;
#STEPSTYPE:dance-single;
#DESCRIPTION:;
#CHARTSTYLE:;
#DIFFICULTY:Medium;
#METER:8;
#RADARVALUES:0.429351,0.463659,0.199730,0.228263,0.014266,316.000000,295.000000,21.000000,24.000000,0.000000,0.000000,0.000000,0.000000,0.000000,0.429351,0.463659,0.199730,0.228263,0.014266,316.000000,295.000000,21.000000,24.000000,0.000000,0.000000,0.000000,0.000000,0.000000;
#CREDIT:;
#NOTES:
0000
0000
0000
0000
,
0000
0000
0000
0000
,
0000
0000
0000
0000
,
0000
0000
0000
0000
,
0000
0000
0000
0000
,
1000
0000
0001
0000
1000
0000
0100
1000
,
0100
0000
0010
0000
1000
0000
0010
0001
,
0010
0000
1000
0100
0010
0000
0001
0100
,
0010
0001
1000
1001
,
0020
0000
1000
0000
0130
0000
0100
1000
,
0001
0000
0010
0100
1000
0000
0010
0000
,
0200
0000
0001
0000
0310
0000
1000
0001
,
0010
0000
1000
0001
0100
0001
1000
0000
,
0002
0000
0010
0000
1003
0000
0001
1000
,
0100
0000
0010
1000
0100
0000
0010
0000
,
0002
0000
1003
0010
2000
0000
3100
0001
,
0100
0000
0000
1000
0000
0000
0100
0000
0010
0000
0000
1000
0000
0000
0001
0000
,
2000
3010
0100
0001
,
0100
0100
1000
0101
,
0010
1000
0110
0001
,
0100
0011
0001
1100
,
0100
0001
0100
0000
0001
0010
0001
0000
,
0010
1000
0010
0000
1000
0100
1000
0000
,
1010
0000
0001
0010
0100
0010
0001
0000
,
1000
0000
0000
0001
0000
0000
0010
0000
1000
0000
0000
0000
0110
0000
0000
0000
,
0020
1000
0001
1030
,
0100
0000
1000
0000
0010
0000
0100
1000
,
0200
0010
1000
0310
,
0100
1000
0100
0010
0001
0000
0001
0100
,
0002
0010
0100
0013
,
0100
0100
0010
0000
1000
1000
0100
0000
,
2000
0001
0010
3001
,
0010
0100
0001
0000
1010
0000
1100
0000
,
2000
0000
3100
0010
0200
0000
0301
1000
,
0020
0000
1030
0100
0002
0000
2003
0000
,
3020
0000
0130
1000
0002
0000
0013
1000
,
0200
0000
0310
0001
1000
0000
1010
0000
,
0100
0010
1000
0000
1000
0100
0010
0000
,
0010
1000
0001
0000
0001
0100
0010
0000
,
1000
0001
0100
1000
,
0001
1000
0010
0100
1000
0000
0101
0000
,
2000
0000
0000
0000
,
0000
0000
0000
0000
,
0200
0000
0000
0000
,
0000
0000
0000
3300
,
0010
0001
0010
1000
,
0100
0001
0100
1000
,
0001
0010
1000
0000
0100
1000
0010
0000
,
0001
0100
1000
0100
0001
0010
1000
0000
,
0210
0000
1300
0000
0001
0000
0010
0001
,
0100
0000
0100
1000
0010
0001
1000
0000
,
0102
0000
0013
0000
0100
0000
0010
1000
,
0001
0000
0001
0100
0010
1000
0010
0000
,
2001
0000
3100
0000
0001
0000
0010
0100
,
0001
0000
0100
0010
1000
0100
1000
0000
,
0021
0000
1030
0000
0100
1000
0001
0000
,
0010
1000
0001
0010
0001
0000
1001
0000
,
0001
0000
1000
0000
0001
0000
1000
0010
,
0001
0000
0100
0000
0001
0000
0100
0010
,
1000
0000
0010
0000
1000
0000
0010
0100
,
0010
0000
0100
1000
0001
1000
0010
0000
,
0001
0000
0010
0000
0011
0000
0100
0001
,
0100
0000
0001
0000
0101
0000
0100
1000
,
0010
0000
0100
0001
0100
0000
0010
0100
,
0010
1000
0100
0000
0011
0000
1010
0000
,
1001
0000
0000
0000
;

//---------------dance-single - ----------------
#NOTEDATA:;
#CHARTNAME:;
#STEPSTYPE:dance-single;
#DESCRIPTION:;
#CHARTSTYLE:;
#DIFFICULTY:Easy;
#METER:4;
#RADARVALUES:0.235056,0.278195,0.066577,0.190219,0.000000,173.000000,166.000000,7.000000,20.000000,0.000000,0.000000,0.000000,0.000000,0.000000,0.235056,0.278195,0.066577,0.190219,0.000000,173.000000,166.000000,7.000000,20.000000,0.000000,0.000000,0.000000,0.000000,0.000000;
#CREDIT:;
#NOTES:
0000
0000
0000
0000
,
0000
0000
0000
0000
,
0000
0000
0000
0000
,
0000
0000
0000
0000
,
0000
0000
0000
0000
,
0100
0000
0001
0000
,
0010
0000
1000
0000
,
0010
1000
0100
0001
,
0010
0000
1001
0000
,
0020
0000
1030
0000
,
0010
0001
0010
0000
,
0002
0000
1003
0000
,
0100
0010
0100
0000
,
2000
0000
3100
0000
,
1000
0010
1000
0000
,
0200
0000
1300
0010
,
0001
0010
0100
0000
,
0100
1000
0100
0000
,
0010
0010
0100
0000
,
0001
1000
0001
0000
,
0100
0100
0001
0000
,
0010
0100
0010
0000
,
1000
0010
1000
0000
,
0001
1000
0001
0010
,
0100
0001
0100
0000
,
2000
3000
0100
0001
,
0010
0100
0002
0003
,
0020
0030
1000
1000
,
0100
1000
0200
0300
,
0002
0003
0010
0001
,
0010
0100
2000
3000
,
0200
0300
1000
0010
,
2000
3000
2002
3003
,
0010
0000
0100
0000
,
1000
1000
0100
0001
,
0010
0000
0001
0000
,
0100
0100
0010
1000
,
0001
0000
1001
0000
,
0010
1000
0100
1000
,
0010
0000
0110
0000
,
0100
0001
0010
1000
,
0010
0000
0000
0000
,
0000
0000
0000
0000
,
0100
0000
0000
0000
,
0000
0000
0000
0000
,
0001
0000
1001
0000
,
0100
0000
0110
0000
,
1000
0100
0001
0100
,
1000
0000
0220
0330
,
0001
0000
0100
1000
,
0010
0000
1000
1000
,
0001
0000
0001
0010
,
0001
1000
0100
0000
,
0001
0000
0010
0010
,
0100
0000
0010
1000
,
0010
0000
0100
0010
,
1000
0001
1000
0000
,
0100
0001
0200
0000
,
0310
1000
0020
0000
,
0031
1000
0002
0000
,
1003
0010
2000
0000
,
3100
0010
0100
0000
,
0010
0100
1000
0000
,
0100
1000
0010
0100
,
1000
1000
0001
0001
,
0010
0000
0000
0000
;

//---------------dance-single - ----------------
#NOTEDATA:;
#CHARTNAME:;
#STEPSTYPE:dance-single;
#DESCRIPTION:;
#CHARTSTYLE:;
#DIFFICULTY:Beginner;
#METER:3;
#RADARVALUES:0.145382,0.247285,0.038044,0.114131,0.000000,107.000000,103.000000,4.000000,12.000000,0.000000,0.000000,0.000000,0.000000,0.000000,0.145382,0.247285,0.038044,0.114131,0.000000,107.000000,103.000000,4.000000,12.000000,0.000000,0.000000,0.000000,0.000000,0.000000;
#CREDIT:;
#NOTES:
// measure 0
0000
0000
0000
0000
,  // measure 1
0000
0000
0000
0000
,  // measure 2
0000
0000
0000
0000
,  // measure 3
0000
0000
0000
0000
,  // measure 4
0000
0000
0000
0000
,  // measure 5
1000
0000
0000
0000
,  // measure 6
0001
0000
0000
0000
,  // measure 7
1000
0000
0000
0000
,  // measure 8
0010
0000
0010
0000
,  // measure 9
0200
0000
0300
0000
,  // measure 10
0001
0000
1000
0000
,  // measure 11
0002
0000
0003
0000
,  // measure 12
0010
0000
1000
0000
,  // measure 13
0020
0000
0030
0000
,  // measure 14
0100
0000
0001
0000
,  // measure 15
0200
0000
0300
0000
,  // measure 16
1000
0000
1000
0000
,  // measure 17
1001
0000
0000
0000
,  // measure 18
0100
0000
0010
0000
,  // measure 19
0100
0000
0000
0000
,  // measure 20
1000
0000
0100
0000
,  // measure 21
1000
0000
0000
0000
,  // measure 22
0001
0000
0010
0000
,  // measure 23
0001
0000
0000
0000
,  // measure 24
0110
0000
0000
0000
,  // measure 25
1000
0000
0001
0000
,  // measure 26
1000
0000
1000
0000
,  // measure 27
0010
0000
0100
0000
,  // measure 28
0010
0000
0010
0000
,  // measure 29
0001
0000
0100
0000
,  // measure 30
0001
0000
0001
0000
,  // measure 31
0010
0000
0001
0000
,  // measure 32
0010
0000
0010
0000
,  // measure 33
0200
0000
0300
0000
,  // measure 34
0002
0000
0003
0000
,  // measure 35
2000
0000
3000
0000
,  // measure 36
0020
0000
0030
0000
,  // measure 37
1000
1000
1000
0000
,  // measure 38
0001
0001
0001
0000
,  // measure 39
0010
0010
0010
0000
,  // measure 40
0100
0100
0100
0000
,  // measure 41
1001
0000
0000
0000
,  // measure 42
0000
0000
0000
0000
,  // measure 43
0000
0000
0000
0000
,  // measure 44
0000
0000
0000
0000
,  // measure 45
0010
0000
0010
0000
,  // measure 46
0100
0000
0100
0000
,  // measure 47
1000
0000
0001
0000
,  // measure 48
1000
1000
1000
0000
,  // measure 49
0020
0000
0030
0000
,  // measure 50
0100
0000
0100
0000
,  // measure 51
0200
0000
0300
0000
,  // measure 52
1000
0000
1000
0000
,  // measure 53
2000
0000
3000
0000
,  // measure 54
0001
0000
0001
0000
,  // measure 55
0002
0000
0003
0000
,  // measure 56
0010
0000
0110
0000
,  // measure 57
1000
1000
1000
0000
,  // measure 58
0100
0000
0001
0000
,  // measure 59
0100
0100
0100
0000
,  // measure 60
0010
0000
0100
0000
,  // measure 61
0010
0010
0010
0000
,  // measure 62
0001
0000
1000
0000
,  // measure 63
0001
0001
0001
0000
,  // measure 64
0100
0000
0010
0000
,  // measure 65
0100
0000
0000
0000
;
