#VERSION:0.83;
#TITLE:TENGU;
#SUBTITLE:;
#ARTIST:Jimmy Weckl;
#TITLETRANSLIT:;
#SUBTITLETRANSLIT:;
#ARTISTTRANSLIT:;
#GENRE:;
#ORIGIN:;
#CREDIT:;
#BANNER:TENGU.png;
#BACKGROUND:TENGU-bg.png;
#PREVIEWVID:;
#JACKET:TENGU-jacket.png;
#CDIMAGE:;
#DISCIMAGE:;
#LYRICSPATH:;
#CDTITLE:;
#MUSIC:TENGU.ogg;
#OFFSET:-1.748976;
#SAMPLESTART:106.833183;
#SAMPLELENGTH:12.580643;
#SELECTABLE:YES;
#BPMS:0.000=155.000;
#STOPS:;
#DELAYS:;
#WARPS:;
#TIMESIGNATURES:0.000=4=4;
#TICKCOUNTS:0.000=4;
#COMBOS:0.000=1;
#SPEEDS:0.000=1.000=0.000=0;
#SCROLLS:0.000=1.000;
#FAKES:;
#LABELS:0.000=Song Start;
#BGCHANGES:4.000=TENGU.avi=1.000=0=0=0=StretchNoLoop====,
99999=-nosongbg-=1.000=0=0=0 // don't automatically add -songbackground-
;
#KEYSOUNDS:;
#ATTACKS:
;

//---------------dance-single - ----------------
#NOTEDATA:;
#CHARTNAME:;
#STEPSTYPE:dance-single;
#DESCRIPTION:;
#CHARTSTYLE:;
#DIFFICULTY:Hard;
#METER:13;
#RADARVALUES:0.564120,0.780001,0.519584,0.559552,0.303757,494.000000,429.000000,65.000000,70.000000,0.000000,0.000000,0.000000,0.000000,0.000000,0.564120,0.780001,0.519584,0.559552,0.303757,494.000000,429.000000,65.000000,70.000000,0.000000,0.000000,0.000000,0.000000,0.000000;
#CREDIT:;
#NOTES:
0000
0000
0000
0000
,
0000
0000
0000
0000
,
0000
0000
0000
0000
,
0000
0000
0000
0000
,
0000
0000
0000
0000
,
0010
0000
0000
0000
1000
0001
0000
2002
0000
0000
0000
0000
0000
0000
3000
0000
,
0100
0000
1000
0000
0103
1000
0010
1000
,
0001
0000
0000
0000
0100
1000
0000
2200
0000
0000
0000
0000
0000
0000
0300
0000
,
0010
0000
0001
0000
3010
0100
0001
0000
,
2000
0000
0100
0000
3100
0000
0000
0020
0000
0000
1000
0000
1030
0000
0100
0001
,
0100
0010
1000
0020
0000
0000
0000
0000
0000
0000
0000
0000
0000
0000
0030
0000
,
1000
0000
0101
0000
0001
0010
0100
0000
,
0100
1000
0001
0001
0000
1000
0010
2000
,
0000
0000
3010
0200
0000
0010
0000
0310
,
0001
0022
0000
0033
0100
2200
0000
3300
,
0001
0000
1010
0000
0100
0010
0100
0000
,
1000
0100
0001
0100
0000
0010
1000
0020
,
0000
0000
1030
0002
0000
0100
0000
0103
,
0010
2020
0000
3030
0001
0202
0000
0303
,
0010
0000
1100
0100
0000
0001
1000
0010
,
0000
0001
0010
0100
0000
0100
1000
1002
,
0000
0000
1003
0020
0000
0001
0000
0031
,
0200
0000
0310
2000
0000
0100
0100
3000
,
0001
0000
0101
0100
0000
0010
0100
1000
,
0000
0100
1000
0001
0000
0010
0100
0120
,
0000
0000
0130
0002
0000
1000
1000
0003
,
1000
0000
0010
0000
0100
0000
0011
0000
0110
0000
1010
0000
,
0100
0010
0100
1000
0001
0010
0110
0000
,
2000
0000
0000
0001
0000
0000
0001
0000
3010
0000
0100
0000
0010
0000
2000
0000
,
0000
3200
0000
0320
0000
0230
0000
0302
,
0000
0000
1003
0000
0021
0000
0000
0000
1000
0000
0001
0000
1030
0000
0100
1000
,
0100
0000
0010
0000
0100
0000
0100
0001
0000
0000
1010
0000
0000
0000
0220
0000
,
0000
0030
0301
1000
0001
1000
0010
0002
,
0000
0203
0000
2300
0000
3200
0000
0320
,
0000
1030
2000
0000
0001
0010
0001
3000
,
0100
1000
0100
0001
0010
1010
0100
0201
,
0000
0000
0310
1000
0010
0100
0001
0020
,
0000
0032
0000
0023
0000
0230
0000
2300
,
0000
0010
3002
0000
0103
0010
0110
0000
,
1000
0000
0001
0000
1000
0000
0001
0000
1000
0000
0001
0000
0010
0000
0000
1100
0000
0000
0000
0000
0000
1002
0000
0000
,
0000
0100
0003
0010
0001
0010
0100
2000
,
0000
3020
0000
2030
0000
3002
0000
0203
,
0000
0301
0020
0000
0000
1000
0000
1000
,
0030
0001
0000
1000
0000
0100
0000
1000
0000
0001
1000
0000
0000
0000
1000
0000
,
0000
0000
0010
0000
0100
0001
0000
0010
0000
0000
0100
0000
1000
0100
0000
1000
,
0000
0000
0010
0000
0001
0010
0000
0100
0000
0000
0010
0000
0100
0001
0000
0010
,
0000
0000
1000
0000
0001
1000
0000
0001
0000
0000
0100
0000
0010
0001
0000
0010
,
0000
0000
0100
0000
0100
1000
0000
0010
0000
0000
1000
0000
0001
1000
0000
0110
,
0000
0000
0010
0000
1000
0010
0000
1001
0000
0000
0100
0000
0010
0001
0000
1100
,
0000
0000
0001
0000
1000
0100
0000
0011
0000
0000
0010
0000
0001
0010
0000
0101
,
0000
0000
0100
0000
0100
0010
0000
1001
0000
0000
1000
0000
0001
0100
0000
1010
,
0000
0000
0010
0000
1000
0100
0000
0110
0000
0000
1000
0000
1000
0001
0000
0000
,
0010
0100
1000
0010
1000
0001
0000
0101
,
0000
1100
0000
0110
0000
0001
0022
0000
,
0003
0000
0000
0000
0100
0000
0000
0000
0001
0000
0000
0000
1000
0000
1000
0030
,
0000
0001
0010
0100
0000
1000
0102
0000
,
0000
0000
0103
1000
0000
0010
0000
0110
,
0000
0001
0000
1100
0000
0010
2020
0000
,
0030
0000
3010
0001
0000
1000
0001
0200
,
0000
0010
1300
0100
2000
0002
0000
3003
,
0000
0010
0001
0100
0000
1000
0000
0101
,
0000
0001
0000
0011
0000
0010
0210
0000
,
0000
0000
0010
0000
0001
0010
0301
0010
,
0000
1000
0100
0001
0000
0001
2001
0000
,
0000
0000
0010
0001
3010
0100
0000
1100
,
0000
0010
0000
0101
0000
1000
1200
0000
,
0000
0000
1000
0002
0300
0010
1003
0100
,
0000
0001
0010
0001
0100
1000
0000
1001
,
0000
0000
0010
0000
0100
0010
0000
1010
0000
0000
0100
0000
1000
0010
0000
1100
,
0000
0000
0001
0000
0010
0100
0000
0101
0000
0000
0010
0000
1000
0010
0000
0110
,
0000
0000
0001
0000
0001
1000
0000
0011
0000
0000
0100
0000
0100
0001
0000
1010
,
0000
0000
0010
0000
0010
1000
0000
1001
0000
0000
1000
0000
1000
0010
0000
0110
,
0000
0001
0001
0100
0100
0010
0010
1000
,
1000
0001
0100
0010
0100
1000
0001
0010
,
0100
1100
0010
0110
0001
0101
0010
1010
,
0100
0000
1001
0000
0100
0000
1100
0000
0010
0000
0011
0000
0010
1000
0000
0000
,
1020
0000
0001
0000
0031
0000
0000
2001
0000
0000
0100
0000
3001
0000
0010
0100
,
0010
1000
0002
0200
0000
0000
0000
0000
0000
0000
0000
0000
0000
0000
0000
0000
,
0000
0303
0000
0000
0000
0000
0000
0000
0000
0000
0000
0000
0000
0000
0000
0000
;

//---------------dance-single - ----------------
#NOTEDATA:;
#CHARTNAME:;
#STEPSTYPE:dance-single;
#DESCRIPTION:;
#CHARTSTYLE:;
#DIFFICULTY:Medium;
#METER:10;
#RADARVALUES:0.449926,0.561601,0.359712,0.271783,0.139888,394.000000,349.000000,45.000000,34.000000,0.000000,0.000000,0.000000,0.000000,0.000000,0.449926,0.561601,0.359712,0.271783,0.139888,394.000000,349.000000,45.000000,34.000000,0.000000,0.000000,0.000000,0.000000,0.000000;
#CREDIT:;
#NOTES:
0000
0000
0000
0000
,
0000
0000
0000
0000
,
0000
0000
0000
0000
,
0000
0000
0000
0000
,
0000
0000
0000
0000
,
0200
0000
0000
0000
0301
0000
0000
2200
0000
0000
0000
0000
3300
0000
0000
0000
,
0100
0000
0010
0000
0100
0000
0010
0100
,
0002
0000
0000
0000
0103
0000
0000
0220
0000
0000
0000
0000
0330
0000
0000
0000
,
1000
0000
0010
0000
1000
0010
0001
0000
,
1100
0000
0000
0000
0100
0000
0000
0101
0000
0000
0000
0000
0001
0000
0010
0000
,
0100
0000
0000
2002
0000
0000
0000
0000
0000
0000
0000
0000
3003
0000
0000
0000
,
0001
0101
0010
1010
,
0001
0000
0100
1000
0000
0010
0001
1000
,
0000
0000
0001
0100
0000
0010
0100
0000
,
0001
0011
0000
0000
0100
0101
0000
0000
,
0010
0011
1000
1010
,
0100
0000
1000
0001
0000
0100
0001
0010
,
0000
0000
1000
0001
0000
1000
0010
0000
,
0010
1010
0000
0000
1000
1001
0000
0000
,
0100
0000
0001
0010
0000
0100
0000
0010
,
0000
1000
0000
0010
0000
0100
0010
0001
,
0000
0000
0100
0010
0000
0100
1000
0000
,
0100
0000
0010
1000
0000
0100
0100
0000
,
0101
0000
1000
0001
0000
1000
0000
0010
,
0000
0100
0000
0001
0000
1000
0100
0010
,
0000
0000
1000
0001
0000
1000
0001
0000
,
0010
0000
1000
0000
0010
0000
1000
0000
0100
0000
0001
0000
,
0010
0100
0100
1001
,
2000
0000
3000
0001
0100
1000
0000
0001
,
0000
0110
0000
0010
0000
1100
0000
0001
,
0000
0100
0020
0000
0100
0000
0130
0001
,
0010
1000
0100
0010
0000
1010
0000
2002
,
0000
3003
0000
0100
0010
0100
0000
0001
,
0000
0100
0000
1000
0000
0100
0000
0010
,
0000
0001
2000
0000
0010
0000
3010
0000
,
0001
0000
0100
0000
1000
0100
0001
0200
,
0000
0000
1300
0010
0001
0010
0000
0100
,
0000
0001
0000
0010
0000
0100
0000
1000
,
0000
0010
0002
0000
1000
0000
1003
0000
,
1000
0000
0000
0000
0010
0000
0000
0000
0001
0000
0000
0000
0100
0000
0000
0010
0000
0000
0000
0000
0000
0021
0000
0000
,
0000
0000
0031
0100
1000
0001
0000
1000
,
0000
0010
0000
1000
0000
0001
0000
0100
,
0000
1000
0020
0000
0000
0000
0030
0000
,
1000
0000
0001
0000
0100
0001
0000
1001
,
0000
0000
0010
0000
0001
0000
0000
0100
0000
0000
0010
0000
1000
0000
0000
0001
,
0000
0000
0100
0000
0010
0000
0000
1000
0000
0000
0010
0000
0100
0000
0000
1000
,
0000
0000
0100
0000
0001
0000
0000
0010
0000
0000
0001
0000
1000
0000
0000
0001
,
0000
0000
0100
0000
0010
0000
0000
0100
0000
0000
0010
0000
0001
0000
0000
2000
,
0000
0000
0001
0000
3001
0000
0000
0020
0000
0000
1000
0000
1030
0000
0000
0002
,
0000
0000
0010
0000
0013
0000
0000
0200
0000
0000
0001
0000
0301
0000
0000
1020
,
0000
0000
0100
0000
0130
0000
0000
2001
0000
0000
0010
0000
3010
0000
0000
0210
,
0000
0000
0001
0000
0301
0000
0000
2100
0000
0000
0010
0000
3100
0000
0000
0000
,
0010
0000
0001
0000
0010
1000
0000
0110
,
0000
0100
0000
0011
0000
1000
1002
0000
,
0013
1000
0100
1000
,
0000
0100
0001
0010
0000
0001
0020
0000
,
1030
0000
0100
0010
0000
0110
0000
0010
,
0000
1010
0000
0100
0000
0001
0020
0000
,
1030
0000
0100
0001
0000
0100
0000
0011
,
0000
1000
0010
0001
0000
0001
0100
0000
,
1000
0000
0100
0000
0001
1000
0000
0001
,
0000
0010
0000
1000
0000
0010
0200
0000
,
0301
0000
1000
0000
0010
0100
0000
0001
,
0000
1000
0100
0001
0000
0010
2000
0000
,
3001
0000
0100
0000
0001
0010
0000
1000
,
0000
0100
0000
0010
0000
1000
0002
0000
,
0103
0000
0001
0000
0100
0000
0010
1000
,
0000
0010
1000
0001
0000
0010
0000
1010
,
0000
0000
0100
0000
1000
0000
0000
0001
0000
0000
0010
0000
0100
0000
0000
0001
,
0000
0000
0001
0000
0010
0000
0000
0100
0000
0000
1000
0000
0100
0000
0000
0110
,
0000
0000
1000
0000
0010
0000
0000
1100
0000
0000
0001
0000
0100
0000
0000
0101
,
0000
0000
1000
0000
1000
0000
0000
0011
0000
0000
0100
0000
0100
0000
0000
2100
,
0000
0100
3000
0101
0000
0001
0000
0011
,
0000
1000
0000
1001
0000
1100
0000
0110
,
0000
1000
0001
1000
0000
0100
0001
0100
,
0000
0001
0010
0001
0000
0010
0010
0000
,
0011
0000
1000
0000
0100
0000
0000
1100
0000
0000
0001
0000
0100
0000
1000
0000
,
0100
0000
0000
0220
0000
0000
0000
0000
0000
0000
0000
0000
0000
0000
0000
0000
,
0000
0330
0000
0000
0000
0000
0000
0000
0000
0000
0000
0000
0000
0000
0000
0000
;

//---------------dance-single - ----------------
#NOTEDATA:;
#CHARTNAME:;
#STEPSTYPE:dance-single;
#DESCRIPTION:;
#CHARTSTYLE:;
#DIFFICULTY:Easy;
#METER:6;
#RADARVALUES:0.295763,0.401054,0.183853,0.439648,0.003997,259.000000,236.000000,23.000000,55.000000,0.000000,0.000000,0.000000,0.000000,0.000000,0.295763,0.401054,0.183853,0.439648,0.003997,259.000000,236.000000,23.000000,55.000000,0.000000,0.000000,0.000000,0.000000,0.000000;
#CREDIT:;
#NOTES:
0000
0000
0000
0000
,
0000
0000
0000
0000
,
0000
0000
0000
0000
,
0000
0000
0000
0000
,
0000
0000
0000
0000
,
0100
0001
0020
0000
,
0000
0030
0100
1000
,
0100
0010
2000
0000
,
0000
3000
0001
0010
,
0200
0301
0002
1003
,
0100
2002
0000
3003
,
0010
0000
0100
0010
,
1000
0000
1000
0001
,
0010
0000
0100
0001
,
0020
0030
0220
0330
,
0100
0000
0001
1000
,
0010
0000
0100
0010
,
0001
0000
1000
0100
,
0002
0003
2002
3003
,
0010
1000
0100
0100
,
1000
0010
0001
0001
,
0020
0030
0002
0003
,
1000
0010
2000
3000
,
0100
0100
0001
0001
,
0100
0010
0100
1000
,
0002
0003
0200
0300
,
0020
1030
0002
1003
,
0220
0000
0000
0330
,
2000
0000
3100
0010
,
0001
1000
0010
0001
,
0200
0300
0002
0003
,
0010
1000
0200
0300
,
2002
3003
0010
0010
,
0001
1000
0100
0001
,
0010
0010
0100
1000
,
0001
1000
0020
0030
,
0220
0330
0010
0001
,
0100
0100
0001
0010
,
2000
3000
0020
0030
,
0100
0001
0100
1000
,
2002
3003
0100
0001
,
0010
0010
0001
1000
,
0001
0010
0100
0001
,
1000
0000
1001
0000
,
0020
1030
0100
1000
,
0200
0310
0001
0001
,
2000
3100
0010
0001
,
2000
3010
0001
0010
,
0100
0101
0010
1010
,
1000
1100
1000
1001
,
0010
0001
0100
0010
,
1000
0100
0001
1001
,
0020
0000
1030
0001
,
0100
0010
1000
0002
,
0000
0000
0010
0100
,
0103
1000
0010
0200
,
0000
0000
1300
0010
,
0001
0010
0001
2000
,
0000
0001
3100
1000
,
0010
1000
0200
0300
,
0020
0000
1030
0100
,
0001
0001
0010
0020
,
0000
1000
0001
0031
,
0100
0010
1000
0200
,
0000
1300
0010
1000
,
0001
0001
0100
0020
,
0000
0031
0010
0100
,
0001
0010
1000
0000
,
2002
3003
0010
0100
,
0220
0330
0100
1000
,
2200
3300
0010
0001
,
0202
0303
0010
1000
,
0100
0101
0010
0011
,
1000
1001
0100
0110
,
0010
1000
0100
0010
,
1000
0001
0010
0110
,
1000
1000
0010
0100
,
0001
0000
0000
1001
0000
0000
0000
0000
0000
0000
0000
0000
0000
0000
0000
0000
;

//---------------dance-single - ----------------
#NOTEDATA:;
#CHARTNAME:;
#STEPSTYPE:dance-single;
#DESCRIPTION:;
#CHARTSTYLE:;
#DIFFICULTY:Beginner;
#METER:3;
#RADARVALUES:0.157588,0.216127,0.055955,0.087930,0.000000,138.000000,131.000000,7.000000,11.000000,0.000000,0.000000,0.000000,0.000000,0.000000,0.157588,0.216127,0.055955,0.087930,0.000000,138.000000,131.000000,7.000000,11.000000,0.000000,0.000000,0.000000,0.000000,0.000000;
#CREDIT:;
#NOTES:
// measure 0
0000
0000
0000
0000
,  // measure 1
0100
0000
0200
0000
,  // measure 2
0300
0000
0000
0000
,  // measure 3
0001
0000
0002
0000
,  // measure 4
0003
0000
0000
0000
,  // measure 5
1000
0000
2000
0000
,  // measure 6
3000
0000
0000
0000
,  // measure 7
0010
0000
0020
0000
,  // measure 8
0030
0000
0000
0000
,  // measure 9
1000
0000
0001
0000
,  // measure 10
0000
1001
0000
0000
,  // measure 11
0010
0000
0010
0000
,  // measure 12
0010
0000
0000
0000
,  // measure 13
0100
0000
0100
0000
,  // measure 14
0100
0000
0000
0000
,  // measure 15
1000
0000
1000
0000
,  // measure 16
1000
0000
0000
0000
,  // measure 17
0001
0000
0001
0000
,  // measure 18
0001
0000
0000
0000
,  // measure 19
0010
0000
0010
0000
,  // measure 20
0100
0000
0100
0000
,  // measure 21
1000
0000
1000
0000
,  // measure 22
0001
0000
0001
0000
,  // measure 23
1000
0000
0010
0000
,  // measure 24
1000
0000
0001
0000
,  // measure 25
0100
0000
0010
0000
,  // measure 26
0100
0000
0110
0000
,  // measure 27
0000
0000
0000
0000
,  // measure 28
2000
0000
3000
0000
,  // measure 29
0001
0000
0001
0000
,  // measure 30
0002
0000
0003
0000
,  // measure 31
0100
0000
0100
0000
,  // measure 32
0200
0000
0300
0000
,  // measure 33
0010
0000
0010
0000
,  // measure 34
0020
0000
0030
0000
,  // measure 35
1000
0000
1000
0000
,  // measure 36
1001
0000
0000
0000
,  // measure 37
0010
0000
0100
0000
,  // measure 38
0010
0000
0000
0000
,  // measure 39
0001
0000
1000
0000
,  // measure 40
0001
0000
0000
0000
,  // measure 41
0100
0000
0001
0000
,  // measure 42
0100
0000
0000
0000
,  // measure 43
0110
0000
0000
0000
,  // measure 44
1000
0000
1000
0000
,  // measure 45
0001
0000
0001
0000
,  // measure 46
0010
0000
0010
0000
,  // measure 47
0100
0000
0100
0000
,  // measure 48
1000
0000
0100
0000
,  // measure 49
0001
0000
0100
0000
,  // measure 50
0010
0000
1000
0000
,  // measure 51
0010
0000
0001
0000
,  // measure 52
0000
1000
1000
0000
,  // measure 53
0100
0000
0010
0020
,  // measure 54
0000
0000
0030
0000
,  // measure 55
0001
0000
0100
0100
,  // measure 56
0000
0000
0010
0000
,  // measure 57
1000
0000
0001
0001
,  // measure 58
0000
0000
0100
0000
,  // measure 59
0010
0000
1001
0000
,  // measure 60
0000
0100
0100
0000
,  // measure 61
0010
0000
1000
2000
,  // measure 62
0000
0000
3000
0000
,  // measure 63
0100
0000
0001
0002
,  // measure 64
0000
0003
1000
0000
,  // measure 65
0100
0000
1000
1000
,  // measure 66
0000
0000
0010
0000
,  // measure 67
0100
0000
1001
0000
,  // measure 68
0010
0000
0100
0000
,  // measure 69
0010
0000
0100
0000
,  // measure 70
1000
0000
0001
0000
,  // measure 71
1000
0000
0001
0000
,  // measure 72
1000
1000
1000
0000
,  // measure 73
0010
0010
0010
0000
,  // measure 74
0100
0100
0100
0000
,  // measure 75
0001
0001
0001
0000
,  // measure 76
0010
0000
0100
0000
,  // measure 77
0000
0110
0000
0000
;
