#TITLE:Super Duper Racers;
#SUBTITLE:;
#ARTIST:kors k & Numb'n'dub;
#TITLETRANSLIT:;
#SUBTITLETRANSLIT:;
#ARTISTTRANSLIT:;
#GENRE:;
#CREDIT:;
#BANNER:Super Duper Racers.png;
#BACKGROUND:Super Duper Racers-bg.png;
#LYRICSPATH:;
#CDTITLE:;
#MUSIC:Super Duper Racers.ogg;
#OFFSET:-0.346000;
#SAMPLESTART:68.092003;
#SAMPLELENGTH:15.000000;
#SELECTABLE:YES;
#BPMS:0.000000=170.018997
;
#STOPS:
;
#BGCHANGES:;
#KEYSOUNDS:;
#ATTACKS:;

//---------------dance-single - ----------------
#NOTES:
     dance-single:
     :
     Beginner:
     4:
     0.152288,0.236893,0.042302,0.135367,0.000000,126.000000,121.000000,5.000000,16.000000,0.000000,0.000000,0.152288,0.236893,0.042302,0.135367,0.000000,126.000000,121.000000,5.000000,16.000000,0.000000,0.000000:
// measure 0
0000
0000
0000
0000
,  // measure 1
0000
0000
0000
0000
,  // measure 2
0000
0000
0000
0000
,  // measure 3
0000
0000
0000
0000
,  // measure 4
0000
0000
0000
0000
,  // measure 5
0000
0000
0000
0000
,  // measure 6
0000
0000
0000
0000
,  // measure 7
0000
0000
0000
0000
,  // measure 8
0000
0100
0000
0100
,  // measure 9
0000
1000
0000
0001
,  // measure 10
0000
1000
0000
1000
,  // measure 11
0000
0010
0000
0100
,  // measure 12
0000
0010
0000
0010
,  // measure 13
0000
0001
0000
0100
,  // measure 14
0000
0001
0000
0001
,  // measure 15
0000
1000
0000
0100
,  // measure 16
0200
0000
0300
0000
,  // measure 17
0002
0000
0003
0000
,  // measure 18
2000
0000
3000
0000
,  // measure 19
0020
0000
0030
0000
,  // measure 20
0200
0300
0002
0003
,  // measure 21
2000
3000
0020
0030
,  // measure 22
0100
0100
0100
0100
,  // measure 23
0200
0000
0300
0000
,  // measure 24
1001
0000
0000
0000
,  // measure 25
0001
0000
1000
0000
,  // measure 26
0001
0000
0000
0000
,  // measure 27
0010
0000
0001
0000
,  // measure 28
0010
0000
0000
0000
,  // measure 29
0100
0000
0010
0000
,  // measure 30
0100
0000
0000
0000
,  // measure 31
1000
0000
1000
0000
,  // measure 32
1001
0000
0000
0000
,  // measure 33
0100
0000
1000
0000
,  // measure 34
0010
0000
0010
0000
,  // measure 35
0020
0000
0030
0000
,  // measure 36
1000
0000
0001
0000
,  // measure 37
0001
0000
1000
0000
,  // measure 38
0100
0000
0100
0000
,  // measure 39
0200
0000
0300
0000
,  // measure 40
0010
0000
0000
0000
,  // measure 41
0010
0000
0000
0000
,  // measure 42
1000
0000
0000
0000
,  // measure 43
1000
0000
0000
0000
,  // measure 44
0010
0000
0010
0000
,  // measure 45
0100
0000
0100
0000
,  // measure 46
0001
0000
1000
0000
,  // measure 47
0002
0000
0003
0000
,  // measure 48
0110
0000
0000
0000
,  // measure 49
0100
0000
0100
0000
,  // measure 50
0100
0000
0000
0000
,  // measure 51
0010
0000
0010
0000
,  // measure 52
0010
0000
0000
0000
,  // measure 53
0001
0000
0001
0000
,  // measure 54
0001
0000
0000
0000
,  // measure 55
1000
0000
1000
0000
,  // measure 56
1000
1000
1000
0000
,  // measure 57
0001
0001
0001
0000
,  // measure 58
0010
0000
0100
0000
,  // measure 59
0100
0000
0010
0000
,  // measure 60
0100
0100
0100
0000
,  // measure 61
0010
0010
0010
0000
,  // measure 62
1000
0000
0001
0000
,  // measure 63
0001
0000
1000
0000
,  // measure 64
0220
0000
0000
0000
,  // measure 65
0330
0000
0000
0000
,  // measure 66
1000
0000
1000
0000
,  // measure 67
0001
0000
0001
0000
,  // measure 68
0100
0000
0010
0000
,  // measure 69
0100
0000
0010
0000
,  // measure 70
0001
0000
1000
0000
,  // measure 71
0001
0000
0001
0000
,  // measure 72
2000
0000
0000
0000
,  // measure 73
3000
0000
0000
0000
,  // measure 74
0020
0000
0000
0000
,  // measure 75
0030
0000
0000
0000
,  // measure 76
0100
0000
0100
0000
,  // measure 77
0001
0000
0001
0000
,  // measure 78
1000
0000
1000
0000
,  // measure 79
0010
0000
0010
0000
,  // measure 80
1001
0000
0000
0000
;

//---------------dance-single - ----------------
#NOTES:
     dance-single:
     :
     Easy:
     6:
     0.290073,0.338418,0.042302,0.490706,0.000000,240.000000,235.000000,5.000000,58.000000,0.000000,0.000000,0.290073,0.338418,0.042302,0.490706,0.000000,240.000000,235.000000,5.000000,58.000000,0.000000,0.000000:
0000
0000
0000
0000
,
0000
0000
0000
0000
,
0000
0000
0000
0000
,
0000
0000
0000
0000
,
0000
0000
0000
0000
,
0000
0000
0000
0000
,
0000
0000
0000
0000
,
0000
0000
0000
0000
,
0020
0001
0000
0001
,
0030
1000
0010
0100
,
0002
0100
0000
0100
,
0003
0010
1000
0001
,
2000
0100
0000
0100
,
3000
0001
1000
1000
,
0200
0010
0000
0010
,
0300
0001
0010
1000
,
0002
0000
1003
0010
,
2000
0000
3010
0100
,
0020
0000
0130
0001
,
0200
0000
0010
1300
,
0002
0003
0200
0300
,
0020
0030
2000
3000
,
0002
0203
0320
2030
,
3020
0000
0000
0030
,
1001
0000
0001
0100
,
1000
0100
0001
0000
,
1000
0010
0100
1000
,
1000
0001
1000
0000
,
0110
0000
0100
0010
,
0100
1000
0100
0000
,
1000
0001
1000
0010
,
0001
0100
0010
0000
,
0002
0003
1000
0010
,
0100
0010
0001
1000
,
2000
3000
0200
0300
,
1000
0100
0020
0030
,
1000
1000
0001
0001
,
1000
0100
0010
0100
,
0001
0100
0010
0100
,
0200
0000
0000
0300
,
2000
3000
0001
0010
,
0020
0030
0100
1000
,
2000
3000
0100
1000
,
0200
0300
0001
0100
,
0002
0013
0020
1030
,
2000
3100
0200
0301
,
0001
0100
1000
0100
,
0220
0000
0000
0330
,
1000
0001
1000
0010
,
1000
0100
0200
0310
,
0100
1000
2000
3010
,
0001
0010
0020
0030
,
0100
0010
0100
1000
,
0001
1000
2000
3010
,
0001
0100
0200
0301
,
1000
0001
0002
0003
,
1000
0100
1000
0010
,
0001
0100
0020
1030
,
0100
0010
0200
0310
,
0010
0001
0200
0300
,
1000
0010
0001
0010
,
0100
0001
0200
1300
,
0010
0100
0002
1003
,
1000
0001
0200
0310
,
2002
0000
3000
0100
,
0103
1000
0100
0010
,
0001
1000
0100
0001
,
1000
0010
0100
0000
,
0002
0103
0100
0001
,
0020
1030
1000
0001
,
0200
1300
2000
3010
,
0020
1000
0002
0033
,
0200
0000
1000
0000
,
1300
0010
1000
0100
,
0002
0000
0010
0000
,
0013
0100
1000
0001
,
0020
0030
2000
3000
,
0002
0003
0200
0300
,
1000
0001
1000
0100
,
0010
0010
1000
0100
,
1100
0000
0000
0000
;

//---------------dance-single - ----------------
#NOTES:
     dance-single:
     :
     Medium:
     9:
     0.458073,0.484890,0.101525,0.253814,0.000000,379.000000,367.000000,12.000000,30.000000,0.000000,0.000000,0.458073,0.484890,0.101525,0.253814,0.000000,379.000000,367.000000,12.000000,30.000000,0.000000,0.000000:
0000
0000
0000
0000
,
0000
0000
0000
0000
,
0000
0000
0000
0000
,
0000
0000
0000
0000
,
0000
0000
0000
0000
,
0000
0000
0000
0000
,
0000
0000
0000
0000
,
0000
0000
0000
0000
,
0010
0000
1000
0010
0000
0100
0010
0000
,
1000
0001
1000
0001
0000
0010
0100
0000
,
0001
0000
1000
0001
0000
0100
1000
0000
,
0100
0010
0100
0001
0000
0010
0010
0000
,
0100
0000
0010
1000
0010
0000
0100
0010
,
0100
0010
0001
0000
1000
0010
1000
0000
,
0100
0000
0001
0010
0001
0000
0100
1000
,
0000
1000
0001
0000
0010
0100
0100
0000
,
0020
1000
0130
0100
,
2000
0010
3001
0001
,
0200
0010
1300
1000
,
0002
0100
0013
0010
,
0002
1003
0002
0103
,
0020
0031
0020
0031
,
0200
2300
3002
0023
,
2000
0000
3030
1001
,
0200
0000
0001
0000
0001
0300
0010
1000
,
0010
0000
0001
0100
0000
0100
1000
0000
,
0010
0000
0001
0010
0001
0000
0100
0010
,
0100
1000
0000
0010
0000
0001
0001
0000
,
1000
0000
0001
0100
0001
0000
0010
0100
,
0010
0000
1000
0001
0000
0001
0010
0000
,
1000
0010
1000
0000
0101
0000
0010
0001
,
0010
0000
0001
1000
1000
0000
0110
0000
,
0001
1000
1000
0100
,
0001
0010
0001
0000
1000
0100
1000
0000
,
0100
0000
0001
0010
0001
0000
0100
0010
,
0100
0000
0010
0001
0000
0001
1000
0000
,
2000
3010
0002
0103
,
0020
0000
0001
0000
1030
0000
0100
1000
,
0100
0000
1000
0010
0100
0000
0010
0001
,
0010
0000
1000
0100
0000
0001
0100
0000
,
0020
1000
1000
1030
,
0200
0010
0010
0310
,
0002
0100
0010
0103
,
2000
0001
0010
3100
,
0100
0001
0100
0000
0001
0010
0001
0000
,
0010
1000
0010
0000
0100
1000
0100
0000
,
0001
0010
1000
0010
0001
1000
0100
0000
,
0200
0000
0300
1001
,
0010
0001
0100
0000
0100
1000
0010
0000
,
0001
0000
1000
0010
1000
0000
0100
1000
,
0100
0000
0001
0000
0010
0100
0010
0000
,
0001
1000
0001
0010
0001
0000
1100
0000
,
0100
0000
0100
0010
0001
0000
0001
0100
,
0010
0000
0100
1000
0001
1000
0001
0000
,
0010
0000
1000
0000
1000
0100
1000
0000
,
0010
1000
0001
1000
0010
0000
0110
0000
,
1000
0001
1000
0000
0100
0001
0100
0000
,
0010
0100
1000
0100
0001
0000
1000
0100
,
1000
0000
0001
1000
0001
0000
0100
0010
,
0100
1000
0001
0000
0100
0001
0100
0000
,
1000
0100
0010
0001
0010
0000
0001
0100
,
0001
0000
0010
0000
0010
1000
0001
0000
,
0100
0000
0001
0010
0100
0000
0100
0001
,
1000
0001
0010
0000
0010
1000
0100
0000
,
0020
0000
0000
0000
0100
0000
0130
0001
,
1000
0000
0100
0010
1000
0100
1000
0000
,
0001
0100
0001
0000
0010
0000
0100
0010
,
0100
0000
0100
0001
1000
0000
0011
0000
,
0200
0000
0301
0000
0001
0010
0001
0000
,
0020
0000
0130
0000
1000
0001
1000
0000
,
0002
0103
2000
3100
,
0020
0001
0100
1030
,
0001
0000
0011
0000
,
0100
0010
1010
0000
,
0010
0100
0110
1000
,
0100
0001
0101
0000
,
0100
0010
0100
0000
0001
1000
0001
0000
,
0010
0001
0010
0000
0001
0100
0001
0000
,
1000
0000
1000
0010
0001
0100
0010
0000
,
0100
1000
0100
0010
0100
0000
0001
0000
,
2002
0000
0000
0000
,
0000
0000
0000
0000
0000
0000
0000
3003
;

//---------------dance-single - ----------------
#NOTES:
     dance-single:
     :
     Hard:
     13:
     0.576519,0.727334,0.279195,0.219972,0.021151,477.000000,444.000000,33.000000,26.000000,0.000000,0.000000,0.576519,0.727334,0.279195,0.219972,0.021151,477.000000,444.000000,33.000000,26.000000,0.000000,0.000000:
0000
0000
0000
0000
,
0000
0000
0000
0000
,
0000
0000
0000
0000
,
0000
0000
0000
0000
,
0000
0000
0000
0000
,
0000
0000
0000
0000
,
0000
0000
0000
0000
,
0000
0000
0000
0000
,
0100
0000
0011
0000
0000
0100
0110
0000
,
0000
1000
0001
1000
0000
0010
1100
0000
,
0001
0000
1010
0000
0000
1000
1001
0000
,
0000
0100
0001
0100
0000
0010
0101
0000
,
1000
0100
1000
0010
0000
0001
0100
0010
,
0000
0001
1000
0010
0000
0001
0100
0000
,
0001
0000
1000
0001
0000
1000
0010
0100
,
0000
0100
0001
0010
0001
1000
1000
0000
,
0020
0000
1000
0100
0130
0000
0101
0000
,
2000
0000
0100
0010
3010
0000
0110
0000
,
0002
0000
1000
0100
1003
0000
0011
0000
,
0200
0000
0010
0001
1300
0000
1010
0000
,
0002
0000
1003
0010
2000
0000
3100
0010
,
0200
0000
0310
0001
0020
0000
1030
0100
,
1000
0001
0100
1000
0010
0100
0010
0010
,
0200
0000
1000
0001
0301
0000
0110
0000
,
0001
0000
0100
0010
0100
1000
0100
0001
,
0010
0000
0001
1000
0001
1000
0010
0100
,
0100
0000
0010
0001
0010
0100
0001
0010
,
1000
0100
1000
0010
0100
0001
0101
0000
,
0010
0000
0000
0001
0010
0000
0100
0000
0000
0000
1000
0000
0100
0000
0001
0000
,
0100
0000
0000
0010
1000
0000
0100
0000
0000
0000
0001
0000
0010
0000
0100
0000
,
0001
0000
0000
0100
0010
0000
0100
0000
0000
0000
0010
0000
1000
0000
0010
0000
,
0001
0100
0010
0100
1000
1000
1010
0000
,
0002
0000
0203
0000
0301
0000
0010
0001
,
0100
0000
1000
0000
1010
0000
1000
0010
,
0100
0010
0100
0000
0001
0010
0001
0000
,
0200
0000
0000
0010
0300
0000
0100
0010
,
1000
0000
0100
0010
0001
0000
0010
0001
,
0100
0000
1000
0010
0010
0000
0001
1000
,
0001
0010
0100
0000
1000
0100
1000
0001
,
0020
0000
1000
0000
1000
0100
0130
0000
,
0010
0001
0010
0001
0100
0000
1000
0000
,
0100
0010
0100
0010
0001
0000
0010
0000
,
0001
1000
0001
1000
0100
0000
0001
0000
,
0010
1000
0100
1000
0001
0000
0011
0000
,
1000
0001
1000
1000
0010
0001
0010
0010
,
0100
0010
0001
0001
1000
0010
0100
0100
,
0001
1000
0001
1000
0010
0100
1000
0100
,
0002
0010
0100
0010
0010
0003
1010
0000
,
0100
0001
0100
0010
0001
1000
0100
0000
,
0010
0001
0010
0000
0110
0000
0100
1000
,
0100
0010
0001
0000
0011
0000
1000
0001
,
1000
0100
0010
0000
1001
0000
0100
0000
,
0010
0001
0100
0001
0010
0001
1000
0100
,
1000
0010
0001
0000
0101
0000
0010
1000
,
0010
0100
0001
0000
1001
0000
0100
1000
,
0010
0001
1000
0000
2020
0000
3030
0000
,
0001
0010
0001
0010
0200
0000
0302
0000
,
0013
1000
0100
0000
1010
0000
1000
0000
,
0001
0100
0010
0000
0110
0000
0001
0000
,
1000
0100
0001
0000
2002
0000
3003
0001
,
0001
0010
0100
0010
1000
0100
0001
0010
,
0100
1000
0100
0000
0011
0000
0001
0100
,
0010
0001
0100
0000
1010
0000
0010
1000
,
0100
0100
1000
0000
0012
0000
2003
0000
,
3020
0100
0001
0100
,
0100
1000
0030
1000
0001
0000
0010
0001
,
0010
0100
0100
0001
1000
0001
1000
0010
,
0100
0001
0010
0001
1000
0100
0100
0000
,
0011
0000
0001
0100
0010
1000
0100
1000
,
0001
0010
0100
0010
1000
0100
0010
0001
,
1000
0001
1000
1000
0010
1000
0010
0010
,
0100
0001
0010
0001
1000
0100
0110
0001
,
2000
0010
0001
0010
,
0010
0000
0100
0000
3001
0000
0010
0100
,
0010
0000
1000
0100
1000
0000
0001
0100
,
0001
0010
0100
0000
1000
0001
0001
0000
,
0100
0001
0100
0010
0001
1000
0100
0000
,
1000
0010
1000
0100
0001
0010
0001
0000
,
0100
0010
0100
0001
1000
0001
1000
0010
,
0101
0000
0100
0000
1100
0000
1000
0000
0010
0001
0010
0001
0100
0000
0000
0000
,
0202
0000
0000
0000
,
0000
0000
0000
0000
0000
0000
0000
0303
;
