#VERSION:0.83;
#TITLE:Sulk;
#SUBTITLE:;
#ARTIST:SYUNN;
#TITLETRANSLIT:;
#SUBTITLETRANSLIT:;
#ARTISTTRANSLIT:;
#GENRE:;
#ORIGIN:;
#CREDIT:;
#BANNER:Sulk.png;
#BACKGROUND:Sulk-bg.png;
#PREVIEWVID:;
#JACKET:Sulk-jacket.png;
#CDIMAGE:;
#DISCIMAGE:;
#LYRICSPATH:;
#CDTITLE:;
#MUSIC:Sulk.ogg;
#OFFSET:-2.199246;
#SAMPLESTART:53.342049;
#SAMPLELENGTH:12.799995;
#SELECTABLE:YES;
#BPMS:0.000=75.000,
8.000=150.000,
182.000=75.000,
198.000=150.000,
262.000=75.000;
#STOPS:118.750=0.400,
181.750=0.400;
#DELAYS:;
#WARPS:;
#TIMESIGNATURES:0.000=4=4;
#TICKCOUNTS:0.000=4;
#COMBOS:0.000=1;
#SPEEDS:0.000=1.000=0.000=0;
#SCROLLS:0.000=1.000;
#FAKES:;
#LABELS:0.000=Song Start;
#BGCHANGES:;
#KEYSOUNDS:;
#ATTACKS:
;

//---------------dance-single - ----------------
#NOTEDATA:;
#CHARTNAME:;
#STEPSTYPE:dance-single;
#DESCRIPTION:;
#CHARTSTYLE:;
#DIFFICULTY:Hard;
#METER:14;
#RADARVALUES:0.680109,1.076592,0.292854,0.067582,0.559427,634.000000,595.000000,39.000000,9.000000,0.000000,0.000000,0.000000,0.000000,0.000000,0.680109,1.076592,0.292854,0.067582,0.559427,634.000000,595.000000,39.000000,9.000000,0.000000,0.000000,0.000000,0.000000,0.000000;
#CREDIT:;
#NOTES:
0000
0000
0000
0000
,
0000
0000
0000
0000
,
0010
0010
1010
0010
,
1000
1000
1001
1000
,
0001
0001
0101
0001
,
0100
0100
2001
0000
,
3010
0100
0010
0001
0000
1000
0100
1000
,
0001
0000
0000
1000
0000
0000
0010
0000
0100
0000
1000
0000
1000
0000
0100
0000
,
0001
0000
0000
0010
0000
0000
1000
0000
0100
0000
0001
0000
0010
0000
0001
0000
,
0001
0100
0010
1000
0100
1000
1001
0000
,
0010
1000
0100
0000
0001
0010
0100
0010
,
1000
0000
0000
0100
0000
0000
0001
0000
0010
0000
1000
0000
0100
0000
0100
0000
,
0001
0000
0010
0000
0000
0000
0100
0000
0000
0010
0000
0000
0100
0000
1000
0000
,
0001
0010
0010
1000
0100
0010
0110
0000
,
0010
0001
1000
0000
0100
0000
1000
0000
0010
0000
0001
0000
0100
0000
0010
0000
,
0000
0000
0100
0001
0100
0010
1000
0000
0100
1000
0001
0000
0010
0000
0100
0000
,
0000
0000
1000
0000
0100
0000
0001
0000
0100
0010
0100
1000
0100
0001
0010
0000
,
0000
0000
0001
1000
0001
1000
0100
0010
0001
0000
1000
0000
1010
0000
0010
0000
,
1000
0000
0100
0000
0001
0000
0010
0000
0000
0000
1000
0001
1000
0010
0100
0010
,
0000
0000
0001
0100
0001
0000
0010
0001
0010
0000
0100
1000
0100
0001
0100
0000
,
0000
0000
0010
0000
0010
0000
0010
1000
0001
1000
0001
0000
0100
0000
0010
0000
,
0000
0000
1000
0000
1000
0001
0010
1000
0100
0000
0001
0000
0110
0000
0100
0000
,
1001
0000
0000
1000
0000
0000
0001
0000
0000
1000
0000
0000
0100
0000
1000
0000
,
1100
0000
0000
0010
0000
0000
0100
0000
0000
0010
0000
0000
0001
0000
0010
0000
,
0011
0000
0000
1000
0000
0000
0010
0000
0000
1000
0000
0000
0001
0000
0100
0000
,
0101
0000
0000
0010
0000
0000
1000
0000
1001
0000
0000
0100
0000
0000
0010
0000
,
1000
0100
1000
1000
0010
0001
0010
0010
,
0100
0001
0100
0100
0001
1000
0001
0001
,
0010
1000
0010
0000
0100
1000
0100
0000
1000
0001
1000
0000
1000
0010
1000
0000
,
0210
0001
0010
1000
0301
0001
1010
0100
,
1000
0100
0001
0010
1000
0000
0001
0100
,
1000
0001
0100
0010
0010
0000
1000
0001
,
0010
0001
0100
1000
0100
0010
1000
0001
,
0001
0100
0010
1000
1001
0000
0100
0010
,
0001
1000
0010
0100
0001
0000
0010
1000
,
0010
0001
0010
0100
0100
0000
1000
0001
,
0010
0100
0010
1000
0001
1000
0100
1000
,
0010
0001
0100
0010
0101
0000
0010
1000
,
0010
0001
0000
0001
0010
0100
0000
0100
,
0001
1000
0100
0001
0001
0000
0100
1000
,
0010
0000
0001
0000
0000
0010
0000
0000
1010
0000
1000
0000
1000
0000
0001
0000
,
0100
0010
0100
0001
0011
0000
0001
1000
,
0001
1000
0010
0001
0010
0001
0100
1000
,
0100
0001
0100
0010
1000
0001
0010
0010
,
1000
0000
1000
0000
0100
0000
0100
0000
0001
0000
0001
0000
0100
0010
0000
0010
,
0001
0000
1000
0000
0010
0100
0010
0000
0101
0010
0000
0010
1010
0100
0000
0100
,
0010
0000
0001
0000
0010
0000
1000
0000
0110
0000
0000
1000
0000
0000
0001
0000
0011
0000
1000
0000
0000
0000
1000
0000
1001
0000
0001
0000
0000
0000
0001
0000
,
0100
0000
1000
0000
0100
0000
0001
0000
0010
0000
0000
1000
0000
0000
0001
0000
0101
0000
0010
0000
0100
0000
0010
0000
1010
0000
1000
0000
0100
0000
0010
0000
,
0100
0000
0001
0000
0100
0000
0010
0000
0011
0000
1000
0001
0000
1000
0010
0000
0110
0000
1000
0000
0001
0000
0010
0000
1010
0000
0100
0000
1000
0000
0001
0000
,
0100
0000
0000
1000
0000
0000
1100
0000
0001
0010
0000
0001
0000
0010
1000
0000
0201
0000
0000
0000
0000
0000
0000
0000
0310
0000
0000
0000
0001
0000
0000
0000
,
0010
0000
1000
0100
0000
1000
0100
0000
0001
0000
1000
0000
0010
0000
0010
0000
,
0100
0000
0010
0100
0000
0010
0100
0000
2010
0000
0000
0000
3001
0000
0100
0000
,
0010
0000
0001
0100
0000
0001
0100
0000
1000
0000
0100
0000
0010
0000
0100
0000
,
0100
0000
1000
0001
0000
1000
0001
0000
0021
0000
0000
0000
1030
0000
0100
0000
,
1000
0000
1000
0000
0001
1000
0001
0000
0100
0000
0010
0000
0001
0000
0010
0000
,
0100
0000
1000
0010
0000
1000
0001
0000
2010
0000
0000
0000
3100
0000
0001
0000
,
0001
0000
0100
0010
0100
0000
1000
0000
0010
0000
1000
0000
0100
0000
0001
0000
,
0020
0000
1000
0000
0100
0000
0100
0000
0031
0000
1000
0100
1000
0000
0010
0000
,
0100
0000
0010
0000
0001
0000
1000
0000
1000
0000
0100
0000
0010
0000
0001
0100
,
0001
0010
0100
0010
0001
1000
0001
0100
,
0100
0000
0010
0000
0010
0100
0010
0000
1000
0000
1000
0001
1000
0000
0100
0010
,
0100
0010
0001
0000
0011
0000
0010
0000
1000
0000
0000
0001
1000
0000
0010
0000
,
0010
0000
0100
1000
0100
0000
0010
0001
0000
0010
0100
0000
1000
0001
1000
0000
,
0100
0000
0001
0000
0100
0000
0010
0000
0001
0000
0000
1000
0010
0000
1000
0000
,
0100
0100
0001
0100
0010
1000
0001
1000
,
0100
0000
0000
0000
0010
0000
0000
0000
0110
0000
0000
0000
0000
0000
0000
0000
1000
0001
1000
0000
0100
0000
0010
0000
0001
0000
0100
0000
0100
0000
1000
0000
,
0000
0000
0010
0001
0010
0000
0010
1000
0100
1000
0100
0000
0001
0000
0010
0000
0000
0000
0010
0000
1000
0000
0100
0000
0001
0100
0001
0010
0001
0100
1000
0000
,
0000
0000
0100
0000
0100
0001
0100
0000
0010
0000
1000
0000
1010
0000
0010
0000
0100
0000
0001
0000
1000
0000
0100
0000
0000
0000
0010
1000
0010
0000
0001
0100
,
0000
0000
1000
0000
0001
0000
1000
0000
1000
0000
0010
0001
0100
0001
0100
0000
0000
0000
0010
0000
0010
0000
0001
0100
1000
0100
0001
0000
1000
0000
0010
0000
,
0000
0000
1000
0001
0100
0001
0010
0000
1000
0000
0001
0000
0011
0000
0100
0000
0202
0000
0000
0000
0000
0000
0000
0000
0000
0000
0000
0000
0000
0000
0303
0000
;

//---------------dance-single - ----------------
#NOTEDATA:;
#CHARTNAME:;
#STEPSTYPE:dance-single;
#DESCRIPTION:;
#CHARTSTYLE:;
#DIFFICULTY:Medium;
#METER:9;
#RADARVALUES:0.469854,0.734576,0.135164,0.082600,0.101373,438.000000,420.000000,18.000000,11.000000,0.000000,0.000000,0.000000,0.000000,0.000000,0.469854,0.734576,0.135164,0.082600,0.101373,438.000000,420.000000,18.000000,11.000000,0.000000,0.000000,0.000000,0.000000,0.000000;
#CREDIT:;
#NOTES:
0000
0000
0000
0000
,
0000
0000
0000
0000
,
0200
1000
0010
0310
,
0002
1000
0100
0103
,
2000
0100
0010
3100
,
0020
1000
0031
0110
,
0001
0000
0100
0000
1000
0010
1000
0000
,
0100
0000
0001
0000
0100
0010
0100
0000
,
0010
0000
1000
0001
1000
0000
0010
1000
,
0010
0001
0100
0000
1000
0000
1001
0000
,
0010
1000
0010
0000
0100
0000
0001
0100
,
0001
0000
0010
0000
0100
1000
0100
0000
,
0001
0010
0100
0010
0001
0000
1000
0010
,
1000
0000
0100
1000
0100
0001
0001
0000
,
1000
0000
0100
0000
0001
0010
0001
0100
,
0000
1000
0001
0000
0010
1000
0100
1000
,
0000
0100
0001
0000
1000
0001
0010
1000
,
0000
0001
0100
1000
0100
0000
1010
0000
,
0100
0000
1000
0000
0100
0001
0010
0000
,
0001
0100
1000
0010
1000
0000
0001
0000
,
0100
0000
0001
1000
0100
0000
0010
0100
,
0010
1000
1000
0000
0101
0000
1100
0000
,
0020
0100
0001
0100
,
0032
0010
1000
0010
,
2003
0100
0010
0100
,
3200
0010
1300
1001
,
0010
0100
0010
0000
1000
0100
1000
0000
,
0001
1000
0001
0000
0100
0001
0100
0000
,
0010
1000
0001
1000
0100
0010
0001
0000
,
2000
0000
0000
0000
0000
3000
0110
0000
,
0001
0000
1000
0010
1000
0000
0100
0000
,
0010
1000
0010
0100
0001
0000
1000
0000
,
0100
0000
0010
0001
0010
0000
0001
1000
,
0010
1000
0100
0000
0011
0000
1000
0001
,
1000
0000
0010
0100
0010
0000
0100
0001
,
0100
0010
1000
0000
0001
0000
1000
0100
,
1000
0100
0001
0000
0010
0001
0010
0000
,
0100
0010
0010
0000
1010
0000
0000
1000
,
0010
1000
0000
0010
0001
0010
0000
0100
,
0010
0100
0000
0010
1000
0010
0000
0001
,
0100
0001
0000
1000
0100
1000
0000
0010
,
1000
0010
0000
1000
0001
1000
0010
0000
,
1000
0000
0001
1000
0100
0000
0010
1000
,
0001
0100
0001
0000
1000
0001
0100
0000
,
0100
0010
1000
0100
0010
0000
0010
1000
,
1000
0000
0100
0000
0010
0000
1000
0000
0201
0000
0010
0000
1300
0000
0001
0010
,
0001
0000
0100
1000
0010
1000
0001
0000
0010
0100
0010
0000
1100
0000
0001
0100
,
1000
0000
0010
0100
0100
0010
0001
0000
0001
1000
1000
0000
0100
0010
0010
0000
,
1000
0100
1000
0010
0001
0000
0100
1000
0100
0001
0010
1000
1000
0000
0100
0010
,
0100
0001
1100
0011
0100
0000
0100
0000
,
0100
1000
0100
0010
1000
0000
0001
0000
,
0010
0100
0001
0001
,
0001
0100
0001
0010
0100
0000
1000
0000
,
0010
0001
0001
0000
1000
0000
1000
0000
,
1000
0010
1000
0001
0010
1000
0001
0000
,
0100
1000
0010
0010
,
0010
0100
0010
1000
0100
0001
1000
0100
,
0001
0110
0100
1000
,
0010
0001
0010
0000
1000
0000
0001
0100
,
0010
0100
0001
0000
0100
1000
0010
0000
,
0010
0001
0100
0000
0001
1000
0100
1000
,
0010
0000
1001
0000
0010
0100
0010
0000
,
1000
0100
1000
0000
0001
1000
0001
0000
,
0100
0001
0100
0000
0010
1000
0100
0001
,
1000
0000
1000
0010
0100
0000
0100
0001
,
0010
0000
0001
0000
0100
0000
0000
0000
1000
0001
0100
0001
0010
0000
1000
0000
,
1000
0000
0010
0001
0010
0100
1000
0000
0001
0000
1000
0000
0010
0000
0100
0010
,
0100
1000
0100
0000
0010
0000
0011
0000
0010
1000
0100
0000
1000
0100
0010
0000
,
0001
0100
1000
0000
0100
0000
0010
0001
1000
0000
0100
0000
0010
0000
0001
1000
,
0100
0010
1000
0000
1010
0000
0011
0000
0200
0000
0000
0000
0000
0000
0300
0000
;

//---------------dance-single - ----------------
#NOTEDATA:;
#CHARTNAME:;
#STEPSTYPE:dance-single;
#DESCRIPTION:;
#CHARTSTYLE:;
#DIFFICULTY:Easy;
#METER:6;
#RADARVALUES:0.289636,0.442801,0.142673,0.180218,0.000000,270.000000,251.000000,19.000000,24.000000,0.000000,0.000000,0.000000,0.000000,0.000000,0.289636,0.442801,0.142673,0.180218,0.000000,270.000000,251.000000,19.000000,24.000000,0.000000,0.000000,0.000000,0.000000,0.000000;
#CREDIT:;
#NOTES:
0000
0000
0000
0000
,
0000
0000
0000
0000
,
0010
0000
0001
0000
,
0010
0100
0010
0000
,
1000
0000
1000
0010
,
0100
0010
1000
0000
,
0001
0000
1001
0000
,
0100
1000
1100
0000
,
0001
0000
0011
0000
,
0100
0010
0110
0000
,
1000
0000
1010
0000
,
0001
1000
1001
0000
,
0100
0000
0110
0000
,
0010
1000
0011
0000
,
1000
0001
1000
0010
,
0000
0100
1000
0001
,
0000
0010
1000
0100
,
0000
0001
0100
0100
,
0010
0001
0010
0100
,
0000
0001
1000
0010
,
0000
0100
0001
1000
,
0000
0001
0010
1000
,
0200
0300
0001
0010
,
0002
0003
1000
0001
,
2000
3000
0100
1000
,
0200
0300
2000
3000
,
0020
0130
0010
0100
,
2000
3010
1000
0010
,
0002
0103
1000
0010
,
0200
0000
0300
0001
,
1000
0100
1000
0001
,
1000
0001
0001
0100
,
1000
0100
0010
0001
,
1000
0010
1010
1000
,
0001
1000
0001
0100
,
0010
0100
0100
0001
,
1000
0010
1000
0100
,
0010
0110
0100
0002
,
0013
1000
0010
0100
,
1000
0001
0010
2000
,
3100
0001
0100
0010
,
0001
1000
1000
0200
,
0301
0020
0130
2000
,
3010
0002
0103
0020
,
0032
2003
3200
0020
,
0000
0330
0100
1001
,
0100
0100
0110
0000
1000
0000
1010
0000
,
0001
0001
0101
0000
0010
0100
0010
0100
,
1000
0001
1000
0001
0100
1000
0100
0010
,
0001
1100
0010
0100
,
0010
0010
1000
0001
,
1000
1000
0100
1000
,
0100
0100
0001
0010
,
0001
0001
2000
3001
,
0100
0001
0020
0031
,
1000
0001
0200
1300
,
0010
1000
0002
0010
,
0100
0013
1000
0000
,
0110
0001
0010
1000
,
1000
0000
0001
0010
,
0100
1000
0001
0100
,
0101
0000
0010
0001
,
0010
0001
1000
0100
,
1000
0100
0010
0100
,
1000
0100
0001
0000
,
1001
0000
0000
0000
0010
0100
0010
0100
,
0000
1000
0001
1000
0000
0010
0001
0010
,
0000
0100
1000
1000
0010
1000
0100
0001
,
0000
0001
0010
0100
0000
0100
1000
0010
,
0000
0010
0100
0101
0000
0000
0000
0000
;

//---------------dance-single - ----------------
#NOTEDATA:;
#CHARTNAME:;
#STEPSTYPE:dance-single;
#DESCRIPTION:;
#CHARTSTYLE:;
#DIFFICULTY:Beginner;
#METER:4;
#RADARVALUES:0.179145,0.312003,0.097618,0.090109,0.000000,167.000000,154.000000,13.000000,12.000000,0.000000,0.000000,0.000000,0.000000,0.000000,0.179145,0.312003,0.097618,0.090109,0.000000,167.000000,154.000000,13.000000,12.000000,0.000000,0.000000,0.000000,0.000000,0.000000;
#CREDIT:;
#NOTES:
// measure 0
0000
0000
0000
0000
,  // measure 1
0000
0000
0000
0000
,  // measure 2
1000
0000
0000
0000
,  // measure 3
0001
0000
0000
0000
,  // measure 4
1000
0000
0000
0000
,  // measure 5
0200
0000
0300
0000
,  // measure 6
0010
0000
0010
0000
,  // measure 7
0100
0000
0100
0000
,  // measure 8
1000
0000
1000
0000
,  // measure 9
0001
0000
0001
0000
,  // measure 10
0100
0000
0110
0000
,  // measure 11
1000
0000
1001
0000
,  // measure 12
0010
0000
0110
0000
,  // measure 13
0001
0000
1001
0000
,  // measure 14
2000
0000
0000
3000
,  // measure 15
0000
0001
0000
0100
,  // measure 16
0000
0001
0001
0000
,  // measure 17
0010
0000
0100
0000
,  // measure 18
1000
1000
1000
0000
,  // measure 19
0001
0000
0100
0000
,  // measure 20
0000
0010
0000
0010
,  // measure 21
0000
1000
1000
0000
,  // measure 22
0200
0000
0300
0000
,  // measure 23
0010
0000
1000
0000
,  // measure 24
0020
0000
0030
0000
,  // measure 25
0001
0000
1000
0000
,  // measure 26
0002
0000
0003
0000
,  // measure 27
0100
0000
1000
0000
,  // measure 28
0200
0000
0300
0000
,  // measure 29
0220
0000
0330
1000
,  // measure 30
0000
0001
0000
0100
,  // measure 31
0000
0100
0000
0010
,  // measure 32
0000
1000
0000
0001
,  // measure 33
0000
0001
0000
0100
,  // measure 34
0100
0100
0000
1000
,  // measure 35
0000
0001
0000
0010
,  // measure 36
0010
0010
0000
0100
,  // measure 37
0000
1001
0000
0000
,  // measure 38
0001
0001
0000
1000
,  // measure 39
1000
0000
0010
0000
,  // measure 40
0100
0100
0000
1000
,  // measure 41
0000
0001
0000
0010
,  // measure 42
0000
1000
0000
1000
,  // measure 43
0000
0100
0000
0100
,  // measure 44
0000
1000
0000
2002
,  // measure 45
0000
3003
0100
0100
,  // measure 46
0010
0100
1000
1000
,  // measure 47
0001
1000
0010
0010
,  // measure 48
0001
0010
0100
0100
,  // measure 49
1000
0100
0001
0001
,  // measure 50
0001
0000
1000
0000
,  // measure 51
0001
0000
0010
0010
,  // measure 52
0010
0000
0100
0000
,  // measure 53
0010
0000
1000
1000
,  // measure 54
1000
0000
0010
0000
,  // measure 55
1000
0000
0100
0100
,  // measure 56
0100
0000
0220
0000
,  // measure 57
0330
0000
0001
0000
,  // measure 58
1001
0000
0100
0100
,  // measure 59
0100
0000
1000
0000
,  // measure 60
0110
0000
0001
0001
,  // measure 61
0001
0000
0010
0000
,  // measure 62
1001
0000
1000
1000
,  // measure 63
1000
0000
0100
0000
,  // measure 64
0110
0000
0010
0010
,  // measure 65
0010
0000
1000
0001
,  // measure 66
0000
1000
1000
0000
0010
0000
0100
0000
,  // measure 67
0000
0010
0010
0000
1000
1000
1000
0000
,  // measure 68
0001
0000
0010
0000
0001
0001
0001
0000
,  // measure 69
0100
0110
0000
0000
;
