#VERSION:0.83;
#TITLE:State Of The Art;
#SUBTITLE:;
#ARTIST:Sota Fujimori feat. cyborg AKEMI;
#TITLETRANSLIT:;
#SUBTITLETRANSLIT:;
#ARTISTTRANSLIT:;
#GENRE:;
#ORIGIN:;
#CREDIT:;
#BANNER:State Of The Art.png;
#BACKGROUND:State Of The Art-bg.png;
#PREVIEWVID:;
#JACKET:;
#CDIMAGE:;
#DISCIMAGE:;
#LYRICSPATH:;
#CDTITLE:;
#MUSIC:State Of The Art.ogg;
#OFFSET:-0.144065;
#SAMPLESTART:70.190002;
#SAMPLELENGTH:15.000000;
#SELECTABLE:YES;
#BPMS:0.000=155.000;
#STOPS:;
#DELAYS:;
#WARPS:;
#TIMESIGNATURES:0.000=4=4;
#TICKCOUNTS:0.000=4;
#COMBOS:0.000=1;
#SPEEDS:0.000=1.000=0.000=0;
#SCROLLS:0.000=1.000;
#FAKES:;
#LABELS:0.000=Song Start;
#BGCHANGES:0.000=State Of The Art.avi=1.000=0=0=0=StretchNoLoop====,
99999=-nosongbg-=1.000=0=0=0 // don't automatically add -songbackground-
;
#KEYSOUNDS:;
#ATTACKS:
;

//---------------dance-single - ----------------
#NOTEDATA:;
#CHARTNAME:;
#STEPSTYPE:dance-single;
#DESCRIPTION:;
#CHARTSTYLE:;
#DIFFICULTY:Hard;
#METER:12;
#RADARVALUES:0.494988,0.552746,0.096025,0.200053,0.148039,433.000000,421.000000,12.000000,25.000000,0.000000,0.000000,0.000000,0.000000,0.000000,0.494988,0.552746,0.096025,0.200053,0.148039,433.000000,421.000000,12.000000,25.000000,0.000000,0.000000,0.000000,0.000000,0.000000;
#CREDIT:;
#NOTES:
0000
0000
0000
0000
,
1000
0000
0000
0000
0010
0000
0000
0100
0000
0000
0100
0000
0010
0000
0000
0000
,
0100
0000
0001
0000
0000
1000
0001
0000
,
0100
0000
0000
0000
0010
0000
0000
0001
0000
0000
0001
0000
0010
0000
0000
0000
,
1000
0000
0100
0000
0000
1000
0010
0100
,
0100
0000
0000
0000
0001
0000
0000
1000
0000
0000
1000
0000
0001
0000
0000
0000
,
0100
0000
0010
0000
0000
0100
0001
0000
,
0010
0000
0000
0000
1000
0000
0000
0010
0000
0000
0010
0000
0100
0000
0000
0000
,
0010
0001
0010
1000
0001
0100
0110
0000
,
1000
0000
0010
0100
0000
0100
0000
0001
,
1000
0010
0000
1000
0000
0020
0000
0030
,
0100
0100
0000
0001
0000
0100
0000
0010
,
1000
0010
0000
0002
0000
2000
0003
3000
,
0010
0001
0010
0100
0000
0001
0000
1000
,
0010
0010
1000
0100
0000
2000
0000
3000
,
0100
1000
0100
0001
0000
0010
0100
0000
,
1000
0001
1000
0200
0000
0000
0300
0000
,
0001
0001
0010
0000
0000
0100
0001
0000
,
1000
0000
0100
0000
0010
0000
0002
0000
0000
0000
0000
0003
0000
0000
0000
0000
,
0100
0000
0100
0000
1000
0000
0000
0000
0000
0000
0001
0010
0001
0000
0000
0000
,
0010
0100
0001
2000
0000
0020
3000
0030
,
0100
1000
0100
0000
0010
0100
0010
0000
,
0100
0001
0010
2000
0000
0000
3000
0000
,
0001
0000
0100
0000
0001
0000
0000
0010
0000
0000
0100
0000
0010
0000
0000
0000
,
1000
0001
0100
0010
0000
2002
0000
0000
,
3003
0000
0000
0000
,
0000
0000
0000
0000
,
1000
1000
0002
1003
,
0100
0010
0100
0001
1000
0100
0110
0000
,
0001
0000
0100
0010
0000
0100
0001
0100
,
0000
1000
0001
1000
0000
0010
0001
0000
,
0100
0100
0000
0010
0000
1000
0000
0010
,
1000
0100
0001
0100
0000
0010
0100
0000
,
1000
0001
1000
0010
0000
1000
0000
0001
,
0000
0100
0001
0100
0000
0010
0000
0010
,
1000
0100
0001
0010
0000
1000
0001
1000
,
0000
0100
1000
0000
0010
0010
0010
0000
,
0100
0000
1000
0000
0001
0000
0000
0000
1000
0000
0000
0010
0000
0000
0100
0000
,
0000
0000
0001
0000
0001
0000
0000
0000
1000
0000
0000
1000
0000
0000
0001
0000
,
0100
0000
0010
0000
0100
0000
0000
0000
0001
0000
0000
0100
0000
0000
0010
0000
,
1000
0001
1000
0100
0010
1000
0002
0000
,
0103
0000
0010
0000
1000
0000
0000
0000
0001
0000
0000
0001
0000
0000
1000
0000
,
0010
0000
0100
0000
0000
0100
0000
0000
0010
0000
0000
0000
1000
0000
0001
0000
,
0001
1000
0000
0000
0010
0000
0100
0000
0010
0000
0000
1000
0000
0000
0100
0000
,
0001
0100
0001
1000
0100
0100
0100
0000
,
0110
0000
0000
0000
1000
0000
0000
0001
0000
0000
1000
0000
0000
0000
0100
0000
,
0000
0000
0000
0000
0001
0000
0000
0010
0000
0000
0001
0000
0000
0000
1000
0000
,
0000
0000
0000
0000
0010
0000
0000
0100
0000
0000
0010
0000
0000
0000
0001
0000
,
1000
0000
0010
0000
0100
0000
0010
0100
,
0010
0000
0000
0000
1000
0000
0000
0100
0000
0000
0010
0000
0000
0000
0100
0000
,
0000
0000
0000
0000
0001
0000
0000
1000
0000
0000
0010
0000
0000
0000
1000
0000
,
0000
0000
0000
0000
0100
0000
0000
0010
0000
0000
0100
0000
0000
0000
0001
0000
,
0010
1000
0001
0101
,
0110
0000
0000
0000
0010
0000
0000
0010
0000
0000
0100
0000
0010
0000
0000
0000
,
1000
0000
0001
0000
1000
0000
0000
1000
0000
0000
0001
0000
0100
0000
0001
0000
,
0010
0000
0000
0000
0100
0000
0000
0100
0000
0000
0001
0000
0000
0000
0100
0000
,
0010
0000
1000
0000
0100
0000
0001
0001
,
0001
0000
0010
0000
0001
0000
0000
1000
0000
0000
0001
0000
0100
0000
0010
0000
,
0100
0000
0010
0000
1000
0000
0000
0001
0000
0000
1000
0000
0010
0000
0001
0000
,
0010
0000
0100
0000
0010
0000
0000
1000
0000
0000
0100
0000
0000
0000
1000
0000
,
0002
0010
0103
1001
,
0100
0000
0001
0000
0010
0000
0100
0010
0000
0000
0100
0000
0000
0000
1000
0000
,
0100
0000
1000
0000
0001
0000
1000
0001
0000
0000
0100
0000
0000
0000
0010
0000
,
0100
0000
0010
0000
1000
0000
0100
1000
0000
0000
0001
0000
0100
0000
0010
0000
,
0002
2003
3020
2030
,
3100
0000
0010
0000
0100
0000
0001
0100
0000
0000
0010
0000
0100
0000
0010
0000
,
1000
0000
0001
0000
0100
0000
0001
0100
0000
0000
0001
0000
0100
0000
0010
0000
,
1000
0000
0001
0000
1000
0000
0010
1000
0000
0000
0010
0000
0100
0000
0001
0000
,
0200
0000
0320
0000
2030
0000
3001
0001
,
1001
0000
0000
0000
0100
0000
0010
0100
0000
0000
0001
0000
0100
0000
1000
0000
,
0010
0000
0100
0000
0001
0000
1000
0001
0000
0000
1000
0000
0100
0000
0001
0000
,
0100
0000
0010
0000
1000
0000
0001
0010
0000
0000
1000
0000
0010
0000
0100
0000
,
0002
0103
0020
1030
0020
0130
0002
0103
,
0100
0000
0010
0000
1000
0000
0001
1000
0000
0000
0010
0000
1000
0000
0010
0000
,
0100
0000
0001
0000
0010
0000
1000
0010
0000
0000
0100
0000
0001
0000
0010
0000
,
0001
0000
1000
0000
0100
0000
0010
0100
0000
0000
0001
0000
0100
0000
0010
0000
,
1010
0011
1001
0110
;

//---------------dance-single - ----------------
#NOTEDATA:;
#CHARTNAME:;
#STEPSTYPE:dance-single;
#DESCRIPTION:;
#CHARTSTYLE:;
#DIFFICULTY:Medium;
#METER:8;
#RADARVALUES:0.384101,0.368497,0.064017,0.080021,0.000000,336.000000,328.000000,8.000000,10.000000,0.000000,0.000000,0.000000,0.000000,0.000000,0.384101,0.368497,0.064017,0.080021,0.000000,336.000000,328.000000,8.000000,10.000000,0.000000,0.000000,0.000000,0.000000,0.000000;
#CREDIT:;
#NOTES:
0000
0000
0000
0000
,
0100
0010
1000
0010
,
1000
0000
0001
0000
0010
1000
0010
0000
,
1000
0100
1000
0001
,
0010
0000
0100
0000
0001
0100
0001
0000
,
0010
1000
0100
1000
,
0001
0000
0010
0000
0100
0010
0100
0000
,
0001
0100
1000
0100
,
0010
0000
1000
0010
1000
0001
0100
0000
,
0010
1000
0001
1000
,
0010
0100
0010
0010
,
1000
0100
1000
0001
,
0010
0000
0100
0000
0001
0000
0001
1000
,
0100
1000
0001
1000
,
0010
0100
1000
1000
,
0001
0100
0001
0010
,
1000
0000
0100
0000
0010
0000
0010
1000
,
0200
1000
0000
1300
,
0100
0010
0002
0003
,
0020
0100
0000
0130
,
0010
1000
0010
0100
,
2000
0001
0000
3001
,
0010
1000
0200
0300
,
0002
0100
0000
0103
,
0001
0000
1000
0000
0001
0010
0001
0000
,
1001
0000
0000
0000
,
0000
0000
0000
0000
,
1000
0000
0001
0000
,
0100
0100
0100
0110
,
1000
0100
0010
0100
,
1000
0000
0001
0000
1000
0100
1000
0000
,
0100
0001
0010
0001
,
0100
0000
1000
0000
0100
0010
0100
0000
,
0010
0100
0010
1000
,
0001
0000
0100
0000
0001
1000
0001
0000
,
0010
1000
0010
0100
,
0010
0000
0001
0000
0010
1000
0010
0000
,
1000
0000
0010
0000
1000
0000
0001
1000
,
0000
0001
0100
0000
0010
0000
0100
0010
,
0100
0000
0001
0000
1000
0000
0010
1000
,
0000
0010
0100
0000
0001
0000
1001
0000
,
1000
0000
0100
0000
0010
0000
0100
0010
,
0000
1000
0010
0000
1000
0000
0001
0100
,
0001
1000
0100
1000
,
0010
0000
0100
0000
0010
0010
0010
0000
,
0110
0000
0100
0000
1000
0000
0010
1000
,
0010
0000
0100
0000
0001
0000
0100
0010
,
0100
0000
1000
0000
0010
0000
1000
0100
,
1000
0001
0100
0010
,
0010
0000
1000
0000
0100
0000
1000
0010
,
1000
0000
0001
0000
1000
0000
0100
0001
,
0100
0010
1000
0100
,
1000
0010
0100
0001
,
1001
0000
1000
0000
0001
0000
0010
1000
,
0010
0000
0100
0000
1000
0000
0001
1000
,
0001
0000
0100
0000
0010
0000
1000
0010
,
1000
0001
0100
0100
,
0001
0000
0010
0000
1000
0000
0010
0100
,
0010
0000
1000
0000
0001
0000
0100
0001
,
0100
1000
0010
0001
,
0010
1000
0001
0100
,
0120
0000
1000
0000
0130
0000
1000
0010
,
0100
0000
0010
0000
0100
0000
0010
1000
,
0001
0000
0100
0000
1000
0000
0100
1000
,
0010
1000
0100
0001
,
0020
0000
0100
0000
0031
0000
0100
0010
,
1000
0000
0001
0000
1000
0000
0001
0010
,
0100
0000
0010
0000
0100
0000
1000
0100
,
0010
0100
0010
0001
,
2001
0000
0010
0000
3001
0000
0100
0001
,
1000
0000
0001
0000
0010
0000
0100
0010
,
1000
0000
0001
0000
1000
0000
0001
0100
,
0010
0100
1000
0100
,
0002
0000
1000
0000
0013
0000
1000
0100
,
0010
0000
0100
0000
0001
0000
0100
0001
,
0010
0100
1000
0100
,
0010
1000
0100
1001
;

//---------------dance-single - ----------------
#NOTEDATA:;
#CHARTNAME:;
#STEPSTYPE:dance-single;
#DESCRIPTION:;
#CHARTSTYLE:;
#DIFFICULTY:Easy;
#METER:5;
#RADARVALUES:0.232061,0.276373,0.064017,0.056015,0.000000,203.000000,195.000000,8.000000,7.000000,0.000000,0.000000,0.000000,0.000000,0.000000,0.232061,0.276373,0.064017,0.056015,0.000000,203.000000,195.000000,8.000000,7.000000,0.000000,0.000000,0.000000,0.000000,0.000000;
#CREDIT:;
#NOTES:
0000
0000
0000
0000
,
1000
1000
0001
0000
,
0010
0000
0100
0000
,
0010
0010
0001
0000
,
0100
0000
1000
0000
,
0100
0100
0010
0000
,
1000
0000
0100
0000
,
0001
0001
0010
0000
,
0100
0000
0110
0000
,
0010
0000
0100
0000
,
0010
0010
0001
0000
,
1000
0000
0100
0000
,
1000
1000
0001
0000
,
0100
0000
0001
0000
,
0100
0100
0010
0000
,
0001
0000
1000
0000
,
0001
0001
0100
0000
,
0020
0000
0030
0000
,
1000
0100
1000
0000
,
0002
0000
0003
0000
,
0010
0010
0100
0000
,
2000
0000
3000
0000
,
0100
0001
0100
0000
,
0020
0000
0030
0000
,
0100
0100
1000
0000
,
1001
0000
0000
0000
,
0000
0000
0000
0000
,
0200
0000
0300
0000
,
0010
0010
0010
0000
,
1000
0000
0001
0000
,
0010
0001
0010
0000
,
0100
0000
0010
0000
,
1000
0100
1000
0000
,
0001
0000
1000
0000
,
0100
0001
0100
0000
,
0010
0000
0100
0000
,
1000
0001
1000
0000
,
0100
0000
0100
0000
,
0010
0100
0010
0000
,
1000
0000
1000
0000
,
0001
1000
0001
0000
,
1000
1000
0001
0000
,
0010
0010
0100
0000
,
0001
0001
0100
0000
,
1000
1000
0100
0000
,
0110
0000
0010
0001
,
0010
0000
1000
0100
,
1000
0000
0010
0100
,
0010
1000
0010
0000
,
0001
0010
0001
0000
,
1000
0001
1000
0000
,
0100
0010
0100
0001
,
0100
0000
0110
0000
,
1001
0000
1000
0001
,
0100
0000
0100
1000
,
0010
0000
0010
0100
,
0001
0000
0001
1000
,
0100
0000
0010
1000
,
0100
0000
1000
0010
,
0001
0000
0100
0001
,
2000
0000
0000
3000
,
0010
0001
0010
0000
,
1000
0001
1000
0000
,
0100
1000
0100
0000
,
0010
0001
0001
0000
,
1000
0100
1000
0000
,
0100
0010
0100
0000
,
0001
0010
0001
0000
,
1000
0000
1001
0000
,
0110
0000
0001
1000
,
0010
0000
0100
1000
,
0001
0000
1000
0001
,
0100
0000
0010
0010
,
0001
0000
0010
0100
,
1000
0000
0010
0001
,
1000
0000
0100
0010
,
0002
0000
0003
1001
;

//---------------dance-single - ----------------
#NOTEDATA:;
#CHARTNAME:;
#STEPSTYPE:dance-single;
#DESCRIPTION:;
#CHARTSTYLE:;
#DIFFICULTY:Beginner;
#METER:2;
#RADARVALUES:0.123461,0.183648,0.032008,0.032008,0.000000,108.000000,104.000000,4.000000,4.000000,0.000000,0.000000,0.000000,0.000000,0.000000,0.123461,0.183648,0.032008,0.032008,0.000000,108.000000,104.000000,4.000000,4.000000,0.000000,0.000000,0.000000,0.000000,0.000000;
#CREDIT:;
#NOTES:
// measure 0
0000
0000
0000
0000
,  // measure 1
1000
0000
0000
0000
,  // measure 2
1000
0000
0000
0000
,  // measure 3
0001
0000
0000
0000
,  // measure 4
0001
0000
0000
0000
,  // measure 5
0100
0000
0000
0000
,  // measure 6
0100
0000
0000
0000
,  // measure 7
0010
0000
0000
0000
,  // measure 8
0010
0000
0000
0000
,  // measure 9
1000
0000
1000
0000
,  // measure 10
1000
0000
0000
0000
,  // measure 11
0010
0000
0010
0000
,  // measure 12
0010
0000
0000
0000
,  // measure 13
0100
0000
0100
0000
,  // measure 14
0100
0000
0000
0000
,  // measure 15
0001
0000
0001
0000
,  // measure 16
0001
0000
0000
0000
,  // measure 17
0020
0000
0000
0000
,  // measure 18
0030
0000
0000
0000
,  // measure 19
0200
0000
0000
0000
,  // measure 20
0300
0000
0000
0000
,  // measure 21
0002
0000
0000
0000
,  // measure 22
0003
0000
0000
0000
,  // measure 23
2000
0000
0000
0000
,  // measure 24
3000
0000
0000
0000
,  // measure 25
1001
0000
0000
0000
,  // measure 26
0000
0000
0000
0000
,  // measure 27
0000
0000
0000
0000
,  // measure 28
0000
0000
0000
0000
,  // measure 29
0010
0000
0010
0000
,  // measure 30
0010
0000
0000
0000
,  // measure 31
0100
0000
0100
0000
,  // measure 32
0100
0000
0000
0000
,  // measure 33
1000
0000
1000
0000
,  // measure 34
1000
0000
0000
0000
,  // measure 35
0001
0000
0001
0000
,  // measure 36
0001
0000
0000
0000
,  // measure 37
0100
0000
0000
0000
,  // measure 38
0100
0000
0000
0000
,  // measure 39
1000
0000
0000
0000
,  // measure 40
1000
0000
0000
0000
,  // measure 41
0010
0000
0000
0000
,  // measure 42
0010
0000
0000
0000
,  // measure 43
0001
0000
0000
0000
,  // measure 44
0001
0000
0000
0000
,  // measure 45
0110
0000
0000
0000
,  // measure 46
0100
0000
0100
0000
,  // measure 47
0100
0000
0000
0000
,  // measure 48
0010
0000
0010
0000
,  // measure 49
0010
0000
0000
0000
,  // measure 50
0001
0000
0001
0000
,  // measure 51
0001
0000
0000
0000
,  // measure 52
1000
0000
1000
0000
,  // measure 53
1001
0000
0000
0000
,  // measure 54
0010
0000
0010
0000
,  // measure 55
0010
0000
0000
0000
,  // measure 56
1000
0000
1000
0000
,  // measure 57
1000
0000
0000
0000
,  // measure 58
0001
0000
0001
0000
,  // measure 59
0001
0000
0000
0000
,  // measure 60
0110
0000
0000
0000
,  // measure 61
0100
0000
0100
0000
,  // measure 62
1000
0000
1000
0000
,  // measure 63
0001
0000
0001
0000
,  // measure 64
0010
0000
0010
0000
,  // measure 65
0001
0000
0001
0000
,  // measure 66
0100
0000
0100
0000
,  // measure 67
0010
0000
0010
0000
,  // measure 68
1000
0000
1000
0000
,  // measure 69
0001
0001
0001
0000
,  // measure 70
1000
0000
1000
0000
,  // measure 71
0010
0010
0010
0000
,  // measure 72
0100
0000
0100
0000
,  // measure 73
1000
1000
1000
0000
,  // measure 74
0001
0000
0001
0000
,  // measure 75
0100
0100
0100
0000
,  // measure 76
0010
0000
0010
0000
;
