#VERSION:0.83;
#TITLE:Starlight Parade;
#SUBTITLE:;
#ARTIST:Yoshihiko Koezuka;
#TITLETRANSLIT:;
#SUBTITLETRANSLIT:;
#ARTISTTRANSLIT:;
#GENRE:;
#ORIGIN:;
#CREDIT:;
#BANNER:Starlight Parade.png;
#BACKGROUND:Starlight Parade-bg.png;
#PREVIEWVID:;
#JACKET:;
#CDIMAGE:;
#DISCIMAGE:;
#LYRICSPATH:;
#CDTITLE:;
#MUSIC:Starlight Parade.mp3;
#OFFSET:1.056060;
#SAMPLESTART:70.207672;
#SAMPLELENGTH:14.656487;
#SELECTABLE:YES;
#BPMS:0.000=131.000;
#STOPS:152.000=1.374;
#DELAYS:;
#WARPS:;
#TIMESIGNATURES:0.000=4=4;
#TICKCOUNTS:0.000=4;
#COMBOS:0.000=1;
#SPEEDS:0.000=1.000=0.000=0;
#SCROLLS:0.000=1.000;
#FAKES:;
#LABELS:0.000=Song Start;
#BGCHANGES:;
#KEYSOUNDS:;
#ATTACKS:
;

//---------------dance-single - ----------------
#NOTEDATA:;
#CHARTNAME:;
#STEPSTYPE:dance-single;
#DESCRIPTION:;
#CHARTSTYLE:;
#DIFFICULTY:Hard;
#METER:11;
#RADARVALUES:0.458969,0.524308,0.212486,0.365475,0.169989,378.000000,353.000000,25.000000,43.000000,0.000000,0.000000,0.000000,0.000000,0.000000,0.458969,0.524308,0.212486,0.365475,0.169989,378.000000,353.000000,25.000000,43.000000,0.000000,0.000000,0.000000,0.000000,0.000000;
#CREDIT:;
#NOTES:
0000
0000
0000
0000
,
0000
0000
0000
0000
0100
0001
0010
2000
,
0000
0000
3010
0000
0100
0001
0100
0010
,
0000
0001
1000
0001
0000
0010
0001
0010
,
0000
0100
1000
0001
0000
0010
0100
0010
,
0000
0100
0001
1000
1000
0100
1001
0000
,
0020
0000
0031
0000
0010
1000
0100
1000
,
0000
0100
0010
0001
0000
0001
0100
0010
,
0000
1000
0001
0010
0000
0100
0001
0010
,
0000
1000
0100
0001
0010
0100
0101
0000
,
0020
0000
1000
0000
1030
0100
0010
0002
,
0000
0000
0100
0000
0103
0010
0001
0000
,
2000
0000
0100
0000
3001
0010
0100
0020
,
0000
0000
1000
0000
0130
0001
0011
0000
,
0010
1000
0001
0010
0000
0100
1000
0010
,
0000
1000
0001
0001
0000
0010
0100
0010
,
1000
0000
0100
0001
0100
0010
0000
1000
,
0000
0001
0010
1000
0000
0100
0110
0000
,
2000
0000
0001
0000
3001
0100
0010
0200
,
0000
0000
0010
0000
0310
0001
1000
0000
,
0002
0000
0100
0000
0013
1000
0100
2000
,
0000
0000
0000
0000
0010
0000
0000
0000
3010
0000
0001
0000
0001
0000
0000
1010
,
0000
0000
0010
0000
0100
0000
0000
1100
0000
0000
0100
0000
0001
0000
0000
0011
,
0000
0000
1000
0000
2002
0000
0000
0000
0000
0000
0000
0000
3003
0000
0000
0110
,
0000
0010
1000
0100
0100
0001
0010
2020
,
0000
0000
3030
0000
0100
0010
1000
0002
,
0000
0000
0013
0000
1000
0100
0010
0100
,
0000
0001
0010
1000
0000
1000
0100
0010
,
0000
0100
0001
0010
0000
1000
0100
1000
,
0000
0010
0001
0100
1000
1000
1010
0000
,
0200
0000
2300
0000
3200
0000
0301
0010
,
0002
0000
2003
0000
3002
0000
0013
1000
,
0020
0000
0032
0000
0023
1000
1030
0001
,
2000
0000
3020
0000
2030
0100
3001
0000
,
0100
0000
0100
0001
0000
0010
0100
0010
,
0000
0001
0010
0001
0000
1000
1000
0000
,
1010
0100
0110
0010
,
0001
0010
0100
2001
0000
0010
0010
3000
,
0020
0030
0000
0000
0000
0000
0000
0000
0000
0000
0000
0000
0000
0000
0000
0000
0101
0000
0000
0000
0000
0000
0000
0000
0001
0000
0000
0000
0000
0000
0000
0000
0100
0000
0000
0000
0000
0000
0000
0000
0010
0000
0000
0000
0100
0000
0000
0000
0000
0000
0000
0000
0000
0000
0000
0000
0001
0000
0000
0000
0000
0000
0000
0000
,
0000
1000
0000
0000
0010
0000
0000
1000
0000
0000
0100
0000
0000
0000
0010
0000
,
0001
0200
0000
0010
1300
0001
1000
0100
,
0010
0011
0000
1001
0000
0100
0000
0010
,
0010
0000
1000
0000
0001
1000
0000
0010
0000
0100
0000
0010
0000
0000
0000
0000
,
0100
0000
1000
0000
0100
0001
0000
0010
0000
0001
0000
0001
0000
0000
0000
0000
,
0100
0200
0000
2300
0000
3020
0000
0230
,
0000
0302
0000
0000
0010
0000
0010
0000
,
1003
0000
0000
0000
1001
0000
1000
0000
0010
0000
1000
0001
0000
0000
0010
0000
,
0000
0100
0000
0000
0001
0000
0000
1000
0000
0000
0100
0000
0000
0000
0010
0000
,
0001
0020
0000
1000
0130
0001
0100
0010
,
1000
0110
0000
0101
0000
0010
0000
1000
,
0001
0002
0000
0013
1000
0020
0000
1030
,
0100
0200
0000
1300
0001
2000
0000
0010
,
3010
0001
0000
0100
0010
0200
0000
0001
,
0300
0010
1000
0100
0001
0010
0001
1000
,
0100
0000
0100
0000
0000
0010
0001
0010
0001
0000
0100
1000
0000
0100
0001
0000
,
0000
1000
0100
1000
0100
0000
0010
0100
0000
1000
0000
0001
0000
0000
0000
0000
,
0011
0000
0000
2001
0000
0000
0000
0000
0010
0000
0000
0000
0100
0000
0000
0000
,
3010
0000
0100
0001
0010
0001
0000
1000
,
1000
0000
0000
0000
0000
0010
0100
0010
0100
0000
1000
0100
0000
0010
0001
0000
,
0000
0001
1000
0001
1000
0000
0010
1000
0000
0100
0000
0001
0000
0000
0000
0000
,
0110
0000
0000
1200
0000
0000
0000
0000
1000
0000
0000
0000
0010
0000
0001
0000
,
0310
0000
1000
0000
0100
0001
0000
0000
0100
0000
0100
1001
0000
0000
0000
0000
;

//---------------dance-single - ----------------
#NOTEDATA:;
#CHARTNAME:;
#STEPSTYPE:dance-single;
#DESCRIPTION:;
#CHARTSTYLE:;
#DIFFICULTY:Medium;
#METER:8;
#RADARVALUES:0.364261,0.367016,0.144490,0.297480,0.004250,300.000000,283.000000,17.000000,35.000000,0.000000,0.000000,0.000000,0.000000,0.000000,0.364261,0.367016,0.144490,0.297480,0.004250,300.000000,283.000000,17.000000,35.000000,0.000000,0.000000,0.000000,0.000000,0.000000;
#CREDIT:;
#NOTES:
0000
0000
0000
0000
,
0000
0000
0001
0001
,
2000
0000
3010
0000
0100
0000
0010
0100
,
0000
0001
0010
0000
1000
0010
1000
0000
,
0001
0010
0001
0100
,
0010
0000
1000
0001
0000
0001
0010
0000
,
0200
0000
0301
0000
0100
0000
1000
0010
,
0000
0010
0001
0000
0010
0100
0010
0000
,
1000
1010
0100
0110
,
0001
0100
1000
0000
1000
0000
0110
0000
,
2000
3002
0103
0100
,
0020
2030
3001
0001
,
0200
1300
0002
0013
,
0100
1000
0100
0000
0010
0000
1010
0000
,
0100
0000
0010
0000
0100
1000
0010
0000
,
0001
0000
1000
0000
0001
0100
1000
0000
,
0010
0000
0100
1000
0000
0010
0000
1010
,
0000
0100
0010
0000
0100
0000
0100
0000
,
0022
0000
0033
0000
0001
1000
0001
0000
,
0220
0000
0330
0000
1000
0010
1000
0000
,
0200
0301
0002
0013
,
2000
0010
0100
3100
,
0001
0010
0001
0000
0010
1000
0010
0000
,
0001
0200
2000
0000
0000
0000
3300
0000
,
0100
1000
0001
0000
0010
0001
0100
0000
,
0202
0003
1000
1300
,
0002
0000
0013
0000
0100
0000
1000
0100
,
0000
0010
0100
0000
0001
0000
1000
0001
,
0000
1000
0100
0000
0010
1000
0010
0000
,
0001
1000
0010
0000
1000
0000
1001
0000
,
0020
0000
0030
0000
0010
0001
1000
0000
,
0200
0000
0300
0000
0001
1000
0100
0000
,
2000
0000
3000
0000
0001
0010
0001
1000
,
0002
0000
0010
0000
0013
1000
0100
0000
,
0001
0000
0100
0000
0001
0010
0100
0000
,
0010
0000
1000
0000
0100
0001
0010
0000
,
0020
2030
3002
2003
,
3200
0001
0001
0310
,
0100
0000
1001
0000
0001
0000
0010
0100
,
0010
0000
1000
0000
1000
0010
0000
0010
,
0100
0001
0100
0010
,
0100
0000
1000
0100
1000
0000
0010
0000
,
0110
0000
1000
0000
0100
0000
0010
0001
,
0010
0000
0100
0000
0001
0000
0100
1000
,
0100
0001
0101
1000
,
1100
0000
0100
0010
0100
0000
0001
0000
,
0001
0000
0101
0000
1000
0000
0001
0010
,
0001
0000
0010
0000
0010
1000
0000
1000
,
0100
1000
0100
0010
,
1000
0000
0001
0010
0001
0000
0100
0000
,
0010
0200
1300
2000
,
3010
0002
0010
0100
,
1003
0000
0010
1000
0010
0000
0001
0010
,
0001
0000
0100
1000
0100
1000
0001
0000
,
1001
0000
0010
0000
0100
0000
0010
0100
,
0001
0000
1000
0010
1000
0000
0001
0000
,
1001
0020
0031
1000
,
0010
0000
1000
0100
1000
0000
0010
0000
,
0010
0000
0100
0000
1000
0000
0100
0010
,
1000
0000
0100
0001
0010
0001
0100
0000
,
1100
2000
3100
0020
,
0130
0000
0000
0000
1000
0000
0100
0000
0001
0000
0100
0010
0000
0000
0000
0000
;

//---------------dance-single - ----------------
#NOTEDATA:;
#CHARTNAME:;
#STEPSTYPE:dance-single;
#DESCRIPTION:;
#CHARTSTYLE:;
#DIFFICULTY:Easy;
#METER:4;
#RADARVALUES:0.228270,0.236178,0.059496,0.348476,0.000000,188.000000,181.000000,7.000000,41.000000,0.000000,0.000000,0.000000,0.000000,0.000000,0.228270,0.236178,0.059496,0.348476,0.000000,188.000000,181.000000,7.000000,41.000000,0.000000,0.000000,0.000000,0.000000,0.000000;
#CREDIT:;
#NOTES:
// measure 0
0000
0000
0000
0000
,  // measure 1
0000
0000
0000
0000
,  // measure 2
0200
0300
0001
1000
,  // measure 3
0002
0003
0020
0030
,  // measure 4
0001
1000
0100
0001
,  // measure 5
0010
1000
1000
0000
,  // measure 6
0020
0030
1000
0001
,  // measure 7
2000
3000
0200
0300
,  // measure 8
0010
1000
0010
0100
,  // measure 9
0001
0001
0010
0000
,  // measure 10
0200
0300
1000
0010
,  // measure 11
2000
3000
0001
0001
,  // measure 12
0020
0030
0100
0001
,  // measure 13
0010
1000
2000
3000
,  // measure 14
0001
0010
0001
0000
,  // measure 15
0100
1000
0100
0000
,  // measure 16
0010
0001
0100
0010
,  // measure 17
0100
0001
0001
0000
,  // measure 18
0220
0330
0001
0010
,  // measure 19
0200
0300
1000
0010
,  // measure 20
0020
0030
0100
1000
,  // measure 21
0010
0001
0002
0003
,  // measure 22
0100
1000
0010
0100
,  // measure 23
0100
0220
0000
0330
,  // measure 24
1000
0001
1000
0100
,  // measure 25
0020
0030
1000
1000
,  // measure 26
2002
3003
0010
0100
,  // measure 27
0020
0030
2000
3000
,  // measure 28
0100
0001
0200
0300
,  // measure 29
0010
0001
0002
0003
,  // measure 30
0010
0000
0100
0010
,  // measure 31
1000
0100
1000
0000
,  // measure 32
0010
0010
0001
0000
,  // measure 33
0100
0100
0001
0000
,  // measure 34
1000
0001
2000
3000
,  // measure 35
0010
0100
0020
0030
,  // measure 36
1000
0010
0100
0001
,  // measure 37
2002
0000
0000
3003
,  // measure 38
0000
0020
0030
0100
,  // measure 39
1000
0010
0010
0001
,  // measure 40
0000
2000
3000
0200
,  // measure 41
0300
1000
0010
0002
,  // measure 42
0003
0010
0100
0010
,  // measure 43
0000
1000
0001
1000
,  // measure 44
0000
0100
0010
0001
,  // measure 45
0100
0010
0100
0200
,  // measure 46
0300
0220
0330
0100
,  // measure 47
0010
1000
1000
0001
,  // measure 48
0000
2000
3000
0200
,  // measure 49
0300
0010
0001
0001
,  // measure 50
0000
0100
0001
0100
,  // measure 51
0000
1000
0001
1000
,  // measure 52
0000
0010
0001
0010
,  // measure 53
1000
0100
0100
0001
,  // measure 54
0000
0220
0330
0100
,  // measure 55
0001
0010
1000
1000
,  // measure 56
0000
2002
3003
0010
,  // measure 57
0001
0100
0010
0010
,  // measure 58
0000
0100
0001
0010
,  // measure 59
0000
1000
0010
0001
,  // measure 60
0000
0100
1000
0010
,  // measure 61
0100
0001
0010
0010
;
