#TITLE:Spring Comes Around;
#SUBTITLE:(In Like A Lion);
#ARTIST:Sota Fujimori Rmx by wac;
#TITLETRANSLIT:;
#SUBTITLETRANSLIT:;
#ARTISTTRANSLIT:;
#GENRE:;
#CREDIT:;
#BANNER:Spring Comes Around (In Like a Lion).png;
#BACKGROUND:Spring Comes Around (In Like a Lion)-bg.png;
#LYRICSPATH:;
#CDTITLE:;
#MUSIC:Spring Comes Around (In Like A Lion).ogg;
#OFFSET:-0.023000;
#SAMPLESTART:38.930000;
#SAMPLELENGTH:12.075000;
#SELECTABLE:YES;
#BPMS:0.000000=159.513000
;
#STOPS:
;
#BGCHANGES:;
#KEYSOUNDS:;
#ATTACKS:;

//---------------dance-single - ----------------
#NOTES:
     dance-single:
     :
     Beginner:
     2:
     0.151845,0.170990,0.038511,0.053916,0.000000,138.000000,133.000000,5.000000,7.000000,0.000000,0.000000,0.151845,0.170990,0.038511,0.053916,0.000000,138.000000,133.000000,5.000000,7.000000,0.000000,0.000000:
// measure 0
0000
0000
0000
0000
,  // measure 1
1000
0000
1000
0000
,  // measure 2
0001
0000
0001
0000
,  // measure 3
1000
0000
1000
0000
,  // measure 4
0001
0000
0001
0000
,  // measure 5
0100
0000
0100
0000
,  // measure 6
0010
0000
0010
0000
,  // measure 7
0100
0000
0100
0000
,  // measure 8
0100
0000
0000
0000
,  // measure 9
0020
0000
0000
0000
,  // measure 10
0030
0000
0000
0000
,  // measure 11
0001
0000
0000
0000
,  // measure 12
1000
0000
0000
0000
,  // measure 13
0002
0000
0000
0000
,  // measure 14
0003
0000
0000
0000
,  // measure 15
0100
0000
0100
0000
,  // measure 16
0001
0000
1000
0000
,  // measure 17
1001
0000
0001
0000
,  // measure 18
1000
0000
1000
0000
,  // measure 19
0001
0000
0100
0000
,  // measure 20
1000
0000
0100
0000
,  // measure 21
0010
0000
0010
0000
,  // measure 22
0100
0000
0100
0000
,  // measure 23
0010
0000
1000
0000
,  // measure 24
0010
0000
0001
0000
,  // measure 25
0200
0000
0300
0000
,  // measure 26
0110
0000
0010
0000
,  // measure 27
1000
0000
0010
0000
,  // measure 28
0100
0000
0100
0000
,  // measure 29
0001
0000
1000
0000
,  // measure 30
0001
0000
0001
0000
,  // measure 31
1000
0000
1000
0000
,  // measure 32
0010
0000
0100
0000
,  // measure 33
0010
0000
1000
0000
,  // measure 34
1001
0000
0001
0000
,  // measure 35
0100
0000
0001
0000
,  // measure 36
1000
0000
1000
0000
,  // measure 37
0010
0000
0100
0000
,  // measure 38
0010
0000
0010
0000
,  // measure 39
0100
0000
0100
0000
,  // measure 40
0010
0000
1000
0000
,  // measure 41
0100
0000
1000
0000
,  // measure 42
0002
0000
0003
0000
,  // measure 43
1000
0000
1000
0000
,  // measure 44
0010
0000
0100
0000
,  // measure 45
0001
0000
0100
0000
,  // measure 46
0020
0000
0030
0000
,  // measure 47
0100
0000
0100
0000
,  // measure 48
1000
0000
0100
0000
,  // measure 49
0001
0000
0010
0000
,  // measure 50
2000
0000
3000
0000
,  // measure 51
0001
0000
0001
0000
,  // measure 52
0010
0000
1000
0000
,  // measure 53
0100
0000
0010
0000
,  // measure 54
0200
0000
0300
0000
,  // measure 55
0010
0000
0010
0000
,  // measure 56
0001
0000
1000
0000
,  // measure 57
0001
0000
0100
0000
,  // measure 58
0110
0000
0001
0000
,  // measure 59
1000
0000
1000
0000
,  // measure 60
0010
0000
0100
0000
,  // measure 61
0010
0000
0100
0000
,  // measure 62
1000
0000
1000
0000
,  // measure 63
0001
0000
0001
0000
,  // measure 64
1000
0000
0010
0000
,  // measure 65
0100
0000
0001
0000
,  // measure 66
1001
0000
0100
0000
,  // measure 67
0010
0000
0010
0000
,  // measure 68
0100
0000
0001
0000
,  // measure 69
0100
0000
1000
0000
,  // measure 70
0010
0000
0010
0000
,  // measure 71
1000
0000
1000
0000
,  // measure 72
0001
0000
0100
0000
,  // measure 73
0010
0000
1000
0000
,  // measure 74
1000
0000
0000
0000
;

//---------------dance-single - ----------------
#NOTES:
     dance-single:
     :
     Easy:
     5:
     0.233268,0.227987,0.092427,0.092427,0.000000,212.000000,200.000000,12.000000,12.000000,0.000000,0.000000,0.233268,0.227987,0.092427,0.092427,0.000000,212.000000,200.000000,12.000000,12.000000,0.000000,0.000000:
0000
0000
0000
0000
,
0001
0000
1000
0000
,
0010
0100
0010
0000
,
1000
0000
0100
0001
,
0100
1000
0010
0000
,
0100
0000
1000
0000
,
0010
0001
0010
0000
,
0001
0100
0001
0010
,
1000
0000
1001
0000
,
0002
0000
0003
0000
,
0200
0000
0300
0000
,
0010
0000
0100
0000
,
0010
0000
0001
0000
,
2000
0000
3000
0000
,
0020
0000
0030
0000
,
0001
0000
1000
0000
,
0010
0100
0010
0000
,
1001
0000
0010
0000
,
0001
0100
0001
0000
,
1000
0000
0001
1000
,
0100
1000
0010
0000
,
0110
0000
0010
0000
,
1000
0001
0100
0000
,
0001
0000
0010
0100
,
0010
1000
0001
0000
,
0100
0000
1001
0000
,
0010
0010
0100
0000
,
1000
1000
0001
0000
,
0100
1000
0100
0010
,
0001
0000
0100
0000
,
2000
3000
0010
0000
,
0100
0001
0100
0000
,
0001
0100
0010
0100
,
1000
0000
0110
0000
,
0100
0100
1000
0000
,
0010
0010
0001
0000
,
0100
0010
1000
0010
,
0100
0000
0001
0000
,
0020
0030
0100
0000
,
1000
0100
1000
0000
,
0001
1000
0010
1000
,
0001
0000
1001
0000
,
1000
1000
0010
0000
,
0100
0100
0001
0000
,
0010
0100
0010
0001
,
1000
0000
0010
0000
,
2002
3003
0100
0000
,
0001
1000
0001
0000
,
0100
1000
0010
0100
,
0001
0000
1000
0000
,
0001
0001
1000
0000
,
0010
0010
0100
0000
,
1000
0010
0100
0001
,
1000
0000
0001
0000
,
0220
0330
0100
0000
,
0010
1000
0010
0000
,
0100
1000
0001
0100
,
0010
0000
1001
0000
,
0002
0003
0010
0100
,
0010
0000
1000
0001
,
1000
0000
0100
0010
,
0100
1000
0100
0000
,
2000
3000
0001
1000
,
0010
0000
0001
0100
,
0010
0000
1000
0001
,
0100
0001
0010
0000
,
0110
0000
0010
1000
,
0100
0000
0001
0010
,
0001
0000
0010
0001
,
0010
0100
1000
0000
,
1001
0000
0001
1000
,
0010
0000
0100
0010
,
0001
0000
1000
0100
,
1000
0001
0010
0000
,
0110
0000
0000
0000
;

//---------------dance-single - ----------------
#NOTES:
     dance-single:
     :
     Medium:
     8:
     0.359806,0.346602,0.123236,0.177152,0.000000,327.000000,311.000000,16.000000,23.000000,0.000000,0.000000,0.359806,0.346602,0.123236,0.177152,0.000000,327.000000,311.000000,16.000000,23.000000,0.000000,0.000000:
0000
0000
0000
0000
,
0220
0330
0001
0100
,
0010
0000
1000
0001
0000
0001
0010
0000
,
0100
0000
0001
0000
1000
0000
0010
0001
,
0000
0010
0000
0100
0001
0100
0000
0000
,
1002
1003
0010
0001
,
1000
0010
0000
0100
0000
0001
0100
0000
,
1000
0000
0010
0000
0001
0000
0010
0100
,
0000
0010
0000
2000
0000
0000
3000
0000
,
0200
0000
0000
0001
0000
0000
0301
0000
,
0010
1000
0002
0003
,
0010
0100
0010
0001
,
1000
0000
0010
0100
0001
0000
0001
0000
,
2000
0000
0000
0010
0000
0000
3010
0000
,
0001
0100
0020
0030
,
0001
1000
0010
0100
,
0001
0100
0001
0000
1000
0000
0100
0000
,
0202
0303
0010
1000
,
0100
0000
1000
0001
0000
1000
0010
0000
,
0100
0001
0100
0010
,
1000
0000
0100
0010
0000
0001
0000
1001
,
0000
0000
0010
0000
0001
0000
1000
0010
,
0000
0000
0100
0001
0000
1000
0000
0020
,
0000
0000
1000
0000
1030
0000
0000
0100
,
0000
0100
0000
0220
0000
0330
0000
0010
,
0000
0001
0000
1000
0000
0000
0000
1001
,
0000
0001
0100
0010
,
1000
0000
0010
0000
1000
0100
1000
0000
,
0001
0000
1000
0000
0010
0000
0100
1000
,
0000
0100
0000
0001
0000
0010
0000
0110
,
0000
0000
0100
0000
0010
0000
0001
0010
,
0000
1000
0000
0001
0000
0010
0000
0100
,
0001
0000
0010
0000
0100
0000
0010
2000
,
0000
0000
0001
0000
3001
0000
0000
0110
,
0000
1000
0010
0100
,
0010
0000
1000
0000
0001
0010
0001
0000
,
0100
0000
1000
0000
0010
0000
1000
0001
,
0000
0010
0000
1000
0000
0100
0000
1001
,
0000
0000
1000
0000
0100
0000
0001
0100
,
0000
0010
0000
1000
0000
0001
0000
1000
,
0010
0000
1000
0000
0100
0000
0001
0200
,
0000
0000
0010
0000
0310
0000
0000
1100
,
0000
0000
0010
0000
0100
0000
0001
0100
,
0001
0000
0010
0000
1000
0001
1000
0000
,
0010
0000
0100
0000
0001
0000
1000
0001
,
0000
0010
0000
0100
0000
0010
0000
0011
,
0000
0000
0001
0000
1000
0000
0010
1000
,
0000
0100
0000
0010
0000
0001
0000
1000
,
0010
0000
0001
0000
1000
0000
0010
0200
,
0000
0000
0301
2000
0000
0000
3001
0101
,
0000
0000
0100
0000
0001
0000
0100
0010
,
0100
0000
1000
0000
0001
0100
0001
0000
,
1000
0000
0010
0000
0100
0000
0010
1000
,
0000
0001
0000
0010
0000
1000
0000
1010
,
0000
0000
0010
0000
1000
0000
0100
0001
,
0000
0100
0000
0010
0000
1000
0000
0001
,
1000
0000
0001
0000
0010
0000
0100
0002
,
0000
0000
1003
0020
0000
0000
0130
0110
,
0000
0000
0001
0000
1000
0000
0100
0010
,
0100
0000
0001
0000
0100
0000
0010
1000
,
0010
0000
1000
0000
0001
0000
0100
0001
,
0000
1000
0010
0000
0100
0001
0100
0000
,
0010
0000
1000
0000
0001
0000
1000
0010
,
0000
0001
0000
0100
0000
0010
0100
0000
,
0001
0000
1000
0000
0010
0000
0100
0010
,
0000
1000
0000
0001
0100
0010
0100
0000
,
2002
0000
3003
0000
0010
0000
1000
0001
,
1000
0000
0100
0000
0010
1000
0010
0000
,
0100
0000
0001
0000
0010
0000
1000
0001
,
1000
0000
0010
0000
0001
0100
0001
1000
,
0000
0000
0010
0000
0100
0000
1000
0001
,
0000
0010
0000
1000
0000
0100
0010
1000
,
0010
0000
0100
0000
0001
0000
1000
0010
,
0000
1000
0000
0100
0001
0100
0010
0000
,
2002
0000
0000
0000
,
3003
0000
0000
0000
;

//---------------dance-single - ----------------
#NOTES:
     dance-single:
     :
     Hard:
     12:
     0.467637,0.468297,0.207961,0.338899,0.038511,425.000000,398.000000,27.000000,44.000000,0.000000,0.000000,0.467637,0.468297,0.207961,0.338899,0.038511,425.000000,398.000000,27.000000,44.000000,0.000000,0.000000:
0000
0000
0000
0000
,
0010
0000
0010
0000
1000
0001
0100
0002
,
0000
1003
0010
2000
0000
3010
0100
0000
,
0001
0000
0100
0010
0000
1000
0001
2000
,
0000
0200
3000
0310
0001
0010
0100
1000
,
1001
0000
0001
0000
0010
0100
1000
0002
,
0000
1003
0010
0200
0000
0301
1000
0000
,
0100
1000
0100
0000
0010
0001
0100
0020
,
0000
0130
0001
0202
0000
0000
0303
0000
,
0000
0000
0000
0000
1000
0000
0000
0010
0000
0000
1000
0000
0000
0000
0001
0000
,
0100
0000
0010
0000
1000
0000
0000
0001
0000
0000
0000
0000
0000
0000
0100
0000
,
0001
0000
0000
1000
0000
0000
0000
0001
0000
0000
0010
0000
0100
0000
1000
0000
,
0010
0000
1000
0000
0001
0000
0000
1000
0000
0000
0020
0000
0000
0000
0000
0000
,
0030
0000
0000
0000
0100
0000
0000
0001
0000
0000
0100
0000
0000
0000
0010
0000
,
1000
0000
0010
0000
0100
0000
0000
0001
0000
0000
0000
0000
0000
0000
0010
0000
,
0100
0000
0000
1000
0000
0010
0000
0100
0000
0000
0010
0000
1000
0000
0001
0000
,
1000
0010
0100
0001
0100
0010
1000
0001
,
2000
0000
3010
0000
0100
0100
0001
1000
,
0010
0000
0100
0010
0000
1000
0001
1000
,
0010
1000
1000
0001
0100
0000
0001
0010
,
0000
0100
1000
0100
0000
1000
0000
1020
,
0000
0000
0130
0001
0000
0100
0010
1000
,
0000
0001
0100
0010
0000
1000
0000
2100
,
0000
0000
0010
0000
0010
3000
1000
1001
,
0000
1001
0000
0110
0000
0010
0001
0100
,
0000
0010
1000
0002
0000
0010
0003
0120
,
0000
1030
0100
1000
0010
0100
0000
0001
,
0000
0100
0010
1000
0000
0001
0000
0010
,
0000
0010
0001
1000
0001
0000
0010
0100
,
0000
0010
0000
0001
0000
0100
0000
2002
,
0000
0000
3003
0000
1000
0001
0100
0010
,
0000
0100
0000
0001
0000
0100
0010
1000
,
0001
0000
0001
0000
0010
0100
1000
0002
,
0000
0100
0003
0010
0020
0000
0030
2010
,
0000
3010
0100
0001
0100
0010
0000
1000
,
0000
0001
0100
0001
0000
1000
0000
0010
,
0000
0010
0100
0001
0010
0000
0100
1000
,
0000
0010
0000
1000
0000
0100
0000
0220
,
0000
0000
0330
0000
1000
0001
0100
0001
,
0000
1000
0000
0010
0000
0100
0001
1000
,
0010
0000
0010
0000
1000
0010
1000
0200
,
0000
0000
1300
0002
0000
0000
0103
0120
,
0000
1030
0010
1000
0001
0100
0000
0010
,
0000
1000
0010
1000
0000
0100
0000
0010
,
0000
0001
0100
0010
0100
0010
1000
0001
,
0000
0010
0100
1000
0000
0001
0000
0012
,
0000
0000
0103
0000
0010
1000
0001
2000
,
0000
3020
0000
0230
0000
0310
1000
0010
,
0100
0000
0100
0000
0001
0010
0100
0001
,
0000
0100
1000
0010
0000
1000
1000
1002
,
0000
0103
0010
0100
0010
1000
0001
0010
,
0000
0100
1000
0010
0000
0100
0001
0010
,
0000
0001
0100
0001
0100
0010
1000
0100
,
0000
1000
0001
0100
0000
0010
1000
1020
,
0000
0000
0130
0000
0010
1000
0001
0020
,
0000
0230
0000
2300
0000
3001
1000
0001
,
0010
0000
0010
0000
0100
1000
0010
0100
,
0000
0001
0100
0010
0000
1000
0001
0021
,
0000
0100
0100
0100
0130
1000
0010
0100
,
0000
0001
1000
0010
0100
0001
0010
0002
,
0000
1003
0010
1000
0100
0000
0010
0110
,
0000
1000
0010
0100
0000
0001
0000
2001
,
0000
0000
3010
0100
0001
0100
0000
0110
,
0000
1100
0000
1010
0000
0100
0001
0020
,
0000
0000
0130
0000
1000
0000
0100
1000
,
0000
2010
0000
3001
0100
0001
1000
0010
,
0220
0000
0330
0000
0001
0100
0010
1000
,
0000
0100
1000
0001
0000
1000
0001
0100
,
0001
0010
0000
0000
0100
1000
0010
1000
,
0000
0001
0100
0010
0000
1000
0100
1200
,
0000
0000
0310
0001
0010
0001
0100
0101
,
0000
1001
0000
1010
0000
0010
0100
0002
,
0000
0000
0003
0000
0010
0000
0100
0010
,
0000
0001
1000
0010
0100
0010
0000
1000
,
0200
0000
0000
0000
,
0000
0000
0000
0000
,
0300
0000
0000
0000
;
