#TITLE:Space Time;
#SUBTITLE:;
#ARTIST:NISH;
#TITLETRANSLIT:;
#SUBTITLETRANSLIT:;
#ARTISTTRANSLIT:;
#GENRE:;
#CREDIT:;
#BANNER:Space Time.png;
#BACKGROUND:Space Time-bg.png;
#LYRICSPATH:;
#CDTITLE:;
#MUSIC:Space Time.ogg;
#OFFSET:-0.294108;
#SAMPLESTART:94.282822;
#SAMPLELENGTH:13.426575;
#SELECTABLE:YES;
#BPMS:0.000000=143.000000
,159.000000=71.500000
,161.000000=143.000000
,165.000000=71.500000
,167.000000=143.000000
,171.000000=71.500000
,173.000000=143.000000
,177.000000=71.500000
,179.000000=143.000000
;
#STOPS:88.000000=2.098000
;
#BGCHANGES:8.000=Space Time.avi=1.000=0=0=0=StretchNoLoop====,
275.000=Space Time-bg.png=1.000=0=0=1=====,
99999=-nosongbg-=1.000=0=0=0 // don't automatically add -songbackground-
;
#KEYSOUNDS:;
#ATTACKS:;

//---------------dance-single - ----------------
#NOTES:
     dance-single:
     :
     Hard:
     12:
     0.495166,0.567407,0.176767,0.184452,0.234408,451.000000,428.000000,23.000000,24.000000,0.000000,0.000000,0.495166,0.567407,0.176767,0.184452,0.234408,451.000000,428.000000,23.000000,24.000000,0.000000,0.000000:
0000
0000
0000
0000
,
0000
0000
0000
0000
,
0100
0001
0100
0100
,
0010
0000
1000
0000
0001
0000
1000
0100
,
0010
0010
1000
1000
,
0001
0000
1000
0000
0100
0000
0010
0000
0100
0000
0000
0000
0110
0000
1000
0010
,
0000
0100
0001
0000
0200
0000
0000
0000
0001
0000
0000
0000
0301
0000
0000
0000
,
0010
0000
0000
0000
1000
0000
0000
0000
0100
0000
0000
0000
1000
0000
0010
1000
,
0000
0001
0100
0000
0002
0000
0000
0000
1000
0000
0000
0000
1003
0000
0000
0000
,
0010
0000
0100
0000
0010
0000
1000
0000
0001
0000
0000
0000
1100
0000
0100
0001
,
0000
0100
1000
0000
0020
0000
0000
0000
0100
0000
0000
0000
0130
0000
0000
0000
,
0001
0000
0000
0000
1000
0000
0010
0000
0100
0000
0010
0000
0001
0000
1000
0100
,
0000
0010
0001
0000
2000
0000
0000
0000
0001
0000
0000
0000
3001
0000
0010
0100
,
0000
0010
1000
0000
0001
0000
0100
1000
0000
0100
0010
0000
1000
0100
0000
1001
,
0000
0010
0100
0000
1000
0001
1000
0000
,
0010
0001
0010
0100
0000
0100
0001
1000
,
0100
0000
0001
0010
1000
0010
0100
0000
,
1000
1000
0001
0010
0100
0010
0001
0000
,
1000
0100
1000
0000
0100
0010
0100
0000
,
0010
1000
0010
0000
0001
0100
0001
0000
,
0010
1000
0100
1000
0001
0010
0100
1000
,
0001
0000
0001
0000
1000
0000
1000
0000
0100
0000
0100
0000
0010
0001
0010
0000
,
1001
0000
0010
0001
0100
0010
2000
0000
,
0010
0001
0000
0001
3010
0000
0100
0000
,
1000
0100
0000
0010
0010
0000
0001
0100
,
1000
0100
0000
0010
0100
0000
0010
1000
,
0001
1000
0100
0000
0101
0001
0000
0010
,
1000
0200
0000
0010
0010
0300
0001
1000
,
0001
0100
0100
0010
0001
0000
1000
0100
,
0010
0100
0000
0001
0010
0000
0100
0001
,
0010
1000
0100
0000
1010
0000
0100
0000
,
0001
0000
0000
0100
0000
0000
0010
0000
0001
0000
0000
0000
1000
0000
1000
0000
,
0001
0000
0000
0010
0000
0000
0010
0000
0100
0000
0000
0000
0010
0000
1000
0000
,
0100
0000
0000
0001
0000
0000
1000
0000
0010
0000
0000
0000
0100
0000
0100
0000
,
0001
0000
0000
0010
0000
1000
0010
0000
0001
0000
0000
0000
0100
0000
0000
0000
,
0010
0000
0000
1000
0000
0000
0001
0000
1000
0000
0000
0000
0010
0000
0000
0000
,
0001
1000
0000
0100
0001
0000
0010
1000
,
0100
1000
0000
0100
0000
0001
0000
0010
,
0100
1000
0000
0001
0001
0011
0000
1000
,
0010
0000
0000
0000
0002
0000
0000
0000
0000
0000
0000
0000
0100
0000
0000
0000
0100
0000
0000
0000
0003
0000
0000
0000
2001
0000
0010
0000
0000
0001
0000
0000
,
0010
0000
0000
0100
3000
0000
0001
0000
0010
0000
0000
0000
0001
0000
0000
0000
0100
0000
0000
0000
2000
0000
0000
0000
0000
0000
0000
0000
0001
0000
0000
0000
,
0001
0000
0000
0000
3000
0000
0000
0000
1200
0000
1000
0000
0000
0001
0000
0000
0010
0000
0000
1000
0300
0000
0001
0000
0001
0000
0000
0000
0100
0000
0000
0000
,
1000
0000
0000
0000
0020
0000
0000
0000
0000
0000
0000
0000
1000
0000
0000
0000
1000
0000
0000
0000
0030
0000
0000
0000
0102
0000
0100
0000
0000
0010
0000
0000
,
1000
0000
0000
0100
0003
0000
0010
0000
0001
0000
0000
0000
1000
0000
0000
0000
0010
0000
0000
0000
0200
0000
0000
0000
0000
0000
0000
0000
0001
0000
0000
0000
,
0000
0000
0000
0000
1300
0000
0000
0000
0021
0000
1000
0000
0000
0100
0000
0000
0001
0000
0000
0100
0030
0000
1000
0000
0010
0000
0000
0000
0001
0000
0000
0000
,
0000
0010
0000
0000
1000
0000
0000
0100
0000
0000
0001
0000
1000
0000
0100
0000
,
0000
0010
0000
0000
0001
0000
0000
0010
0000
0000
0100
0000
0001
0000
1000
0000
,
0000
0100
0000
0000
1000
0000
0000
0001
0000
0000
0010
0000
0100
0000
0001
0000
,
0000
1000
0000
0000
0010
0000
0000
0100
0000
0000
0001
0000
1000
0000
0100
0000
,
1000
0100
0010
0100
0010
0100
0001
0010
,
0001
0001
1000
0001
1000
1000
0220
0000
,
0030
0000
0000
1000
0000
1000
0000
1000
0000
1000
0300
2000
0000
0001
0000
0001
,
0000
0000
0010
0020
0000
3030
0110
0000
,
1000
0000
0001
0010
0100
0000
1000
0100
,
1000
0000
0010
0000
0001
0000
0000
0100
0000
0000
0010
0000
0100
0000
1000
0000
,
0001
0000
0001
0010
0100
0000
0010
0001
,
0000
0100
0000
0000
0010
0000
0000
1000
0000
0000
0100
0000
1000
0000
0010
0000
,
0001
0010
0100
0000
0001
0100
0100
0000
,
1000
0000
0010
0000
0100
0000
0000
1000
0000
0000
0010
0000
0001
0000
0100
0000
,
0001
1000
0100
0010
0100
0000
0001
0010
,
0000
1000
0000
0000
0001
0000
0000
1000
0000
0000
1001
0000
0020
0000
0000
0000
,
1030
0100
0010
1000
0001
0000
0100
1000
,
0100
0010
1000
0001
0101
0000
2000
0000
,
3100
0001
1000
0010
0100
0000
0001
1000
,
0100
0001
0011
0000
1100
0000
0002
1000
,
0103
0010
1000
0100
1000
0000
0200
0001
,
1300
0010
1000
0100
0100
0000
1000
0010
,
1010
0100
0001
0100
0110
0010
0000
1100
,
0000
0011
0000
0000
0101
0000
0000
1001
0000
0000
1000
0002
0200
0000
0000
0000
,
0000
0000
0000
0000
,
0000
0000
0000
0000
0000
0303
0000
0000
0000
0000
0000
0000
0000
0000
0000
0000
;

//---------------dance-single - ----------------
#NOTES:
     dance-single:
     :
     Medium:
     8:
     0.371100,0.375245,0.153710,0.222880,0.000000,338.000000,318.000000,20.000000,29.000000,0.000000,0.000000,0.371100,0.375245,0.153710,0.222880,0.000000,338.000000,318.000000,20.000000,29.000000,0.000000,0.000000:
0000
0000
0000
0000
,
0000
0000
0000
0000
,
0001
0100
0001
0100
,
0010
0001
0010
0001
,
1000
1000
0100
1000
,
0010
0000
1000
0000
1010
0000
0001
0100
,
1000
0100
0010
0000
0100
0000
0100
0000
,
0010
0000
0001
0000
1001
0000
0100
0001
,
0010
0001
0100
0000
1000
0000
0001
0000
,
0100
0000
0010
0000
0110
0000
0100
1000
,
0001
1000
0010
0000
0100
0000
0001
0000
,
1000
0000
0100
0000
1100
0000
0010
0100
,
0001
0100
1000
0000
0010
0000
0100
0010
,
0001
0010
1000
0000
0010
0100
0010
0010
,
0001
0000
0100
0000
1000
0000
1000
0010
,
0100
0000
0010
0000
1000
0001
1000
0000
,
0100
0000
0001
0000
0100
0000
0001
0010
,
1000
0000
0001
0000
0010
1000
0001
0000
,
0002
0000
1003
0000
0010
0000
0100
1000
,
0200
0000
0301
0000
0010
0000
1000
0100
,
2000
3001
0020
0130
,
2000
0000
0100
0010
3010
0100
0001
0000
,
0110
0010
1000
0200
,
0001
0001
0310
0100
,
0010
0000
1000
0010
1000
0000
0002
0000
,
1000
0000
0100
0000
0103
0000
0001
1000
,
0100
0001
1001
0020
,
0001
0000
1000
0000
0031
0000
0100
0001
,
0100
0001
0010
2000
,
0100
0000
0010
0000
3010
0000
1000
0100
,
0001
0100
0010
0000
1010
0000
0010
0000
,
0100
0000
0001
0010
0001
0000
1000
0000
,
0100
0010
0100
0000
0001
0000
0010
1000
,
0010
0000
0100
0000
0001
0010
0001
0000
,
0100
0010
0100
1000
0100
0000
0001
0000
,
0100
0001
1000
0000
0001
1000
0010
0000
,
0100
0010
0100
1000
0001
0000
0010
0000
,
0100
0000
0001
0000
1000
0000
0010
1000
,
0010
0001
0100
0000
0101
0000
0010
0000
,
1000
0000
0010
0100
0010
0000
0022
0000
,
0000
0033
1000
0000
0001
0000
0100
1000
,
0100
0000
2020
0000
0000
3030
0001
0000
,
1000
0000
0010
0100
0001
0000
0220
0000
,
0000
0330
1000
0000
0010
0001
0010
0100
,
1000
0000
2002
0000
0000
3003
0200
0000
,
0010
0001
0301
0020
,
1000
0100
0130
2000
,
0001
0010
3010
0002
,
0100
1000
1003
0001
,
0100
0001
0100
0000
0010
1000
0010
0000
,
0001
0100
0001
0100
1000
0000
0022
0000
,
0000
0000
0030
0200
,
0000
0000
0303
1001
,
1000
0000
0001
0000
0010
0100
0010
0000
,
0100
0000
1000
0000
0001
0100
0001
0000
,
0010
0000
1000
0000
0100
0001
0100
0000
,
0010
1000
1100
0100
,
0001
0000
0010
0000
0100
0010
1000
0000
,
0001
0000
1000
0000
0100
0010
0001
0000
,
0100
0000
0010
0000
1000
0001
0100
0000
,
1000
0011
0101
2000
,
0100
0000
0010
3000
0100
0001
0200
0000
,
1000
0000
0001
0300
1000
0010
0002
0000
,
0100
0000
1000
0003
0100
0010
2000
0000
,
0001
0000
3010
0001
0100
0000
0010
0000
,
0001
0000
1000
0100
0001
0000
0010
0000
,
0001
0000
0010
0100
1000
0000
0100
0000
,
0010
1000
0001
0000
0100
0001
0100
0000
,
0101
0110
1001
0200
,
0000
0000
0000
0300
;

//---------------dance-single - ----------------
#NOTES:
     dance-single:
     :
     Easy:
     4:
     0.233859,0.264189,0.084541,0.107597,0.000000,213.000000,202.000000,11.000000,14.000000,0.000000,0.000000,0.233859,0.264189,0.084541,0.107597,0.000000,213.000000,202.000000,11.000000,14.000000,0.000000,0.000000:
// measure 0
0000
0000
0000
0000
,  // measure 1
0000
0000
0000
0000
,  // measure 2
0000
0000
0000
0000
,  // measure 3
0000
0000
0000
0000
,  // measure 4
0100
0000
0010
0000
,  // measure 5
1000
0001
1000
0000
,  // measure 6
0002
0003
0010
0000
,  // measure 7
0100
0001
0100
0000
,  // measure 8
0200
0300
0010
0000
,  // measure 9
1000
0001
1000
0000
,  // measure 10
0020
0030
0001
0000
,  // measure 11
1000
0010
1000
0000
,  // measure 12
0200
0300
1000
0001
,  // measure 13
2000
3000
2002
3003
,  // measure 14
0010
0100
0010
0000
,  // measure 15
0100
0001
0100
0000
,  // measure 16
1000
0100
1000
0000
,  // measure 17
0001
1000
0001
0000
,  // measure 18
0010
0001
0010
0001
,  // measure 19
0100
0001
0100
0001
,  // measure 20
1000
0010
0100
0010
,  // measure 21
0001
0010
0100
1000
,  // measure 22
0000
0000
0000
0200
,  // measure 23
0300
1000
0010
0001
,  // measure 24
0010
1000
0000
0002
,  // measure 25
0003
0100
0010
0001
,  // measure 26
0010
0100
0000
2000
,  // measure 27
3000
0010
0100
0001
,  // measure 28
0010
0100
0000
0020
,  // measure 29
0030
0100
0001
0010
,  // measure 30
0100
0001
0000
1000
,  // measure 31
0010
1000
0000
0100
,  // measure 32
0001
0100
0000
0010
,  // measure 33
0001
0010
0000
0001
,  // measure 34
1000
0001
0000
0100
,  // measure 35
0100
0010
0000
1000
,  // measure 36
1000
0001
0000
0010
,  // measure 37
0010
0001
0000
0010
,  // measure 38
0100
0100
0000
1000
,  // measure 39
0001
1000
1000
1001
,  // measure 40
0000
0010
0100
0010
,  // measure 41
0010
0110
0000
0001
,  // measure 42
0100
0001
0001
0101
,  // measure 43
0000
0100
1000
0100
,  // measure 44
0100
1100
0000
0100
,  // measure 45
0010
0100
0001
0010
,  // measure 46
0001
0010
1000
0001
,  // measure 47
1000
0001
0010
0100
,  // measure 48
1000
0100
0010
0001
,  // measure 49
0001
1000
1000
0100
,  // measure 50
0100
0010
0010
0200
,  // measure 51
0000
0000
0000
0300
,  // measure 52
0000
1001
0000
0001
,  // measure 53
0100
0010
0100
1000
,  // measure 54
0010
0001
0001
1000
,  // measure 55
0010
0100
0010
1000
,  // measure 56
0001
0010
0010
0001
,  // measure 57
0010
0100
1000
0100
,  // measure 58
0010
0001
0001
1000
,  // measure 59
0001
1000
0010
0001
,  // measure 60
0100
0100
0000
0110
,  // measure 61
0000
1000
0010
1000
,  // measure 62
0001
0100
0000
1001
,  // measure 63
0000
0001
0010
1000
,  // measure 64
0010
0100
0000
0110
,  // measure 65
0000
0001
0010
0001
,  // measure 66
0100
0010
0000
1001
,  // measure 67
0000
0100
0001
0200
,  // measure 68
0300
2000
3000
1001
;

//---------------dance-single - ----------------
#NOTES:
     dance-single:
     :
     Beginner:
     2:
     0.118576,0.211351,0.038428,0.061484,0.000000,108.000000,103.000000,5.000000,8.000000,0.000000,0.000000,0.118576,0.211351,0.038428,0.061484,0.000000,108.000000,103.000000,5.000000,8.000000,0.000000,0.000000:
0000
0000
0000
0000
,
0000
0000
0000
0000
,
0000
0000
0000
0000
,
0000
0000
0000
0000
,
0000
0000
0000
0000
,
0000
0000
0000
0000
,
0001
0001
0000
0000
,
0000
0000
0000
0000
,
0100
0100
0000
0000
,
0000
0000
0000
0000
,
1000
1000
0000
0000
,
0000
0000
0000
0000
,
0010
0010
0000
0000
,
0110
0000
0000
0000
,
1000
0000
1000
0000
,
0001
0000
1000
0000
,
0010
0000
0010
0000
,
0001
0000
0010
0000
,
0100
0000
0100
0000
,
1000
0000
0100
0000
,
0001
0000
0001
0000
,
0100
0000
0001
0000
,
0000
0000
0000
0200
,
0000
0000
0000
0300
,
0000
0000
0000
2000
,
0000
0000
0000
3000
,
0000
0000
0000
0020
,
0000
0000
0000
0030
,
0000
0000
0000
0002
,
0000
0000
0000
0003
,
0000
0000
0000
0100
,
0000
0100
0000
0001
,
0000
0001
0000
0010
,
0000
0010
0000
1000
,
0000
1000
0000
0100
,
0000
1000
0000
0100
,
0000
0010
0000
0001
,
0000
1000
0000
0010
,
0000
0100
0000
0001
,
0001
0001
0000
0000
,
0000
0010
0010
0010
,
0000
0000
0000
1000
,
1000
1000
0000
0000
,
0000
0100
0100
0100
,
0000
0000
0000
2000
,
0000
3000
0000
0002
,
0000
0003
0000
0200
,
0000
0300
0000
0020
,
0000
0030
0000
0100
,
0000
0001
0000
1000
,
0000
0010
0000
1001
,
0000
0000
0000
0000
,
0000
0000
0000
0100
,
0000
0001
0000
0100
,
0000
0100
0000
0010
,
0000
0100
0000
0010
,
0000
0010
0000
1000
,
0000
0010
0000
1000
,
0000
1000
0000
0001
,
0000
0100
0000
0001
,
0000
1001
0000
0100
,
0100
0100
0000
0001
,
0000
0100
0000
0010
,
0010
0010
0000
1000
,
0000
0010
0000
1000
,
1000
1000
0000
0001
,
0000
1000
0000
0100
,
0100
0100
0000
0010
,
0000
0110
0000
1001
;
