#TITLE:Smashing Wedge;
#SUBTITLE:;
#ARTIST:nora2r;
#TITLETRANSLIT:;
#SUBTITLETRANSLIT:;
#ARTISTTRANSLIT:;
#GENRE:;
#CREDIT:;
#MUSIC:Smashing Wedge.ogg;
#BANNER:Smashing Wedge.png;
#BACKGROUND:Smashing Wedge-bg.png;
#CDTITLE:;
#SAMPLESTART:50.525;
#SAMPLELENGTH:15.000;
#SELECTABLE:YES;
#OFFSET:-0.851;
#BPMS:0.000=71.667
,13.000=215.000
,213.000=107.500
,229.000=215.000
,261.000=107.500
,277.000=215.000
;
#STOPS:12.000=0.419
,12.500=0.419
,349.000=0.279
,350.000=0.279
;
#BGCHANGES:;
#FGCHANGES:;

//--------------- dance-single - ----------------
#NOTES:
     dance-single:
     :
     Hard:
     15:
     0,0,0,0,0:
0000
0000
0000
0000
,
0000
0000
0000
0000
,
1000
0000
0100
0010
0100
0000
1000
0000
0010
0100
0010
0000
1000
0000
0100
0000
0010
0000
0002
0000
0000
0000
1003
0000
,
1100
0101
0120
0000
0100
0000
0130
0000
,
0010
2001
0001
3001
,
1000
0000
0001
0100
0001
0010
0100
1000
,
0010
0100
0002
0000
0000
0000
0103
0100
,
0010
0100
0000
0000
0011
0000
0011
0000
,
0011
0000
0000
0000
0001
0000
0010
0000
0001
0000
1000
0010
1000
0000
0100
0000
,
0010
0000
0100
0100
1000
0000
0010
0100
,
0001
0010
0100
1000
,
0200
0000
0000
0000
0300
0000
0000
0000
1000
0000
0000
0000
0010
0000
0010
0100
,
0001
0000
0000
0000
1000
0000
0000
0000
0001
0000
0100
0010
1000
0010
0100
0000
,
0020
0000
0000
0000
0030
0000
0000
0000
0100
0000
0000
0000
0010
0000
1000
0001
,
0100
0000
0010
0000
0100
0000
0001
0010
,
0200
0000
0000
0000
0300
0000
0000
0000
0010
0000
0000
0000
0001
0000
0100
0001
,
0010
0000
0000
0000
0000
0000
0001
0000
0000
0000
0000
0000
1000
0000
0000
0010
0000
0000
1000
0000
0001
0000
1000
0000
,
0100
0000
0000
0000
0010
0000
0000
0000
0010
0000
0000
0000
0100
0000
0010
0100
,
0010
0000
0000
0000
0001
0000
1000
0100
1000
0000
0001
0100
0001
0000
1000
0010
,
1000
0000
0000
0000
0001
0000
0000
0000
0100
0000
0000
0000
0001
0000
1000
0001
,
0100
0000
0000
0000
0001
0000
0100
0000
1000
0000
0100
0000
0001
1000
0001
1000
,
0100
0220
0000
0000
,
0000
0000
0000
0000
,
0000
0000
0000
0000
,
0330
0000
0000
0000
0100
0000
1000
0010
1000
0010
0100
0000
0010
0000
0000
0000
,
0010
0000
0000
0000
1000
0000
0001
1000
0001
0000
0001
0000
0010
0000
0000
0100
,
0000
0010
0100
0000
1000
0000
0100
0000
0010
0000
0100
0000
1000
0000
0000
0010
,
0000
0100
0010
0000
0100
0000
0001
0000
0100
0000
1000
0000
0100
0000
0010
0000
,
0100
0100
0001
0001
1000
0000
0010
0100
,
0010
0000
0100
0010
1000
0000
0001
1000
0001
0000
0000
0000
0010
0000
0000
0100
,
0000
0010
0100
0000
1000
0000
0000
0000
0001
0000
0000
0000
1000
0000
0000
0001
,
0000
1000
0001
0000
0010
0000
0000
0000
0100
0000
0000
0000
1000
0000
0000
0000
,
0100
0000
0100
0000
0010
0000
0001
0000
1000
0000
0001
0100
0001
0100
0001
0000
,
0010
0000
0100
0010
0200
0000
0000
0000
1300
0000
0000
0000
0200
0000
0000
0000
,
0310
0000
0100
1000
0001
1000
0100
0010
,
0001
0000
0000
0000
0010
0000
0001
0000
0100
0000
0010
0000
0100
0001
0100
0000
,
0010
0100
0001
1000
0001
1000
0001
0000
,
1001
0000
0100
0001
0100
0010
1000
0010
,
1000
0100
0000
0010
0100
0010
0001
0010
,
0100
0010
0001
1000
0010
1000
0100
0010
,
0100
1000
0000
0100
1000
0100
0010
0001
,
0100
0010
1000
0001
1000
0010
0100
0001
,
0010
0001
0000
0100
0001
0010
0100
1000
,
0100
0010
0100
1000
0001
0010
0100
1000
,
0000
0010
0000
1000
0010
1000
0001
0010
,
0001
0000
0100
0100
0010
0100
0001
1000
,
0010
0100
0000
0001
0100
0010
0100
0001
,
1000
0010
0100
0001
1000
0100
0010
0001
,
0000
1000
0000
0010
0100
0010
1000
0001
,
0100
0010
1000
0001
1000
0001
1100
0000
,
0101
0000
0100
0001
0100
0010
1000
0100
,
0010
0100
1000
0100
0001
0100
0000
1000
,
0010
0000
1000
0001
1000
0001
0110
0000
,
0110
0000
0000
0000
1000
0000
1000
0000
0001
0000
0000
0010
0100
0010
0100
0000
,
0010
0000
0001
0000
1000
0010
0010
1000
0001
0000
0000
1000
0001
0000
0000
0100
,
0001
0000
0100
0000
0010
0000
1000
0000
0100
0000
0000
0010
0001
0010
0001
0000
,
0100
0000
0010
0000
1000
0001
0001
1000
0010
0000
0000
1000
0100
0000
1000
0000
,
0100
0010
0010
0010
0001
0000
0000
0000
1000
0000
0000
0000
0100
0000
0000
0000
,
0010
0100
1000
0100
,
0010
0000
0100
0010
0100
0000
0000
0000
1001
0000
1000
0000
0000
0000
0110
0000
,
0010
0000
0101
0001
0000
0001
0100
0000
,
0110
0000
0001
0000
0010
0100
0010
0001
,
1000
0100
1000
0000
0010
0000
0100
0100
,
0001
0001
1000
0000
1001
0000
0001
0000
,
1001
0000
0000
0000
0010
0000
0100
0010
0100
0000
0010
0100
0010
1000
0000
1000
,
0001
0000
0000
0000
0100
0000
0010
0000
0100
0001
0100
0000
0011
0000
1000
0000
,
0001
1000
0100
0000
0010
0000
0000
0100
0000
0000
0010
0000
1010
0000
1000
0000
,
0010
0000
0100
0000
0010
0000
0100
0000
0001
0010
0100
0000
1100
0000
1000
0000
,
0010
0100
0001
0000
1000
0000
0100
0000
0100
0000
0010
0000
0101
0000
1000
0000
,
1001
0100
2100
0000
3010
0000
0210
0000
,
0301
1100
0110
0021
,
0031
0000
0000
0000
0100
0000
0001
0000
1000
0000
0010
0000
0100
0001
1000
0001
,
0100
0001
0010
0001
1000
0000
0001
0000
1000
0000
0001
0000
1000
0000
0000
0000
,
1001
0000
0010
1000
0010
0100
0001
1000
,
0100
0010
0000
0100
0010
0001
0010
0100
,
1000
0000
0001
1000
0100
1000
0001
0100
,
0001
0000
1000
0000
0000
0000
0010
0000
0100
0000
0010
0000
0100
0000
0000
0001
,
0000
0100
0001
1000
0001
0100
0010
1000
,
0100
1000
0000
0010
1000
0100
0010
0001
,
0010
0100
0000
1000
0010
0100
0001
1000
,
0010
0100
0000
0001
0100
0001
1000
0100
,
1000
0000
0001
0010
0100
0010
0100
1000
,
0100
0010
0000
0001
0010
0100
0010
0001
,
0010
0000
1000
0001
1000
0010
0100
0001
,
0000
0000
1000
0000
0000
0000
0100
0000
0010
0000
0100
0000
0010
0000
0000
0001
,
0000
1000
0010
1000
0010
0100
0001
0010
,
0000
0000
0001
0000
0000
0000
1000
0000
0010
0000
1000
0000
0100
0000
0000
0010
,
0000
0001
0011
0000
1100
0000
0110
0000
,
0100
0000
0010
0100
0001
0000
1000
0000
0001
0000
1000
0000
0110
0000
0000
0000
;
