#TITLE:Sky High;
#SUBTITLE:;
#ARTIST:Cuvelia;
#TITLETRANSLIT:;
#SUBTITLETRANSLIT:;
#ARTISTTRANSLIT:;
#GENRE:;
#CREDIT:;
#BANNER:Sky High.png;
#BACKGROUND:Sky High-bg.png;
#LYRICSPATH:;
#CDTITLE:;
#MUSIC:Sky High.ogg;
#OFFSET:-0.727955;
#SAMPLESTART:32.118320;
#SAMPLELENGTH:12.549019;
#SELECTABLE:YES;
#DISPLAYBPM:153.000000;
#BPMS:0.000000=76.500000
,16.000000=153.000000
;
#STOPS:
;
#BGCHANGES:0.000=Sky High.avi=1.000=0=0=0=StretchNoLoop====,
99999=-nosongbg-=1.000=0=0=0 // don't automatically add -songbackground-
;
#KEYSOUNDS:;
#ATTACKS:;

//---------------dance-single - ----------------
#NOTES:
     dance-single:
     :
     Hard:
     12:
     0.516571,0.578560,0.297315,0.257138,0.096427,450.000000,413.000000,37.000000,32.000000,0.000000,0.000000,0.516571,0.578560,0.297315,0.257138,0.096427,450.000000,413.000000,37.000000,32.000000,0.000000,0.000000:
0000
0000
0000
0000
,
0000
0000
0000
0000
,
0000
0000
0000
0000
,
0000
0000
0000
0000
,
0100
0000
0010
1000
0100
0000
0100
0000
,
1000
0000
0010
0000
1000
0000
0010
0100
,
0001
0000
0001
0000
0010
0000
0001
0010
,
0001
0000
0000
0000
0100
0000
0000
0000
1000
0000
0000
0001
0000
0000
0100
0000
,
0120
0000
1030
0000
0100
0000
0010
0010
,
0001
0000
0100
0000
0001
1000
0100
0010
,
1000
0000
0100
1000
0100
0010
0100
0000
,
0001
0000
0100
0000
0010
0010
0100
0100
,
2100
0000
0000
0000
3010
0000
0000
0010
0001
0000
0000
0000
0010
0000
0000
0000
,
0100
0001
0100
0010
,
2000
3200
0320
0031
,
2002
0000
0000
0000
0000
3000
0003
0000
,
1000
0000
0010
0000
1000
0000
0000
0000
0100
0010
0100
0000
0010
0100
0010
0000
,
1000
0000
0100
0000
0001
0000
0000
0000
1000
0010
1000
0000
0001
0100
0001
0000
,
0100
0000
0010
0000
0001
0000
0000
0000
0100
0001
0100
0000
0001
0010
0001
0000
,
1000
0000
0001
0000
0010
0000
0000
0000
0100
1000
0100
0000
0010
1000
0010
0000
,
0100
0000
0010
0000
1000
0000
0010
0000
1000
0000
0100
0000
0010
0001
0010
0000
,
0100
0000
0010
0000
0001
0000
0010
0000
0100
0000
0100
0000
0010
0100
0010
0000
,
1000
0000
0010
0000
0001
0000
0100
0000
0001
1000
0001
0000
1000
0000
2000
0000
,
0010
0000
0000
0000
0100
0000
0000
0000
0010
0000
3000
0000
0001
0100
0010
0000
,
0100
1000
0100
0010
0100
0010
0001
0000
,
0010
1000
0010
1000
0010
0001
0100
0000
,
0001
0010
0100
0010
0001
0100
1000
0000
,
1000
0100
0001
0010
0001
0100
1000
0000
,
0011
0000
1000
1000
0100
1000
0100
0000
,
0100
0100
0010
0100
0010
0001
1000
0000
,
1000
0001
1000
0010
0100
1000
0100
0010
,
0001
0000
1010
0000
0100
0001
0100
0010
,
0202
0000
0000
0000
0303
0000
0000
0010
0020
0000
0000
0000
0030
0000
0000
0000
,
0022
0030
0103
1100
,
0002
0000
0000
0000
0023
0000
0000
0000
0230
0000
1000
0000
1300
0001
1000
0000
,
2002
0000
0000
0000
0000
0000
0000
3003
,
0010
0020
0000
0000
1030
0000
1100
0000
,
1000
2000
0000
0000
3001
0000
0101
0000
,
0001
0002
0000
0000
0013
0000
0110
0000
,
0100
0200
0000
0000
0301
0000
0101
0000
,
1010
1020
0000
0000
0130
0000
0110
0000
,
1001
2001
0000
0000
3100
0000
0110
0000
,
0011
0012
0000
0000
0013
0000
1010
0000
,
1000
1200
0010
1300
,
0100
0010
1000
0001
0011
0100
0001
0010
,
1000
0100
0001
0100
1100
0100
0100
0000
,
0100
0010
0001
0010
1001
0100
1000
0010
,
0001
1000
0001
0010
0110
0010
0100
0000
,
0100
0010
1000
0010
1010
0001
0100
0010
,
0100
0001
0100
0010
0101
1000
0010
0000
,
0100
0010
0100
0000
1000
0100
0010
0100
,
0011
0000
0000
0000
0110
0000
0000
0000
1001
0000
0010
0000
0001
1000
0001
0000
,
2000
0010
0010
0001
,
0010
3001
0020
1030
,
0200
1000
0001
0310
,
0002
0000
0000
0000
0103
0000
0000
0000
1000
0000
0000
1000
0000
0000
1000
0000
,
0100
0000
0000
0010
0000
0000
0001
0000
0010
0000
0000
1000
0000
0000
0100
0000
,
1000
0100
1000
0010
0001
0100
0010
0000
,
0010
0000
0010
0000
0000
1000
0000
0000
0001
0000
0000
0100
0000
0000
1000
0000
,
0001
0010
0100
0001
0100
1000
0100
0000
,
1000
0010
0001
1000
0001
0010
0100
0100
,
0001
1000
0001
0010
1000
0100
0010
0010
,
0100
0001
0010
0100
1000
0001
1000
1000
,
0001
0010
1000
0100
0010
1000
0001
0001
,
0100
0001
1000
0100
0010
0010
0001
1000
,
0010
1000
0100
0010
0001
0001
1000
0010
,
0100
0001
1000
1000
0001
0010
0100
0100
,
0010
0000
0001
0000
1000
0000
0010
0000
0001
0000
1000
0000
0001
0010
0001
0000
,
0110
0000
0001
0000
0010
1000
0100
1000
,
0011
0000
0010
0000
1000
0010
1000
0000
,
1100
0000
0000
0000
0110
0000
0000
0000
0010
0000
0010
0000
0001
1000
0001
0000
,
2002
0000
0000
0000
,
3003
0000
0000
0000
;

//---------------dance-single - ----------------
#NOTES:
     dance-single:
     :
     Medium:
     9:
     0.375375,0.404992,0.200889,0.771413,0.000000,327.000000,302.000000,25.000000,96.000000,0.000000,0.000000,0.375375,0.404992,0.200889,0.771413,0.000000,327.000000,302.000000,25.000000,96.000000,0.000000,0.000000:
0000
0000
0000
0000
,
0000
0000
0000
0000
,
0000
0000
0000
0000
,
0000
0000
0000
0000
,
0002
0023
0032
0000
,
0203
0010
2300
0010
,
0000
0000
0001
0000
0001
0000
3010
0100
,
0020
0100
0032
0103
,
2200
3000
0302
1000
,
2003
3020
0230
2300
,
3020
0100
0032
0100
,
0203
0001
2300
3001
,
0022
0033
2002
3003
,
0020
0001
2030
0001
,
3002
2003
3200
0320
,
2000
0000
0000
3030
,
0100
0000
0101
0000
0001
0100
0001
0000
,
1000
0010
0100
0010
1000
0000
0010
0000
,
0002
0000
1000
0000
1003
0000
0010
0001
,
0020
0100
0031
1000
,
2100
0000
3010
0000
0100
0000
1000
0001
,
1000
0010
0100
0001
,
0100
0001
0100
0000
0010
0100
0010
0000
,
0001
0100
1100
0101
,
0002
0000
1003
0100
2000
0000
3001
0100
,
0001
0100
0020
0000
0130
1000
0200
0000
,
0301
0000
0001
0100
1000
0000
0100
0010
,
0001
0010
0001
0000
1000
0010
1000
0000
,
2000
0000
0001
0000
3010
0100
0010
0001
,
0200
0000
0001
0000
1300
0010
0001
0010
,
0002
0103
0200
0310
,
0020
0100
1000
1030
,
0220
0330
2020
3030
,
0200
0001
0302
1003
,
2000
3020
0230
0302
,
0020
0000
0000
0033
,
0100
0010
2002
3003
,
0010
0001
2200
3300
,
1000
0010
0220
0330
,
0001
0100
0202
0303
,
1000
0100
1000
0000
2020
0000
3030
0000
,
0001
0100
0001
0000
0022
0000
0033
0000
,
0010
1000
0010
0000
2002
0000
3003
0000
,
0100
0010
0100
0000
0202
0000
0303
0000
,
0001
0100
0020
0000
0001
0000
0001
0030
,
0100
1000
0002
0000
0100
0000
0100
0003
,
0010
0001
2000
0000
0010
0000
0010
3000
,
0100
0010
0200
0000
1000
0000
1000
0300
,
1000
0010
0001
0000
1000
0000
1100
0000
,
0010
1000
0100
0000
0001
0000
0110
0000
,
0100
0001
1000
0000
0001
0100
1000
0100
,
0002
2003
3010
1010
,
0200
0000
1300
0000
0010
0001
0010
0000
,
0100
1000
0100
0001
0020
0000
0032
0000
,
0013
0000
0100
0000
0001
0010
0001
0000
,
0010
0100
0010
0001
0100
0000
0110
0000
,
2000
0000
3002
0000
1003
0010
1000
0000
,
0200
0000
0320
0000
0130
0001
0100
0000
,
0020
0000
1030
0001
2000
0000
3100
0001
,
0200
0302
0023
0031
,
1000
0000
1010
0000
0001
0100
0001
0000
,
0100
0010
0100
1000
0100
0000
0010
0000
,
0001
0000
0011
0000
1000
0100
1000
0000
,
0001
0100
1000
0100
0001
0000
0010
0000
,
0100
0000
0110
0000
1000
0001
0100
0000
,
0100
0001
0001
0000
0010
1000
0001
0000
,
0020
0000
1030
0100
0001
0010
0001
0000
,
1000
0001
0010
1010
,
2000
0001
3200
0001
,
0302
0010
0203
0010
,
0302
0203
2300
3020
,
0002
0000
0000
0000
,
0033
0000
0000
0000
;

//---------------dance-single - ----------------
#NOTES:
     dance-single:
     :
     Easy:
     4:
     0.228439,0.260352,0.056249,0.265173,0.000000,199.000000,192.000000,7.000000,33.000000,0.000000,0.000000,0.228439,0.260352,0.056249,0.265173,0.000000,199.000000,192.000000,7.000000,33.000000,0.000000,0.000000:
0000
0000
0000
0000
,
0000
0000
0000
0000
,
0000
0000
0000
0000
,
0000
0000
0000
0000
,
0010
0000
1000
0000
,
0100
0010
0100
0000
,
0001
0010
0001
1000
,
0010
0000
0100
0000
,
1001
0000
1000
0010
,
0100
0000
0100
0001
,
0010
0001
0001
0000
,
1000
0010
1000
0000
,
0200
0300
0001
0000
,
0020
0030
0100
0000
,
1000
0001
1000
1000
,
0002
0000
0000
0003
,
0020
0030
0100
0001
,
0100
0010
0010
0000
,
2000
3000
0010
0001
,
0100
1000
1000
0000
,
0002
0003
0100
0010
,
1000
0010
1000
0000
,
2000
3000
0010
0001
,
0010
0010
0100
0000
,
2002
3003
0100
0000
,
0010
0001
0001
0010
,
0100
0000
0010
0100
,
1000
0001
0001
0000
,
0010
1000
0010
0000
,
1000
0100
1000
0000
,
0001
1000
0100
0010
,
0100
0000
1001
0000
,
0200
0300
0010
0000
,
2000
3000
0001
0000
,
0020
0030
0002
0003
,
0200
0000
0000
0300
,
1000
1000
2000
3000
,
0010
0010
0020
0030
,
0100
0100
0200
0300
,
0001
0001
0002
0003
,
0100
0010
0200
0300
,
0001
0010
0002
0003
,
1000
0001
2000
3000
,
0010
0001
0020
0030
,
2000
3000
0100
0010
,
0100
0001
0001
0000
,
0020
0030
0001
0100
,
1000
0100
0010
0000
,
0020
0030
0100
0100
,
1000
0100
0001
0000
,
2000
3000
0001
0010
,
0100
0001
0100
0000
,
0020
0030
1000
0000
,
0100
0001
0100
0000
,
0002
0003
0010
0000
,
1000
0100
1000
0000
,
0010
1000
1000
0000
,
0100
0001
0001
0000
,
0100
1000
0010
0001
,
0010
0000
0110
0000
,
1000
0001
0100
0001
,
0010
1000
1000
0000
,
0100
0010
0001
1000
,
0010
0001
0001
0000
,
1001
0000
0100
0010
,
1000
0100
0001
0000
,
0110
0000
1000
0010
,
1000
0001
0001
0000
,
0200
0300
0010
0001
,
1000
0010
0010
0000
,
0002
0003
2000
3000
,
0220
0000
0000
0000
,
0330
0000
0000
0000
;

//---------------dance-single - ----------------
#NOTES:
     dance-single:
     :
     Beginner:
     3:
     0.151528,0.199683,0.048213,0.096427,0.000000,132.000000,126.000000,6.000000,12.000000,0.000000,0.000000,0.151528,0.199683,0.048213,0.096427,0.000000,132.000000,126.000000,6.000000,12.000000,0.000000,0.000000:
// measure 0
0000
0000
0000
0000
,  // measure 1
0000
0000
0000
0000
,  // measure 2
0000
0000
0000
0000
,  // measure 3
0000
0000
0000
0000
,  // measure 4
0010
0000
0100
0000
,  // measure 5
0010
0000
0010
0000
,  // measure 6
1000
0000
0001
0000
,  // measure 7
1000
0000
1000
0000
,  // measure 8
0200
0000
0300
0000
,  // measure 9
0010
0000
0001
0000
,  // measure 10
0020
0000
0030
0000
,  // measure 11
1000
0000
0001
0000
,  // measure 12
2000
0000
3000
0000
,  // measure 13
1000
0000
0001
0000
,  // measure 14
0100
0000
0100
0000
,  // measure 15
1001
0000
0000
0000
,  // measure 16
0010
0000
0100
0000
,  // measure 17
0001
0000
0001
0000
,  // measure 18
2000
0000
3000
0100
,  // measure 19
0200
0000
0300
0000
,  // measure 20
0010
0000
1000
0000
,  // measure 21
0001
0000
1000
0000
,  // measure 22
0100
0000
0100
0000
,  // measure 23
0020
0000
0030
0000
,  // measure 24
0100
0000
0001
0000
,  // measure 25
0100
0000
0100
0000
,  // measure 26
0020
0000
0030
1000
,  // measure 27
2000
0000
3000
0000
,  // measure 28
0001
0000
0100
0000
,  // measure 29
1000
0000
0100
0000
,  // measure 30
0001
0000
1000
0000
,  // measure 31
0010
0000
0010
0000
,  // measure 32
0002
0000
0003
0000
,  // measure 33
0200
0000
0300
0000
,  // measure 34
0010
0000
0100
0000
,  // measure 35
0110
0000
0000
0000
,  // measure 36
0001
0000
0001
0000
,  // measure 37
0010
0000
0010
0000
,  // measure 38
0100
0000
0100
0000
,  // measure 39
1000
0000
1000
0000
,  // measure 40
1000
0000
0001
0000
,  // measure 41
0001
0000
0100
0000
,  // measure 42
0100
0000
0010
0000
,  // measure 43
0010
0000
1001
0000
,  // measure 44
0100
0100
0100
0000
,  // measure 45
1000
0000
0001
0000
,  // measure 46
1000
1000
1000
0000
,  // measure 47
0010
0000
0100
0000
,  // measure 48
0010
0010
0010
0000
,  // measure 49
0100
0000
1000
0000
,  // measure 50
0100
0100
0100
0000
,  // measure 51
0010
0000
0010
0000
,  // measure 52
0110
0000
0000
0000
,  // measure 53
0000
0000
0001
0000
,  // measure 54
1000
0000
0000
0000
,  // measure 55
0000
0000
0001
0000
,  // measure 56
1001
0000
0000
0000
,  // measure 57
0100
0000
0100
0000
,  // measure 58
1000
0000
0010
0000
,  // measure 59
2000
0000
3000
0000
,  // measure 60
0100
0100
0100
0000
,  // measure 61
1000
0000
0100
0000
,  // measure 62
0001
0001
0001
0000
,  // measure 63
1000
0000
0001
0000
,  // measure 64
0010
0010
0010
0000
,  // measure 65
0001
0000
0010
0000
,  // measure 66
1000
1000
1000
0000
,  // measure 67
0100
0000
1000
0000
,  // measure 68
0020
0000
0030
0000
,  // measure 69
0001
0000
1000
0000
,  // measure 70
1000
0000
0001
0000
,  // measure 71
0110
0000
0000
0000
;
