#TITLE:Shounen wa sora wo tadoru;
#SUBTITLE:Prog Piano Remix;
#ARTIST:Toromaru;
#TITLETRANSLIT:;
#SUBTITLETRANSLIT:;
#ARTISTTRANSLIT:;
#GENRE:;
#CREDIT:;
#BANNER:Shounen wa sora wo tadoru Prog Piano Remix.png;
#BACKGROUND:Shounen wa sora wo tadoru Prog Piano Remix-bg.png;
#LYRICSPATH:;
#CDTITLE:;
#MUSIC:Shounen wa sora wo tadoru Prog Piano Remix.ogg;
#OFFSET:0.529000;
#SAMPLESTART:81.693001;
#SAMPLELENGTH:15.000000;
#SELECTABLE:YES;
#BPMS:0.000000=140.000000
;
#STOPS:
;
#BGCHANGES:;
#KEYSOUNDS:;
#ATTACKS:;

//---------------dance-single - ----------------
#NOTES:
     dance-single:
     :
     Beginner:
     3:
     0.135141,0.199850,0.051134,0.119313,0.000000,111.000000,105.000000,6.000000,14.000000,0.000000,0.000000,0.135141,0.199850,0.051134,0.119313,0.000000,111.000000,105.000000,6.000000,14.000000,0.000000,0.000000:
// measure 0
0000
0000
0000
0000
,  // measure 1
0000
0000
0000
0000
,  // measure 2
0000
0000
0000
0000
,  // measure 3
0000
0000
0000
0000
,  // measure 4
1001
0000
0000
0000
,  // measure 5
0000
0000
0000
0000
,  // measure 6
0100
0000
0100
0000
0000
0000
0000
0010
,  // measure 7
0000
0010
0000
0000
0000
0000
0220
0000
,  // measure 8
0000
0330
0000
0000
,  // measure 9
0001
0000
0001
0000
,  // measure 10
1000
0000
1000
0000
,  // measure 11
0100
0000
0100
0000
,  // measure 12
0010
0000
0010
0000
,  // measure 13
0100
0000
0100
0000
,  // measure 14
0001
0000
0001
0002
,  // measure 15
0000
0003
0000
2000
,  // measure 16
0000
3000
0000
0100
,  // measure 17
0000
0100
0000
0100
,  // measure 18
0000
0000
0010
0000
,  // measure 19
0010
0000
0010
0000
,  // measure 20
0000
0000
0000
0000
0002
0000
0000
0000
0000
0000
0000
0003
0000
0000
0000
0000
,  // measure 21
0000
0000
2000
0000
0000
0000
0000
0000
0000
3000
0000
0000
0000
0000
0000
0000
,  // measure 22
0020
0000
0000
0000
0000
0000
0000
0030
0000
0000
0000
0000
0000
0000
0200
0000
,  // measure 23
0000
0000
0000
0000
0000
0300
0000
0000
0000
0000
0000
0000
0000
0000
0001
0000
,  // measure 24
0000
0000
0000
1000
0000
0000
0000
0001
,  // measure 25
0000
0000
0000
1001
0000
0000
0000
0000
,  // measure 26
0000
0000
0000
0000
,  // measure 27
0000
0000
0000
0000
0000
0000
0000
0110
,  // measure 28
0000
0000
0010
0000
,  // measure 29
0100
0000
0010
0010
,  // measure 30
0010
0000
1000
0000
,  // measure 31
0001
0000
1000
1000
,  // measure 32
1000
0000
0100
0000
,  // measure 33
1000
0000
0100
0100
,  // measure 34
0100
0000
0010
0000
,  // measure 35
0001
0000
0010
0010
,  // measure 36
0000
1000
1000
0000
,  // measure 37
0000
0001
0000
0001
0000
0000
0000
0000
,  // measure 38
2002
0000
3003
0000
,  // measure 39
0100
0000
0100
0000
,  // measure 40
0110
0000
0000
0000
,  // measure 41
0010
0000
0000
0000
,  // measure 42
0010
0000
0000
0000
,  // measure 43
0010
0000
0000
0000
,  // measure 44
1000
0000
1000
0000
,  // measure 45
0001
0000
0001
0000
,  // measure 46
1000
0000
1000
0000
,  // measure 47
0001
0000
0001
0000
,  // measure 48
0100
0100
0100
0000
,  // measure 49
0001
0001
0001
0000
,  // measure 50
1000
1000
1000
0000
,  // measure 51
0010
0010
0010
0000
,  // measure 52
1000
0000
0001
0000
,  // measure 53
1000
0000
1000
0000
,  // measure 54
0010
0000
0100
0000
,  // measure 55
0010
0000
0010
0000
,  // measure 56
0001
0000
1000
0000
,  // measure 57
0001
0000
0001
0000
,  // measure 58
0100
0000
0010
0000
,  // measure 59
0100
0000
0100
0000
,  // measure 60
0002
0000
0000
0000
,  // measure 61
0003
0000
0000
0000
,  // measure 62
2000
0000
0000
0000
,  // measure 63
3000
0000
0000
0000
,  // measure 64
0200
0000
0000
0000
,  // measure 65
0300
0000
0000
0000
,  // measure 66
0020
0000
0000
0000
,  // measure 67
0030
0000
0000
0000
;

//---------------dance-single - ----------------
#NOTES:
     dance-single:
     :
     Easy:
     6:
     0.227670,0.316394,0.085224,0.102269,0.046873,187.000000,177.000000,10.000000,12.000000,0.000000,0.000000,0.227670,0.316394,0.085224,0.102269,0.046873,187.000000,177.000000,10.000000,12.000000,0.000000,0.000000:
0000
0000
0000
0000
,
0000
0000
0000
0000
,
0000
0000
0000
0000
,
0000
0000
0000
0000
,
0010
0000
0000
0000
0000
0000
0100
0000
0000
0000
0000
0010
0000
0000
0000
0000
,
0000
0001
0000
0000
0000
1000
0000
0000
0000
0000
0000
0001
0000
0000
0000
0000
,
0100
0000
0001
0000
0100
0000
0000
0010
,
0000
1000
0000
0010
0000
0000
0200
0000
,
0000
0010
0310
0000
,
0001
0010
0001
1000
,
0100
0100
0000
0010
,
1000
0000
0000
0010
0000
0000
0100
0000
,
0000
0010
0000
0000
0001
0000
0000
1000
,
0000
0000
0010
0000
0000
0100
0000
0000
,
0001
0000
0000
1000
0000
0000
1001
0000
,
0000
1010
0000
0000
0000
0010
0000
0000
0001
0000
0000
0000
0101
0000
0000
0000
,
0000
0100
0000
0000
0000
0000
0001
0000
0000
0000
0001
0000
0000
0000
0000
0000
,
0100
0010
0100
0000
,
0001
1000
0010
1000
,
0000
0100
0000
0001
,
1000
0000
0000
0000
0010
0000
0000
0000
0010
0000
0000
0001
0000
0000
0000
0000
,
0000
0000
1000
0000
0000
0000
1000
0000
0000
0100
0000
0000
0000
0000
0000
0000
,
0001
0000
0000
0000
0001
0000
0000
1000
0000
0000
0000
0000
0000
0000
0100
0000
,
0000
0000
0100
0000
0000
0010
0000
0000
0000
0000
0100
0000
0000
0000
1000
0000
,
0000
0100
0000
0010
0000
0100
0000
0001
,
0000
0001
0000
0020
0000
0000
0000
0000
,
0000
0000
0000
0130
0000
0000
0000
1000
,
0000
0001
0000
0100
0000
0010
0000
0110
,
0000
0001
1000
0000
,
0010
0000
0100
0001
,
0101
0000
0010
0000
,
1000
0000
0010
0100
,
0110
0000
1000
0000
,
1000
0000
0010
0001
,
0011
0000
0100
0000
,
0001
0000
1000
0010
,
1010
0001
0100
0001
,
0000
1000
0000
0010
0000
1000
0000
0000
,
2002
0000
3003
0000
,
0001
0010
0100
1000
,
0002
0000
0003
0000
,
0010
0000
0100
0000
,
0020
0000
0030
0000
,
0100
0000
1000
0000
,
0200
0000
0300
0000
,
1000
0000
0001
0000
,
2000
0000
3000
0000
,
0100
0100
0100
0000
,
1000
1000
0001
0001
,
0100
0100
0010
0010
,
0001
0001
0010
0010
,
0100
0100
1000
1000
,
0001
0100
0001
0010
,
0100
1000
0100
0000
,
1000
0001
1000
0010
,
0100
0001
0010
0000
,
0001
0010
0001
0100
,
0010
1000
0100
0000
,
1000
0001
1000
0010
,
0100
0010
1000
0000
,
0002
0000
0003
0000
,
1000
0000
0100
0000
,
2000
0000
3000
0000
,
0010
0000
0010
0000
,
0200
0000
0300
0000
,
0010
0000
0001
0000
,
0020
0000
0030
0000
,
1000
0000
1001
0000
;

//---------------dance-single - ----------------
#NOTES:
     dance-single:
     :
     Medium:
     10:
     0.382290,0.461913,0.144881,0.238627,0.115052,314.000000,297.000000,17.000000,28.000000,0.000000,0.000000,0.382290,0.461913,0.144881,0.238627,0.115052,314.000000,297.000000,17.000000,28.000000,0.000000,0.000000:
0000
0000
0000
0000
,
0000
0000
0000
0000
,
0000
0000
0000
0000
,
0000
0000
0000
0000
,
2000
0000
0000
3000
0000
0000
0002
0000
0000
0003
0000
0200
0000
0000
0300
0000
,
0000
0002
0000
0003
0000
2000
0000
0000
3000
0000
0000
0020
0000
0000
0030
0000
,
0100
0000
0000
0000
0001
0000
0000
1000
0000
0001
0000
0000
0000
0000
0010
0000
,
0000
0000
0100
0000
0000
1000
0000
0100
0000
0000
0000
0000
1002
0000
0000
0000
,
0000
0000
0100
0000
0100
0000
0003
0010
,
1000
0010
0100
0000
0001
1000
0000
0010
,
0011
0000
1010
0000
0000
1000
0001
1000
,
0010
0000
0100
0010
0000
1000
0100
0000
,
0001
1000
0000
0010
0001
0000
1000
0010
,
0000
0100
1000
0000
0001
0100
0000
1000
,
0001
0000
0010
1000
0000
0001
0010
0010
,
0000
0100
0000
0010
0000
0100
0000
0000
1000
0000
0001
0000
1000
0000
1000
0000
,
0000
0001
0000
0100
0000
0000
0001
0000
0010
0000
0001
0000
0000
0000
0010
0000
,
1000
0010
0000
0100
0010
0100
0000
1000
,
0010
1000
0100
0000
0010
0001
0010
1000
,
0000
0001
0100
0001
0000
0010
0001
0010
,
0100
0000
0000
0000
1000
0000
0000
0000
0001
0000
0000
1000
0000
0000
0100
0000
,
0010
0000
0100
0000
0000
0000
0001
0000
0000
0100
0000
0000
1000
0000
0010
0000
,
1000
0000
0000
0000
0100
0000
0000
1000
0000
0000
0001
0000
0100
0000
0001
0000
,
0000
0000
0010
0000
0000
0001
0000
0000
1000
0000
0010
0000
0000
0000
1010
0000
,
0000
0110
0000
0101
0000
0011
0000
1010
,
0000
0000
1001
0000
0000
0000
2100
0000
0000
0000
0100
0000
0000
0001
0000
0000
,
0001
0000
0000
0010
0000
0000
3100
0000
0000
0000
1000
0000
0000
0010
0000
0100
,
0000
0001
0000
0100
0000
0000
0010
0000
0000
0000
1000
0000
0000
0000
0001
0000
,
0001
0001
0000
0100
0010
0100
0000
0010
,
0001
0010
0000
1000
0001
1000
0010
0100
,
0100
0100
0000
0010
1000
0010
0000
0001
,
0010
0001
0000
0100
0010
0100
0001
1000
,
1000
1000
0000
0001
0100
0001
0000
1000
,
0100
1000
0000
0001
1000
0001
0100
0010
,
0010
0010
0000
0100
1000
0100
0000
1000
,
0001
1000
0000
0010
1000
0010
0100
0001
,
0001
0000
0001
0000
1000
0000
0000
0000
0010
0000
0000
0100
0000
0010
0000
0000
,
0000
0000
0001
0000
0000
0000
1000
0000
0000
0100
0000
1000
0000
0000
0000
0000
,
0220
0000
0330
0000
,
0101
1100
1010
0011
,
2001
0000
0002
3000
,
0010
0000
0020
0003
,
0100
0000
0230
0000
,
1000
0000
2000
3300
,
0001
0010
0100
0000
,
1000
0010
0100
0000
,
0001
1000
0100
0010
,
0200
0001
0001
0301
,
0010
0000
0010
0100
0001
0000
0001
0010
,
1000
0000
1000
0001
0100
0000
0100
0010
,
1000
0000
1000
0100
0010
0000
0010
1000
,
0100
0000
0100
0010
0001
0000
0001
0100
,
1000
0001
0100
0001
,
0010
0000
1000
0000
0010
0100
0010
1000
,
0010
0100
0001
0010
,
1000
0000
0100
0000
0001
0100
0001
0010
,
0001
0100
1000
0100
,
0001
0000
0010
0000
1000
0010
1000
0001
,
1000
0010
0100
1000
,
0001
0000
0010
0000
0100
1000
0100
0001
,
0200
0300
0010
1000
,
0020
0030
0002
0003
,
2000
3000
0001
0100
,
0200
0300
0020
0030
,
1000
0000
1000
0001
,
2000
3000
0020
0030
,
0002
0003
0100
1000
,
2000
3000
2002
3003
;

//---------------dance-single - ----------------
#NOTES:
     dance-single:
     :
     Hard:
     14:
     0.556390,0.723071,0.136358,0.230104,0.502821,457.000000,441.000000,16.000000,27.000000,0.000000,0.000000,0.556390,0.723071,0.136358,0.230104,0.502821,457.000000,441.000000,16.000000,27.000000,0.000000,0.000000:
0000
0000
0000
0000
,
0000
0000
0000
0000
,
0000
0000
0000
0000
,
0000
0000
0000
0000
,
0101
0000
0000
0000
0000
0000
1100
0000
0000
0000
0000
0110
0000
0000
0000
0000
,
0000
1010
0000
0000
0000
1001
0000
0000
0000
0000
0000
0011
0000
0000
0000
0000
,
0010
0000
0001
0000
0000
1000
0000
0001
0000
1000
0000
0000
0010
0100
0010
0000
,
1000
0000
0000
0001
0000
0010
0000
0001
0000
0000
0100
0010
0200
0000
0000
0000
,
0300
0000
0000
0000
1000
0000
0010
0000
0100
0000
0010
0000
0000
0100
1000
0000
,
0001
0000
0100
0000
0010
0000
1000
0000
0001
0000
1000
0010
0000
0001
0010
0000
,
1000
0000
1000
0000
0001
0000
0001
0000
0000
0100
1000
0000
0001
0000
1000
0000
,
0010
0000
0100
0001
0100
0000
1000
0000
0001
0100
0001
0000
1000
0000
0100
1000
,
0100
0000
0010
0000
1000
0001
1000
0000
0001
0000
0010
0001
0010
0000
0100
0000
,
0010
0100
0010
0000
0001
0000
1000
0010
1000
0000
0100
0000
0010
1000
0010
0000
,
0100
0000
1000
0001
1000
0000
0010
0000
0100
0001
0100
0000
0010
0000
0010
0000
,
0000
0100
0000
1000
0000
0100
0000
0000
1000
0000
0010
0100
0001
0000
0001
0000
,
0000
0100
0000
1000
0000
0000
0010
0000
0010
0000
1000
0010
0000
0000
0001
0000
,
0100
0000
0001
0010
0000
0000
0100
0000
1000
0000
0010
0100
0000
0000
0001
0000
,
0100
0000
0010
0000
1000
0100
1000
0000
0010
0000
1000
0000
0100
0000
0001
0100
,
0000
0000
0010
0000
0100
0000
0001
1000
0000
0000
0001
0000
1000
0000
0010
0000
,
0100
0010
0100
0000
0001
0000
0100
0000
1000
0000
0010
1000
0000
0000
0001
0000
,
1000
0000
0010
0000
0100
0000
0001
0000
1000
0010
0000
0000
0100
0000
0010
0000
,
1000
0000
0010
0000
0100
0000
0010
0001
0000
0000
0100
0000
0001
0000
0010
0000
,
0100
0000
1000
0000
0100
0010
0000
0000
1000
0000
0010
0000
0100
0000
0010
0000
,
0010
1000
1000
0001
0001
0100
0100
0001
,
0001
0000
1000
0000
0000
0000
1001
0000
0010
0000
0000
0100
0000
0010
0000
0000
,
1000
0000
0000
0010
0000
0000
0100
0000
0000
0001
0000
0000
0010
0000
0000
0100
,
0000
0000
0000
1000
0000
0000
0000
0000
0000
0100
0000
0000
0000
0000
0000
0010
0000
0000
0000
0000
0000
0000
0000
0000
0001
0000
0000
0000
0000
0000
0000
0000
0000
1000
0000
0000
0000
0000
0000
0000
0000
0000
0010
0000
0000
0000
0001
0000
,
0000
0000
0010
0000
0000
0000
0001
0000
0000
0000
0000
0000
0100
0000
0000
0000
0000
0000
1000
0000
0000
0000
0000
0000
0100
0000
0000
0000
0000
0000
0010
0000
0000
1000
0000
0000
0000
0000
0000
0000
0000
0000
0100
0000
0000
0000
0000
0000
,
1000
0000
0000
0000
0000
0000
0001
0000
0000
0100
0000
0000
0000
0000
0000
0000
0000
0000
0001
0000
0000
0000
0000
0000
1000
0000
0000
0000
0000
0000
0010
0000
0000
0000
0000
0000
0100
0000
0000
0000
0000
0000
0010
0000
0000
0000
1000
0000
,
0000
0000
0010
0000
0000
0000
1000
0000
0000
0000
0000
0000
0100
0000
0000
0000
0000
0000
0001
0000
0000
0000
0000
0000
0010
0000
0000
0000
0000
0000
0100
0000
0000
0010
0000
0000
0000
0000
0000
0000
0000
0000
1000
0000
0000
0000
0000
0000
,
0010
0000
0000
0000
0000
0000
1000
0000
0000
0100
0000
0000
0000
0000
0000
0000
0000
0000
0001
0000
0000
0000
0000
0000
0010
0000
0000
0000
0000
0000
1000
0000
0000
0000
0000
0000
0001
0000
0000
0000
0000
0000
0100
0000
0000
0000
0010
0000
,
0000
0000
0100
0000
0000
0000
0010
0000
0000
0000
0000
0000
0000
0000
0000
0000
0000
0000
0100
0000
0000
0000
0000
0000
0010
0000
0000
0000
0000
0000
0100
0000
0000
1000
0000
0000
0000
0000
0000
0000
0000
0000
0001
0000
0000
0000
0000
0000
,
0100
0000
0000
0000
0000
0000
0010
0000
0000
1000
0000
0000
0000
0000
0000
0000
0000
0000
0001
0000
0000
0000
0000
0000
0100
0000
0000
0000
0000
0000
1000
0000
0000
0000
0000
0000
0010
0000
0000
0000
0000
0000
1000
0000
0000
0000
0001
0000
,
0000
0000
1000
0000
0000
0000
0001
0000
0000
0000
0000
0000
0000
0000
0000
0000
0000
0000
0100
0000
0000
0000
0000
0000
0001
0000
0000
0000
0000
0000
0100
0000
0000
0010
0000
0000
0000
0000
0000
0000
0000
0000
1000
0000
0000
0000
0000
0000
,
0010
0000
0000
0000
0000
0000
1000
0000
0000
0100
0000
0000
0000
0000
0000
0000
0000
0000
0100
0000
0000
0000
0000
0000
0010
0000
0000
0000
0000
0000
0001
0000
0000
0000
0000
0000
1000
0000
0000
0000
0000
0000
0100
0000
0000
0000
0001
0000
,
0000
0000
0100
0000
0000
0000
0001
0000
0000
0000
0000
0000
1000
0000
0000
0000
0000
0000
0100
0000
0000
0000
0000
0000
0000
0000
0000
1000
0000
0000
0000
0000
0000
0010
0000
0000
0000
0000
0000
1000
0000
0000
0000
0000
0000
0000
0000
0000
,
0001
0100
0001
0000
0010
0000
0000
0100
0000
0010
0000
0100
0000
0000
1000
0001
,
2000
0000
0000
3000
,
0010
0000
0010
0100
0000
0100
0001
0000
0001
1000
0000
1000
,
0020
0000
0000
0000
0030
0000
1000
0100
,
0020
0000
0002
0033
,
2002
0000
3003
0002
,
0203
0000
0020
0330
,
1100
0000
1000
0000
0010
0000
0001
1000
,
0002
0103
0020
0130
,
2010
0001
3100
1000
,
2010
3010
0120
0130
,
0010
0100
0010
0100
0010
0100
0010
1000
0010
1000
0010
1000
,
0001
1000
0001
1000
0001
1000
0001
0100
0001
0100
0001
0100
,
0001
0010
0001
0010
0001
0010
0100
0010
0100
0010
0100
0010
,
0100
1000
0100
1000
0100
1000
0100
0010
0001
0100
0010
1000
,
0001
1000
0100
0001
0100
0010
1000
0010
,
0100
0000
0001
0000
0010
0000
1000
0000
0010
0000
0100
0000
0001
0100
0001
0000
,
0010
0100
0010
0001
1000
0001
0010
1000
,
0001
0000
0100
0000
0010
0000
0001
0000
1000
0000
0100
0000
0010
0100
0010
0000
,
1000
0010
1000
0001
0100
0010
1000
0100
,
0001
0000
0100
0000
0001
0000
1000
0000
0001
0000
0010
0000
1000
0010
1000
0000
,
0100
1000
0010
0001
0010
1000
0100
0001
,
1000
0000
0100
0000
0010
0000
1000
0000
0010
0000
0001
0000
1000
0001
1000
0000
,
0201
0000
0000
0001
0000
0300
0010
1000
,
0200
0000
2000
3300
,
1002
0000
0000
1000
0000
0003
0010
0000
,
0020
0000
0200
0330
,
0001
0000
0000
0001
0000
0000
0100
0010
,
2000
0000
0020
3030
,
0120
0000
0000
0100
0000
0030
0001
0000
,
0002
0000
0003
0000
2002
0000
0000
3003
;

//---------------dance-single - ----------------
#NOTES:
     dance-single:
     :
     Challenge:
     18:
     0.888763,0.957970,0.417597,0.196015,1.342276,730.000000,681.000000,49.000000,23.000000,0.000000,0.000000,0.888763,0.957970,0.417597,0.196015,1.342276,730.000000,681.000000,49.000000,23.000000,0.000000,0.000000:
0000
0000
0000
0000
,
0000
0000
0000
0000
,
0000
0000
0000
0000
,
0000
0000
0000
0000
,
1100
0000
0000
1000
0010
0000
1001
0000
0000
1000
0001
0101
0000
0000
0100
0010
,
0000
0011
0000
0010
0100
0110
0000
0000
1000
0100
0000
1010
0000
0000
0010
0100
,
1100
0000
1000
0000
0000
0010
0000
0100
0000
0010
0000
0000
0100
0001
0011
0000
,
0010
0000
0000
0100
0000
1000
0000
0100
0000
0000
0010
0001
2002
0000
0000
0000
,
0003
0000
0000
0000
3010
0100
0001
0100
1000
0001
0010
1000
0000
0100
0010
0100
,
1000
0001
0010
0100
0001
0010
1000
0100
0010
1000
0100
0001
0000
1000
0001
0010
,
0011
0000
0001
0000
1001
0000
0001
0000
0000
0100
0010
0100
1000
0001
1000
0100
,
0010
1000
0001
0010
0001
0000
0100
0001
1000
0100
1000
0000
0010
1000
0100
0010
,
0100
0000
0001
0100
0010
1000
0010
0000
1000
0100
0001
1000
0001
0000
0100
0010
,
0001
0100
0001
0000
1000
0010
1000
0001
1000
0000
0100
0001
0100
0010
0100
0000
,
0001
1000
0010
1000
0001
0000
0100
0001
0010
0001
0100
0000
0011
0000
0011
0000
,
0000
0100
0000
0110
0000
0010
0000
0000
0010
0000
0001
0100
1010
0000
1010
0000
,
0000
1000
0000
0100
0000
0000
1001
0000
1001
0000
1000
0010
0000
0100
1000
0100
,
0010
1000
0001
0010
0000
1000
0100
1000
0010
0100
0001
0100
0000
0010
1000
0001
,
0100
0010
1000
0001
0100
0010
0001
0010
0100
1000
0001
0010
1000
0100
0010
0001
,
0000
1000
0001
0010
0100
0001
1000
0010
0000
0100
1000
0100
0010
1000
0001
1000
,
0010
0100
0001
0010
1000
0100
0001
0010
0100
0010
0001
0010
0000
0000
0110
0000
,
1010
0000
0001
1000
0010
1000
0100
0001
0010
0001
0000
0000
0101
0000
1001
0000
,
0010
1000
0001
0100
0010
0100
0001
1000
0000
0000
1010
0000
0110
0000
1000
0001
,
0100
0010
0100
0001
1000
0001
0000
0000
0110
0000
0010
0100
0010
0001
1100
0000
,
0010
0000
0110
0000
0001
0000
0011
0000
0100
0000
0110
0000
1000
1000
1010
0000
,
0001
0000
1001
0000
0000
0000
0011
0000
0001
0100
0000
0010
0001
0010
1000
0000
,
0001
0010
0000
0001
0100
0000
0010
0001
0000
0100
1000
0000
0001
1000
0000
0100
,
0000
0000
0000
0100
0000
0000
0000
0000
0000
0100
0000
0000
0000
0000
0000
0001
0000
0000
1000
0000
0000
0000
0000
0000
0001
0000
0000
0100
0000
0000
0000
0000
0000
0010
0000
0000
0100
0000
0000
0000
0000
0000
0001
0000
0000
0000
0001
0000
,
0000
0000
0001
0000
0000
0000
0101
0000
0000
0000
0000
0000
1000
0000
0000
0010
0000
0000
0100
0000
0000
0010
0000
0000
1000
0000
0000
0100
0000
0000
0001
0000
0000
0010
0000
0000
0000
0000
0000
0100
0000
0000
0001
0000
0000
1000
0000
0000
,
0010
0000
0000
0001
0000
0000
0100
0000
0000
0010
0000
0000
0000
0000
0000
0001
0000
0000
1000
0000
0000
0100
0000
0000
0010
0000
0000
0100
0000
0000
0001
0000
0000
0010
0000
0000
1000
0000
0000
0100
0000
0000
0001
0000
0000
0000
0010
0000
,
0000
0000
1000
0000
0000
0000
0100
0000
0000
0100
0000
0000
0000
0000
0000
0010
0000
0000
1000
0000
0000
0010
0000
0000
0001
0000
0000
1000
0000
0000
0100
0000
0000
0001
0000
0000
0000
0000
0000
0100
0000
0000
0010
0000
0000
0100
0000
0000
,
0001
0000
0000
1000
0000
0000
0010
0000
0000
0100
0000
0000
0000
0000
0000
0001
0000
0000
1000
0000
0000
0100
0000
0000
0001
0000
0000
0100
0000
0000
0010
0000
0000
1000
0000
0000
0010
0000
0000
0001
0000
0000
0100
0000
0000
0000
0001
0000
,
0000
0000
0010
0000
0000
0000
1000
0000
0000
1000
0000
0000
0000
0000
0000
0010
0000
0000
0100
0000
0000
0010
0000
0000
0001
0000
0000
1000
0000
0000
0100
0000
0000
0010
0000
0000
0000
0000
0000
0001
0000
0000
1000
0000
0000
0001
0000
0000
,
0100
0000
0000
0010
0000
0000
0001
0000
0000
0010
0000
0000
0000
0000
0000
0100
0000
0000
1000
0000
0000
0010
0000
0000
0100
0000
0000
1000
0000
0000
0010
0000
0000
0001
0000
0000
0010
0000
0000
0100
0000
0000
0010
0000
0000
0000
1000
0000
,
0000
0000
0001
0000
0000
0000
0010
0000
0000
0010
0000
0000
0000
0000
0000
1000
0000
0000
0100
0000
0000
0000
0000
0000
1000
0000
0000
0010
0000
0000
0100
0000
0000
0001
0000
0000
0000
0000
0000
1000
0000
0000
0010
0000
0000
1000
0000
0000
,
0001
0000
0000
0100
0000
0000
0010
0000
0000
1000
0000
0000
0000
0000
0000
0001
0000
0000
0100
0000
0000
0010
0000
0000
0100
0000
0000
0001
0000
0000
1000
0000
0000
0001
0000
0000
1000
0000
0000
0010
0000
0000
0001
0000
0000
0000
1000
0000
,
0000
0000
0100
0000
0000
0000
0001
0000
0000
0001
0000
0000
0011
0000
0000
0000
0000
0000
1000
0000
0000
0000
0000
0000
0000
0000
0000
0100
0000
0000
0000
0000
0000
0001
0000
0000
0000
0000
0000
1000
0000
0000
0000
0000
0000
0000
0000
0000
,
0100
0010
0110
0000
0001
0000
0000
0100
0000
0010
0000
0001
0000
0000
1000
0001
,
2200
0000
0000
0000
0000
0000
0000
3300
,
0001
0000
0001
0000
0001
0000
0100
0000
0100
0000
0100
0000
0010
0001
0100
1000
0001
1000
0010
0100
0001
0010
1000
0100
,
2000
0000
0000
0001
0000
0000
3010
0100
,
0002
0000
0203
0000
,
0320
0000
0000
1000
0000
0000
2030
0000
,
3200
0000
0000
0000
0000
0000
0000
0000
2300
0000
0000
0000
0000
3000
0000
0000
,
0101
0000
0000
0010
0000
0000
0100
0000
1000
0000
0000
0001
0000
0000
0100
0000
,
1010
0000
0000
0010
0000
0000
0100
0000
0010
0000
0000
0001
0000
0000
1000
0000
,
0110
0000
0000
0100
0000
0000
0001
0000
1000
0000
0000
0010
0000
0000
0100
0000
,
1100
1000
0100
1000
0010
1000
0010
0100
0010
0100
0001
0100
,
0001
0000
0001
0000
0001
0000
0001
0000
0010
0001
0010
0000
0100
0000
0100
0000
0100
0000
0100
0000
1000
0100
1000
0000
,
0010
0000
0010
0000
0010
0000
0010
0000
0100
0010
0100
0000
1000
0000
1000
0000
1000
0000
1000
0000
0001
1000
0001
0000
,
0100
0000
0100
0000
0100
0000
0100
0000
0010
1000
0001
0000
1000
0000
1000
0000
1000
0000
1000
0000
0001
0010
0100
0000
,
0010
0000
0010
0000
0010
0000
0010
0000
0001
1000
0100
0000
0001
0000
0001
0000
0001
0000
0001
0000
0100
0010
1000
0000
,
0001
0010
0100
0001
0100
0010
1000
0001
0100
0010
0001
1000
0010
0100
0001
1000
,
0001
0100
1000
0010
0001
1000
0010
1000
0001
0100
0010
0001
1000
0010
1000
0000
,
0100
0010
1000
0001
0100
1000
0001
1000
0010
0100
1000
0100
0010
0001
1000
0010
,
0100
0001
0010
0100
1000
0010
0100
0010
0001
1000
0010
0100
0001
0010
0001
0000
,
0010
0100
0001
1000
0010
0100
0001
1000
0100
1000
0010
0001
0100
1000
0010
0001
,
1000
0100
0010
0001
1000
0100
0010
0001
0100
0010
1000
0001
0100
0010
0100
0000
,
1000
0001
0100
0001
0010
0100
1000
0010
0001
0010
1000
0100
1000
0001
0010
0100
,
0010
0001
0100
1000
0010
1000
0001
0100
0010
1000
0001
0100
1000
0001
0010
0000
,
1020
1000
0000
0100
0100
0000
1030
0001
,
0201
0001
0000
0010
0320
0000
0130
0000
,
2100
0100
0000
0001
0001
0000
3010
0000
,
0210
0010
0000
0001
0302
0000
1000
0000
,
0103
0100
0000
1000
1000
0000
0010
0100
,
0102
0100
0000
0010
0023
0000
0031
0000
,
2001
0001
0000
0100
3100
0000
1010
0000
,
1020
1000
0000
0030
2100
0001
0001
0002
,
0000
3003
0000
0000
0000
0000
0000
0000
;
