#TITLE:Shock Me;
#SUBTITLE:;
#ARTIST:dj TAKA feat.Fuuu\:ka;
#TITLETRANSLIT:;
#SUBTITLETRANSLIT:;
#ARTISTTRANSLIT:;
#GENRE:;
#CREDIT:;
#BANNER:Shock Me.png;
#BACKGROUND:Shock Me-bg.png;
#LYRICSPATH:;
#CDTITLE:;
#MUSIC:Shock Me.ogg;
#OFFSET:-0.983000;
#SAMPLESTART:0.978000;
#SAMPLELENGTH:15.000000;
#SELECTABLE:YES;
#BPMS:0.000000=218.000000
;
#STOPS:
;
#BGCHANGES:;
#KEYSOUNDS:;
#ATTACKS:;

//---------------dance-single - ----------------
#NOTES:
     dance-single:
     :
     Hard:
     15:
     0.815209,0.740044,0.416716,0.161584,0.046774,671.000000,622.000000,49.000000,19.000000,0.000000,0.000000,0.815209,0.740044,0.416716,0.161584,0.046774,671.000000,622.000000,49.000000,19.000000,0.000000,0.000000:
0101
0000
0110
1010
,
1002
0000
1000
0000
1000
0103
1100
0000
,
0010
0100
0010
0001
0000
1000
0001
1000
,
0000
0000
0010
0000
0100
0000
0010
0000
1000
0100
1000
0100
1000
0000
0000
0000
,
0001
0000
0010
0000
0100
1000
0001
0000
,
1000
0000
0100
0000
0010
0001
1000
0000
,
0010
0100
0010
0000
1000
0001
1000
0000
,
0100
1000
0001
0010
0001
0100
0010
1000
,
0010
0000
0010
0000
1010
0000
1000
0100
,
1000
0000
1000
0000
1001
0000
0010
0100
,
0010
0001
1000
1010
,
0010
0000
0100
0001
0000
1000
0100
0000
,
1000
0010
0100
0010
1000
0001
0010
0000
,
0001
1000
0100
1000
0001
0010
0100
0000
,
1000
0010
1000
0001
0100
0010
0100
0001
,
0202
0000
0000
0303
,
1001
0000
0011
1010
,
2100
0000
0100
0000
3100
0010
0110
0000
,
0100
0001
1000
0001
0000
0100
0010
0100
,
0000
0000
0001
0000
0010
0000
0001
0000
0100
0000
0001
0100
0001
0000
0000
0000
,
0010
0001
0100
0001
1000
0100
0010
0000
,
0100
0010
0100
1000
0100
1000
0001
0000
,
1000
0010
0100
0001
0010
0100
1000
0002
,
0000
0100
0103
0000
0110
0000
0110
0000
,
1000
0000
0100
1000
0100
1000
0001
0000
,
0010
0000
0100
0010
0100
0010
0001
0000
,
0100
0000
0010
1000
0010
1000
0100
0010
,
0001
0000
1000
0020
0000
1000
1030
0000
,
0100
0000
1000
0001
0010
0100
0010
0000
,
0001
0000
0100
0010
0100
0001
0010
0000
,
0001
0010
0001
0100
0010
0100
0001
0100
,
0010
1000
0000
1001
0000
1000
0100
0000
,
1000
0010
0100
0010
1000
0001
0010
0000
,
0001
0100
0010
0100
0001
0010
0100
0000
,
1000
0010
0100
0001
0100
0010
1000
0100
,
0020
0000
0001
0001
0030
0100
0001
0000
,
1000
0000
0001
0010
0001
0010
0100
0000
,
0010
0000
0001
1000
0001
1000
0010
0000
,
0100
0001
1000
0001
0100
0010
1000
0001
,
0010
0001
0010
0002
0000
0200
0303
0000
,
0011
0000
0110
1001
,
0012
0000
0010
0000
0013
0100
0110
0000
,
0100
0010
0100
1000
0000
0001
0100
0001
,
0000
0000
0010
0000
0001
0000
0010
0000
0001
1000
0001
1000
0001
0000
0000
0000
,
1000
0000
0100
0000
1000
0001
0010
0000
,
0100
0000
1000
0000
0100
0010
0001
0000
,
0100
0001
0100
0000
0001
1000
0001
0000
,
1000
0100
0010
0100
1000
0001
0100
0000
,
0001
0000
0001
0000
0101
0000
0010
0100
,
0010
0000
0010
0000
0110
0000
1000
0100
,
1000
0100
0010
0011
,
0001
0000
0100
0001
0000
0010
0001
0000
,
0010
0100
0010
0001
0100
0001
1000
0000
,
0100
1000
0010
0100
0001
1000
0001
0000
,
0100
0010
1000
0001
0010
0100
1000
0001
,
2200
0000
0000
3300
,
1001
0000
0011
1010
,
0210
0000
0010
0000
0310
1000
1010
0000
,
0100
1000
0100
0010
0000
0001
0010
0001
,
0000
0000
0010
0000
0100
0000
0010
0000
0100
0000
1000
0100
1000
0000
0000
0000
,
0010
0100
0001
0100
0010
1000
0100
0000
,
1000
0100
0010
0100
1000
0010
0100
0000
,
0010
1000
0100
1000
0001
0010
0001
0200
,
0000
0010
0310
0000
0011
0000
0011
0000
,
1000
0100
1000
0100
0010
0100
0010
0100
,
0010
0001
0010
0001
1000
0001
1000
0001
,
0100
0001
0100
0001
0100
0010
0100
0010
,
1000
0010
1000
0010
1000
0100
1000
0100
,
0010
0001
1000
0001
0010
0100
1000
0100
,
1000
0001
0100
0001
1000
0010
0100
0010
,
0100
0001
1000
0001
0100
0010
1000
0010
,
1000
0100
0010
0001
0100
0001
1000
0100
,
0001
0001
1000
0100
1000
0010
0100
0001
,
0010
0010
0001
1000
0001
0100
0010
1000
,
0100
0100
1000
0001
0010
0001
0100
0010
,
1000
1000
0010
1000
0100
0001
0010
0001
,
1000
0100
0010
0001
1000
0100
0010
0001
,
0100
0010
1000
0001
0100
0010
1000
0001
,
1000
1000
0010
0010
0100
0100
0001
0001
,
0010
0100
1000
0001
0100
0001
0100
0010
,
0000
0000
0110
0000
1100
1001
0000
0021
,
0000
0000
0001
0000
0031
1000
1001
0000
,
0010
0100
0010
1000
0000
0001
0100
0001
,
0000
0000
0100
0000
0001
0000
1000
0000
0100
0000
1000
0100
1000
0000
0000
0000
,
0001
1000
0010
1000
0001
0100
0010
0000
,
0100
0010
0100
0001
1000
0001
0010
0000
,
0001
0100
0010
1000
0010
1000
0001
0100
,
0010
0100
0001
1000
0001
0100
0010
0000
,
0110
0000
0001
1000
0001
0010
0001
0000
,
1001
0000
1000
0100
0010
0100
1000
0000
,
0100
1000
0001
0000
1000
0001
0100
0000
,
0011
0000
0000
0000
1010
0000
0000
0000
0100
0010
0100
0010
0100
0000
0000
0000
,
0010
1000
0001
0100
0010
1000
0100
0000
,
1000
0100
0010
0001
0100
0001
1000
0000
,
0001
1000
0001
0000
0100
0001
0100
0000
,
0101
0000
1100
0000
0110
0000
0010
0010
,
0002
0000
1000
0000
1003
0000
0100
1000
,
0200
0000
0010
0000
0310
0001
0010
0000
,
0011
0000
0000
0000
0110
0100
0110
0000
,
2002
0000
0000
0000
,
0000
0000
0000
0000
,
3003
0000
0000
0000
,
0000
0000
0000
0010
0000
0001
0000
1000
0000
0100
0000
0000
0000
0000
0000
0000
0000
0000
0000
0000
0000
0000
0000
0000
;

//---------------dance-single - ----------------
#NOTES:
     dance-single:
     :
     Medium:
     11:
     0.561291,0.565916,0.212610,0.425221,0.000000,462.000000,437.000000,25.000000,50.000000,0.000000,0.000000,0.561291,0.565916,0.212610,0.425221,0.000000,462.000000,437.000000,25.000000,50.000000,0.000000,0.000000:
2000
0000
3100
0010
,
0220
0000
0330
0010
,
0100
0000
1000
0000
0100
0000
1000
0002
,
0000
0010
0010
0003
,
1000
0000
0001
0000
0100
0000
0001
1000
,
0001
0000
0010
0000
0100
0000
1000
0100
,
1000
0010
0100
0001
,
0010
0100
1000
0100
0000
1000
0001
0000
,
0020
0000
0030
0000
0001
0000
0100
0010
,
0200
0000
0300
0000
1000
0000
0001
1000
,
0001
0010
0100
2200
,
0000
3300
0000
0001
0000
0100
0001
0000
,
0100
0000
0010
0000
0100
0010
0100
0000
,
1000
0000
0001
0000
1000
0001
1000
0000
,
0001
0000
0100
0000
0010
1000
0010
2000
,
0020
0000
0000
3030
,
0002
0000
0013
0100
,
0202
0000
0303
0001
,
1000
0001
0000
0100
0000
0010
0000
1000
,
0020
0100
0100
0130
,
1000
0000
0100
0000
1000
0100
1000
0000
,
0100
0000
0001
0000
0100
0001
0100
0000
,
0010
0010
0100
0100
,
1000
0001
0100
0001
1000
0000
1001
0000
,
0010
0000
0001
0000
0001
0000
0100
0001
,
0100
0000
0010
0000
0010
0000
1000
0001
,
1000
0010
0100
0010
,
0100
0000
0100
1000
0000
1000
0001
0000
,
0010
0000
1000
0000
0100
0000
1000
0001
,
1000
0000
0010
0000
0100
0000
0001
0100
,
0001
0001
0010
0010
,
0100
0001
0000
0200
0000
1000
1300
0000
,
0010
0000
1000
0000
0010
1000
0010
0000
,
0100
0000
0010
0000
0100
0010
0100
0000
,
0001
0000
1000
0000
0001
1000
0001
1000
,
0020
0000
0100
0000
0130
0000
0010
0001
,
0010
0000
0100
0000
0001
0000
0100
0001
,
0100
0000
1000
0000
0010
0000
1000
0010
,
1000
0010
0001
0010
,
1000
0000
0001
0010
0000
0010
0000
0000
,
0200
0000
1300
0001
,
2020
0000
3030
0001
,
1000
0000
0100
0000
1000
0000
0100
0020
,
0000
1000
1000
0030
,
0100
0000
0001
0000
0010
0000
0001
0100
,
0001
0000
0010
0000
1000
0000
0010
0001
,
0010
0100
1000
0010
,
0100
0010
0001
0010
0000
0100
0001
0000
,
2000
0000
3000
0000
0010
0000
0100
0010
,
0200
0000
0300
0000
0001
0000
0100
0001
,
0100
0010
1000
2200
,
0000
3300
0000
0001
0000
0010
0001
0000
,
0100
0000
0010
0000
1000
0010
1000
0000
,
0010
0000
0100
0000
0001
0100
0001
0000
,
1000
0000
0100
0000
0001
0010
0001
0200
,
0002
0000
0000
0303
,
0020
0000
0031
1000
,
2002
0000
3003
0001
,
0100
0001
0000
0100
0000
1000
0000
0100
,
2000
0010
0010
3010
,
0100
0000
0010
0000
1000
0010
1000
0000
,
0100
0000
1000
0000
0001
0100
0001
0000
,
0010
0001
0100
0001
,
0010
0100
0001
0100
0010
0000
0110
0000
,
0100
0000
0001
0000
1000
0000
0010
0100
,
0010
0000
1000
0000
0100
0000
0001
0100
,
0001
0000
1000
0000
0010
0000
0100
0010
,
0100
1100
0100
0101
,
0001
0000
0010
0000
0100
0000
1000
0001
,
1000
0000
0100
0000
0001
0000
0010
0100
,
0010
0001
1000
0010
,
1000
0001
1000
0000
1010
0000
0011
0000
,
0001
0000
0001
0000
1000
0001
1000
0000
,
0100
0000
0100
0000
0001
0100
0001
0000
,
0010
0000
0010
0000
1000
0010
1000
0000
,
0001
0000
0001
0000
0100
0001
0100
0000
,
0010
0000
0100
0001
0100
0000
0010
0100
,
0010
0000
1000
0001
1000
0000
0100
1000
,
0100
0010
0001
0100
,
1000
0100
0001
0100
1000
0000
0220
0000
,
0330
0000
0001
0000
1000
0010
0000
2200
,
0000
0000
3300
0100
,
1000
0100
0000
1000
0000
0001
0100
0002
,
0000
0010
0010
0013
,
1000
0000
0001
0000
1000
0001
1000
0000
,
0001
0000
0100
0000
0001
0100
0001
0000
,
0010
0110
0100
1100
,
1000
1001
0001
0011
,
1000
0000
0010
0000
1000
0010
1000
0000
,
0100
0000
0010
0000
0100
0010
0100
0000
,
0001
0100
0001
0000
1000
0001
1000
0000
,
0200
0320
0032
2003
,
3100
0000
0001
0000
0010
0000
0100
1000
,
0100
0000
0001
0000
1000
0000
0010
0001
,
0010
0000
0001
0000
1000
0001
1000
0000
,
0020
2030
3002
0013
,
2020
0000
3030
0000
0001
1000
0001
0000
,
0022
0000
0033
0000
1000
0100
1000
0000
,
0220
0330
1001
1001
,
0220
0000
0000
0000
,
0000
0000
0000
0000
,
0330
0000
0000
0000
,
0000
0000
0000
1001
0000
0000
0000
0000
;

//---------------dance-single - ----------------
#NOTES:
     dance-single:
     :
     Easy:
     6:
     0.338962,0.343578,0.110557,0.229619,0.000000,279.000000,266.000000,13.000000,27.000000,0.000000,0.000000,0.338962,0.343578,0.110557,0.229619,0.000000,279.000000,266.000000,13.000000,27.000000,0.000000,0.000000:
0001
0000
1000
0000
,
2002
0000
3003
0000
,
0010
1000
0100
1000
,
0020
0000
0030
0000
,
0001
1000
0001
0000
,
0010
0100
0010
0000
,
1000
0100
0001
0100
,
2000
0000
3000
0000
,
0010
0000
1001
0000
,
1000
0000
0110
0000
,
1000
0001
0010
0200
,
0000
0010
0010
0300
,
0001
0010
0001
0000
,
1000
0010
1000
0000
,
0001
0100
0010
0100
,
0002
0000
0003
0000
,
0100
0000
1000
0000
,
2200
0000
3300
0000
,
0010
0001
1000
0001
,
0020
0000
0030
0000
,
0100
1000
0100
0000
,
0100
0001
0100
0000
,
1000
0010
0001
0010
,
1000
0000
0110
0000
,
1000
0001
1000
0000
,
0100
0001
0100
0000
,
0010
1000
0010
1000
,
0001
0000
0001
0000
,
0010
0100
0010
0000
,
0100
0001
0100
0000
,
0010
0001
0100
0001
,
0010
0000
1001
0000
,
0100
0100
0010
0000
,
1000
1000
0001
0000
,
0100
0010
1000
0010
,
0200
0000
0300
0000
,
1000
1000
0001
0000
,
0100
0100
0010
0000
,
1000
0100
0001
0100
,
2000
0000
3000
0000
,
0010
0000
0001
0000
,
0022
0000
0033
0000
,
0001
0100
0010
0100
,
0002
0000
0003
0000
,
1000
0010
1000
0000
,
0100
0001
0100
0000
,
0010
0001
0010
1000
,
0020
0000
0030
0000
,
0010
1000
0010
0000
,
0001
0010
0001
0000
,
1000
0100
0010
2000
,
0000
0010
0010
3000
,
0100
0001
0100
0000
,
0010
0100
0010
0000
,
0001
0010
0100
0010
,
0200
0000
0300
0000
,
0010
0000
0100
0000
,
0220
0000
0330
0000
,
0010
0001
0010
1000
,
0020
0000
0030
0000
,
1000
0010
1000
0000
,
0100
0001
0100
0000
,
0010
1000
0100
1000
,
0010
0000
1001
0000
,
1000
0100
1000
0000
,
0010
0100
0010
0000
,
0001
0100
0001
0000
,
0010
0001
0010
0000
,
0100
0001
0100
0000
,
0010
1000
0010
0000
,
1000
0100
0001
0100
,
1000
0000
0110
0000
,
1000
1000
0001
0000
,
0100
0100
0010
0000
,
0001
0001
0100
0000
,
0010
0010
1000
0000
,
1000
1000
1000
0000
,
0010
0010
0010
0000
,
0100
0100
0001
0001
,
2000
0000
3000
0000
,
0000
0010
0010
0000
,
0200
0000
0300
0000
,
0010
0001
0010
1000
,
0020
0000
0030
0000
,
1000
0001
1000
0000
,
0010
0001
0010
0000
,
0100
0000
0010
0000
,
0100
1000
0100
0000
,
1000
0001
0010
0000
,
0100
1000
0010
0000
,
1000
0001
0010
0100
,
0010
0000
1001
0000
,
0010
0100
0100
0000
,
1000
0001
0001
0000
,
1000
0010
1000
0010
,
0100
0010
0100
0000
,
0002
0000
1003
0000
,
2000
0000
3001
0000
,
0010
0000
1001
0000
,
2002
0000
0000
0000
,
0000
0000
0000
0000
,
3003
0000
0000
0000
;

//---------------dance-single - ----------------
#NOTES:
     dance-single:
     :
     Beginner:
     4:
     0.233264,0.294678,0.093549,0.051026,0.000000,192.000000,181.000000,11.000000,6.000000,0.000000,0.000000,0.233264,0.294678,0.093549,0.051026,0.000000,192.000000,181.000000,11.000000,6.000000,0.000000,0.000000:
0010
0000
0010
0000
,
0010
0000
0000
0000
,
1000
0000
0001
0000
,
1000
0000
0000
0000
,
0100
0000
0100
0000
,
0010
0000
0010
0000
,
1000
0000
0001
0000
,
1000
0000
0000
0000
,
0110
0000
0000
0000
,
1001
0000
0000
0000
,
1000
0000
0010
0000
,
1000
0000
0000
0000
,
0100
0000
0100
0000
,
0010
0000
0010
0000
,
0100
0000
0001
0000
,
0200
0000
0300
0000
,
0001
0000
0001
0000
,
0001
0000
0000
0000
,
0100
0000
1000
0000
,
0100
0000
0000
0000
,
0010
0000
0010
0000
,
1000
0000
1000
0000
,
0010
0000
1000
0000
,
0002
0000
0003
0000
,
1001
0000
0000
0000
,
0100
0000
0000
0000
,
0010
0000
0010
0000
,
0010
0000
0000
0000
,
1000
0000
0000
0000
,
0001
0000
0000
0000
,
1000
0000
1000
0000
,
1000
0000
0000
0000
,
0010
0010
0010
0000
,
0100
0000
0100
0000
,
1000
1000
1000
0000
,
0001
0000
0001
0000
,
0100
0100
0100
0000
,
0001
0000
0001
0000
,
0010
0010
0010
0000
,
2000
0000
3000
0000
,
0100
0000
0100
0000
,
0100
0000
0000
0000
,
0001
0000
0010
0000
,
0001
0000
0000
0000
,
1000
0000
1000
0000
,
0010
0000
1000
0000
,
0100
0000
0001
0000
,
0100
0000
0000
0000
,
0110
0000
0000
0000
,
1001
0000
0000
0000
,
1000
0000
0001
0000
,
1000
0000
0000
0000
,
0100
0000
0100
0000
,
0010
0000
0010
0000
,
0001
0000
1000
0000
,
0002
0000
0003
0000
,
1000
0000
1000
0000
,
1000
0000
0000
0000
,
0100
0000
0010
0000
,
0100
0000
0000
0000
,
0001
0000
0001
0000
,
1000
0000
0001
0000
,
1000
0000
0000
0000
,
0220
0000
0330
0000
,
1000
1000
1000
0000
,
0001
0000
1000
0000
,
0010
0010
0010
0000
,
0100
0000
0010
0000
,
0100
0100
0100
0000
,
1000
0000
0100
0000
,
0001
0001
0001
0000
,
0010
0000
0001
0000
,
1000
0000
1000
0000
,
0001
0000
0001
0000
,
0100
0000
0100
0000
,
0010
0000
0010
0000
,
1000
1000
1000
0000
,
0001
0001
0001
0000
,
0100
0100
0100
0000
,
0010
0010
0010
0000
,
0000
0000
1001
0000
,
1001
0000
0000
0000
,
0010
0000
0100
0000
,
0010
0000
0000
0000
,
0001
0000
0001
0000
,
0100
0000
0001
0000
,
1000
0000
0010
0000
,
1000
1000
1000
0000
,
0001
0000
0100
0000
,
1000
0000
0100
0000
,
0010
0000
0010
0000
,
0001
0001
0001
0000
,
1000
0000
1000
0000
,
0001
0000
0001
0000
,
0010
0000
0100
0000
,
0010
0010
0010
0000
,
1001
0000
0000
0000
,
0110
0000
0000
0000
,
0001
0000
1000
0000
,
1001
0000
0000
0000
;

//---------------dance-single - ----------------
#NOTES:
     dance-single:
     :
     Challenge:
     13:
     0.562506,0.609448,0.246628,0.255132,0.000000,463.000000,434.000000,29.000000,30.000000,84.000000,0.000000,0.562506,0.609448,0.246628,0.255132,0.000000,463.000000,434.000000,29.000000,30.000000,84.000000,0.000000:
// measure 0
0110
0000
1001
0000
,  // measure 1
0102
0100
0103
MMMM
,  // measure 2
0010
0000
1000
0000
0010
0000
0100
0010
,  // measure 3
0000
0010
0100
0000
1000
0001
1000
0000
,  // measure 4
0010
0001
0100
0100
,  // measure 5
1000
0001
0010
0010
,  // measure 6
0100
1000
0100
0000
1000
0001
1000
0000
,  // measure 7
0010
0001
0010
0100
1000
0000
1000
0000
,  // measure 8
MMMM
0000
0020
0000
,  // measure 9
0130
0000
0001
0000
0100
0000
1000
0100
,  // measure 10
1000
0010
0100
0102
,  // measure 11
0000
0010
0010
1003
,  // measure 12
0010
0000
0001
0000
0010
0100
0010
0000
,  // measure 13
1000
0000
0100
0000
1000
0001
1000
0000
,  // measure 14
0010
0000
0010
0000
0100
1000
0100
0001
,  // measure 15
0200
0000
0300
MMMM
,  // measure 16
1100
0000
0101
0000
,  // measure 17
0210
0010
0310
MMMM
,  // measure 18
1000
0001
0000
0100
0000
0100
0000
0001
,  // measure 19
0020
1000
0100
0130
,  // measure 20
1000
0000
0010
0000
0100
0001
0100
0000
,  // measure 21
0001
0000
1000
0000
0010
0100
0010
0000
,  // measure 22
2000
0001
0001
3001
,  // measure 23
0010
0100
0110
MMMM
,  // measure 24
0200
0000
0301
0000
0010
0001
0010
0000
,  // measure 25
1000
0000
0100
0000
0010
0100
0010
0000
,  // measure 26
0001
0000
1000
0000
0001
0000
0010
0001
,  // measure 27
0020
0000
0000
2000
0030
0000
3001
0000
,  // measure 28
0001
0000
0100
0010
0000
0100
0010
0000
,  // measure 29
1000
0000
0001
1000
0000
0010
1000
0000
,  // measure 30
0100
0000
0100
0000
0001
0010
0001
0000
,  // measure 31
1000
0100
0000
1001
0000
0000
MMMM
0000
,  // measure 32
0100
1000
0100
0000
0100
0001
0100
0000
,  // measure 33
0001
0010
0001
0000
0001
1000
0001
0000
,  // measure 34
0010
1000
0010
1000
0100
0001
0010
0000
,  // measure 35
0200
0000
1000
0000
1300
0010
1000
0000
,  // measure 36
0100
0001
0010
0010
,  // measure 37
1000
0000
0001
0000
0100
0000
0100
1000
,  // measure 38
0000
1000
0001
0000
0010
0001
0010
0000
,  // measure 39
0100
1000
0100
1000
0000
0000
MMMM
0000
,  // measure 40
0011
0000
0101
0000
,  // measure 41
2001
0001
3001
MMMM
,  // measure 42
0010
0000
0001
0000
0010
0000
0100
1000
,  // measure 43
0000
1000
0100
0000
0001
0100
0001
0000
,  // measure 44
1000
0001
0100
0100
,  // measure 45
0001
0010
1000
1000
,  // measure 46
0100
0010
0100
0000
0010
0001
0010
0000
,  // measure 47
1000
0001
1000
0100
0010
0000
0010
0000
,  // measure 48
MMMM
0000
2000
0000
,  // measure 49
3001
0000
0100
0000
0010
0000
0001
0100
,  // measure 50
0001
0010
1000
1200
,  // measure 51
0000
0001
0001
0310
,  // measure 52
0100
0000
1000
0000
0010
1000
0010
0000
,  // measure 53
0001
0000
0100
0000
1000
0100
1000
0000
,  // measure 54
0001
0000
0001
0000
0010
0100
0010
0001
,  // measure 55
2000
0000
3000
MMMM
,  // measure 56
0110
0000
1100
0000
,  // measure 57
0012
0010
0013
MMMM
,  // measure 58
0100
0010
0000
1000
0000
1000
0010
0000
,  // measure 59
0002
0100
0010
1003
,  // measure 60
0010
0000
0100
0000
0001
0010
0001
0000
,  // measure 61
1000
0000
0001
0000
0100
0001
0100
0000
,  // measure 62
2000
0010
0010
3010
,  // measure 63
0000
0100
0100
0000
MMMM
0000
MMMM
0000
,  // measure 64
1001
0000
0001
0000
0010
0001
0010
0001
,  // measure 65
0100
0000
1000
0000
0100
0010
0100
0010
,  // measure 66
1000
0000
0001
0000
1000
0010
1000
0010
,  // measure 67
0100
0000
0001
0000
0010
0001
0010
0001
,  // measure 68
0100
0000
0100
0000
0001
0100
0010
0100
,  // measure 69
0001
0000
0001
0000
0010
1000
0100
1000
,  // measure 70
0010
0000
0010
0000
1000
0001
0100
0001
,  // measure 71
1000
0000
1000
0010
0100
0000
MMMM
0000
,  // measure 72
0010
1000
0010
0000
0100
0010
0100
0000
,  // measure 73
1000
0010
1000
0000
0001
0100
0001
0000
,  // measure 74
0010
0001
0010
0000
0100
1000
0100
0000
,  // measure 75
0001
1000
0001
0000
0100
0010
0100
0000
,  // measure 76
2000
0000
3002
0000
0013
0001
0010
0000
,  // measure 77
0200
0000
0320
0000
0130
0010
0100
0000
,  // measure 78
1000
1000
0001
0001
,  // measure 79
0010
1000
0100
0001
0010
0000
0110
0000
,  // measure 80
MMMM
0000
1001
0000
1001
0000
0000
0120
,  // measure 81
0000
1000
1030
MMMM
,  // measure 82
0100
0001
0000
0010
0000
0010
0001
2000
,  // measure 83
0000
0010
0010
3010
,  // measure 84
0100
0000
1000
0000
0100
0000
0010
0100
,  // measure 85
0010
0000
0001
0000
0010
0000
1000
0001
,  // measure 86
1000
1000
0001
0001
,  // measure 87
0010
1000
0100
1000
0001
0000
MMMM
0000
,  // measure 88
0010
0000
0100
0000
0010
0001
0100
0000
,  // measure 89
1000
0000
0001
0000
1000
0100
0001
0000
,  // measure 90
0010
0010
1000
1000
,  // measure 91
0100
0110
0001
1001
,  // measure 92
0100
0000
1000
0000
0100
0010
0000
0010
,  // measure 93
0002
0000
0013
0000
0010
1000
0100
2000
,  // measure 94
0000
0001
0010
3001
,  // measure 95
1000
1100
0100
0101
,  // measure 96
MMMM
0000
0020
0030
,  // measure 97
MMMM
0000
2000
3000
,  // measure 98
1100
0000
0000
0000
1001
MMMM
1001
0000
,  // measure 99
0220
0000
0000
0000
,  // measure 100
0000
0000
0000
0000
,  // measure 101
0330
0000
0000
0000
,  // measure 102
0000
0000
0000
MMMM
0000
0000
0000
0000
;
