#VERSION:0.83;
#TITLE:Shining World;
#SUBTITLE:;
#ARTIST:DJ Genki feat. Yukacco;
#TITLETRANSLIT:;
#SUBTITLETRANSLIT:;
#ARTISTTRANSLIT:;
#GENRE:;
#ORIGIN:;
#CREDIT:;
#BANNER:Shining World.png;
#BACKGROUND:Shining World-bg.png;
#PREVIEWVID:;
#JACKET:Shining World-jacket.png;
#CDIMAGE:;
#DISCIMAGE:;
#LYRICSPATH:;
#CDTITLE:;
#MUSIC:Shining World.ogg;
#OFFSET:-0.873990;
#SAMPLESTART:51.628998;
#SAMPLELENGTH:12.800003;
#SELECTABLE:YES;
#BPMS:0.000=150.000;
#STOPS:;
#DELAYS:;
#WARPS:;
#TIMESIGNATURES:0.000=4=4;
#TICKCOUNTS:0.000=4;
#COMBOS:0.000=1;
#SPEEDS:0.000=1.000=0.000=0;
#SCROLLS:0.000=1.000;
#FAKES:;
#LABELS:0.000=Song Start;
#BGCHANGES:;
#KEYSOUNDS:;
#ATTACKS:
;

//---------------dance-single - ----------------
#NOTEDATA:;
#CHARTNAME:;
#STEPSTYPE:dance-single;
#DESCRIPTION:;
#CHARTSTYLE:;
#DIFFICULTY:Hard;
#METER:11;
#RADARVALUES:0.413527,0.438319,0.170754,0.333377,0.044721,356.000000,335.000000,21.000000,41.000000,0.000000,0.000000,0.000000,0.000000,0.000000,0.413527,0.438319,0.170754,0.333377,0.044721,356.000000,335.000000,21.000000,41.000000,0.000000,0.000000,0.000000,0.000000,0.000000;
#CREDIT:;
#NOTES:
0000
0000
0000
0000
,
0000
0000
0000
0000
,
0000
0000
0000
0000
,
0000
0000
0000
0000
,
0100
0010
0001
0010
,
0001
1000
0100
0010
,
0100
0000
0001
1000
0000
0020
0000
0200
,
0000
0000
0000
0330
,
1000
0100
1000
0010
0001
0010
0000
0001
,
0000
0100
0000
0010
0000
0001
0100
0001
,
1000
0000
0010
0000
0100
0001
0000
0001
,
0000
0010
0000
0001
1000
0010
0100
0001
,
1000
0000
0010
0000
0100
0010
0000
1001
,
0000
0011
0000
0101
0000
1000
0010
0100
,
1000
0000
0100
0000
0010
0100
0000
1010
,
0000
0110
0000
0010
0100
0001
1000
0001
,
0100
0000
0001
0000
0100
0000
1000
0100
,
0100
0000
0010
0000
1000
0000
0001
0010
,
0001
0000
1000
0000
0100
0000
1000
1000
,
0100
0000
0010
0000
1000
0100
0010
0100
,
0001
0000
0100
0000
0001
0000
0010
0001
,
0000
0010
0100
0000
0001
0000
1000
0000
,
0100
0000
0100
0000
0010
0000
1000
1100
,
0000
0001
0010
1001
,
0200
0000
0000
2000
0000
0000
3300
0000
,
0002
0000
0000
0020
0000
0030
0013
0000
,
0002
0000
0000
2000
0000
0000
3003
0000
,
2000
0000
0000
0100
0000
0100
3001
0010
,
1000
0000
0000
0000
0010
0000
0000
0000
0010
0000
0000
0001
0000
0000
0010
0000
,
0001
0000
0000
0000
0100
0000
0000
0000
1000
0000
0000
1000
0000
0000
0100
0000
,
1000
0010
0001
0000
0010
0100
0001
0000
,
0010
0100
1000
0001
0100
0010
0001
0000
,
2002
0000
3003
0000
0100
0010
0100
0001
,
0000
0010
0001
0000
0100
1000
0100
0000
,
0010
0000
0100
0000
0001
0010
0001
0010
,
0000
0010
0100
1000
0100
0001
0100
0000
,
2020
0000
3030
0000
1000
0010
1000
0001
,
0000
0010
0001
0000
0100
0010
1000
0000
,
0100
0000
0010
1000
0000
1000
0000
0100
,
0000
0010
0000
0100
0010
1000
0001
0000
,
2200
0000
3300
0000
0010
0000
1000
0001
,
0000
0100
0010
0000
0100
0010
0100
0000
,
1000
0010
0100
1000
0001
0000
0010
0100
,
0000
0001
0000
0010
0001
0100
0010
0000
,
0220
0000
0330
0000
0100
0010
0001
1000
,
0000
0010
0100
0000
1000
0001
0100
0000
,
0010
0000
0001
1100
0000
0011
0000
0202
,
0000
0003
0001
0000
0001
0000
0301
0000
,
2002
0003
0020
0030
,
0200
0000
0300
0000
3002
0000
0023
0200
,
0000
0000
0030
0000
2300
0000
3001
0002
,
0000
0203
0000
2300
0000
3020
0000
0000
,
0030
0100
1000
0100
0000
0010
0001
0010
,
0000
1000
0100
1000
0000
0001
0010
0001
,
0000
0100
0001
0010
0000
0010
0100
1000
,
0000
1000
0100
0001
0000
1000
0010
0000
,
0000
0000
0010
0000
1000
0000
0000
0000
0100
0000
0000
0100
0000
0000
0100
0000
,
0000
0000
0100
0000
1000
0000
0000
0000
0001
0000
0000
0001
0000
0000
0001
0000
,
0000
0000
1000
0000
0001
0000
0000
0000
0010
0000
0000
0010
0000
0000
0010
0000
,
0000
0000
1000
0000
0100
0000
0000
0000
1000
0000
0000
1000
0000
0000
1000
0000
,
0001
0000
0100
0000
0000
0010
0000
0000
0100
0000
0000
0010
0000
0000
0100
0000
,
1000
0000
0100
0000
0000
0001
0000
0000
0010
0000
0000
0001
0000
0000
1000
0000
,
0010
0100
0001
0010
0100
1000
0001
0100
,
0000
0000
1000
0000
0000
0001
0000
0000
0010
0000
0000
0000
1001
0000
0000
0000
,
1000
0100
1000
0010
0100
0001
0000
0020
,
0000
0230
0000
0302
0000
1000
0013
0100
,
0002
0000
0023
0000
1030
0100
0000
1100
,
0000
0110
0000
0001
0100
0010
1000
0001
,
0100
1000
0001
0000
1000
0010
0000
0200
,
0000
0320
0000
2030
0000
0001
3100
0010
,
2000
0000
3200
0000
0310
0001
0000
1100
,
0000
1001
0000
0001
0100
0001
0010
0110
;

//---------------dance-single - ----------------
#NOTEDATA:;
#CHARTNAME:;
#STEPSTYPE:dance-single;
#DESCRIPTION:;
#CHARTSTYLE:;
#DIFFICULTY:Medium;
#METER:7;
#RADARVALUES:0.285751,0.350046,0.146361,0.276459,0.000000,246.000000,228.000000,18.000000,34.000000,0.000000,0.000000,0.000000,0.000000,0.000000,0.285751,0.350046,0.146361,0.276459,0.000000,246.000000,228.000000,18.000000,34.000000,0.000000,0.000000,0.000000,0.000000,0.000000;
#CREDIT:;
#NOTES:
0000
0000
0000
0000
,
0000
0000
0000
0000
,
0000
0000
0000
0000
,
0000
0000
0000
0000
,
1000
0100
1000
0100
,
0001
0100
0001
0100
,
1000
0001
1000
0001
,
2000
0000
0000
3000
,
0010
1000
0010
0000
0100
0000
0100
0001
,
0000
0010
0000
0100
0000
1000
0001
0000
,
0100
0000
1000
0000
0010
0001
0000
0001
,
0000
1000
0000
1000
0001
0000
0011
0000
,
0100
0010
0100
0000
1000
0100
0000
0001
,
0000
1000
0000
0001
0000
0100
0001
0000
,
0100
0000
1000
0000
1000
0010
0000
1000
,
0000
0010
0000
0100
0010
0000
1010
0000
,
0000
0000
0001
0000
1000
0000
0100
0200
,
0000
0300
0010
0001
,
0010
0000
1000
0000
0001
0000
1000
2000
,
0000
3000
0010
0110
,
0200
0000
0300
0000
0100
0000
1000
0020
,
0000
0030
0001
0010
,
1000
0000
0010
0000
0001
0000
0200
0020
,
0000
0000
0300
0030
,
1001
0000
0000
0000
0010
0000
0100
0020
,
0000
1000
1000
0030
,
0011
0000
0000
0000
0100
0000
1000
0200
,
0000
0001
0001
0300
,
1010
0000
0000
0000
1000
0000
1000
0002
,
0000
0010
0010
0003
,
1100
0000
0000
0000
0010
0000
0010
0100
,
0000
1000
0000
1100
0000
0000
0010
0000
,
0020
0000
0030
0000
0100
0000
0100
0002
,
0000
0003
1000
1010
,
0100
0000
0001
0000
0100
0000
0100
0002
,
0000
0000
0103
0010
,
0200
0000
0300
0000
1000
0000
1000
0020
,
0000
0030
1000
1010
,
1000
0000
0100
0100
0000
0010
0000
0021
,
0000
0001
0001
0030
,
2000
0000
3000
0000
0100
0000
0100
0020
,
0000
0030
0010
0110
,
0010
0000
0010
0000
0100
0000
0100
2000
,
0000
0000
3001
0100
,
0200
0000
0300
0000
1000
0000
0010
0002
,
0000
0003
0010
1100
,
1000
0000
0001
0100
0000
0001
0000
0201
,
0000
0010
0010
0300
,
2002
0000
0000
0000
,
0000
0000
0000
0000
3003
0000
0020
0200
,
0000
0000
0000
0000
0330
0000
1000
0001
,
0000
1000
0000
0100
0000
0010
0000
0000
,
0200
0300
0002
0003
,
0020
0030
2000
3000
,
0200
0300
2000
3000
,
0002
0003
0200
0300
,
1000
0000
0100
0000
0010
0000
0010
0001
,
0000
0000
0001
0000
0100
0000
0100
1000
,
0000
0000
0001
0000
0001
0000
0010
0100
,
0000
0000
1000
0000
0001
0000
0100
0100
,
0000
0000
0010
0000
1000
0000
0001
1000
,
0000
0000
1000
0000
0100
0000
1000
0010
,
0000
0000
0010
0000
0100
0000
0100
0100
,
0000
0001
0100
0101
,
0010
0000
0100
0000
0001
0000
0000
0100
,
0000
0010
0000
0001
0000
0000
1000
0000
,
0001
0000
1000
0000
0010
0000
0000
1000
,
0000
0001
0000
0000
0010
0000
0001
0000
,
0010
0000
1000
0000
0100
0000
0000
0010
,
0000
0001
0000
0100
0000
0000
1000
0000
,
0010
0000
0100
0000
0010
0000
0000
1001
,
0000
0100
0010
0110
;

//---------------dance-single - ----------------
#NOTEDATA:;
#CHARTNAME:;
#STEPSTYPE:dance-single;
#DESCRIPTION:;
#CHARTSTYLE:;
#DIFFICULTY:Easy;
#METER:4;
#RADARVALUES:0.221864,0.263449,0.105705,0.178885,0.000000,191.000000,178.000000,13.000000,22.000000,0.000000,0.000000,0.000000,0.000000,0.000000,0.221864,0.263449,0.105705,0.178885,0.000000,191.000000,178.000000,13.000000,22.000000,0.000000,0.000000,0.000000,0.000000,0.000000;
#CREDIT:;
#NOTES:
0000
0000
0000
0000
,
0000
0000
0000
0000
,
0000
0000
0000
0000
,
0000
0000
0000
0000
,
1000
0000
1000
0000
,
0010
0000
0010
0000
,
0001
0000
0001
0000
,
0100
0000
0100
0000
,
0010
1000
0100
0000
,
0010
0001
0100
0000
,
0100
0001
1000
0000
,
0100
1000
0001
0000
,
0010
1000
0100
0000
,
0100
0001
1000
0000
,
0010
0001
0010
0000
,
0100
1000
0100
0000
,
2000
0000
3010
0000
,
0002
0000
0013
0000
,
0020
0000
0130
0000
,
0002
0000
1003
0000
,
2000
0000
3100
0000
,
0020
0000
1030
0000
,
0002
0000
1003
0000
,
0200
0000
0310
0000
,
0100
0000
0100
0000
,
0010
0000
0010
0000
,
1000
0000
1000
0000
,
0001
0000
0001
0000
,
0010
0010
0010
0000
,
0100
0100
0100
0000
,
1000
0010
1000
0000
,
0100
0001
0100
0000
,
0110
0000
0010
0100
,
0010
0000
1000
0001
,
1000
1000
0010
0100
,
0010
0000
0100
0000
,
1001
0000
1000
0010
,
0001
0000
0001
0100
,
0010
0100
0001
0100
,
0020
0000
0130
0000
,
0110
0000
0010
0001
,
0010
0000
1000
0001
,
1000
0000
0010
0100
,
1000
0100
1000
0001
,
0010
0000
0010
0000
,
1001
0000
0100
0010
,
1000
0000
0001
1000
,
0002
0000
1003
0000
,
0010
0000
0100
0000
,
0001
0000
1000
0000
,
0010
0000
0100
0000
,
1000
0000
0001
0000
,
0100
0100
0100
0000
,
0010
0010
0010
0000
,
1000
1000
1000
0000
,
0001
0001
0001
0000
,
2001
0000
3010
0000
,
0200
0000
0310
0000
,
0120
0000
1030
0000
,
0002
0000
1003
0000
,
1002
0000
0013
0000
,
0120
0000
0031
0000
,
2002
3003
0220
0330
,
2002
3003
1001
0000
,
0010
1000
0100
0000
,
0010
0001
0100
0000
,
0100
1000
0001
0000
,
0100
0001
1000
0000
,
0010
1000
0100
0001
,
0010
1000
0100
0000
,
0010
0001
0100
1000
,
0010
0001
0100
0000
,
1001
0000
0000
0000
;

//---------------dance-single - ----------------
#NOTEDATA:;
#CHARTNAME:;
#STEPSTYPE:dance-single;
#DESCRIPTION:;
#CHARTSTYLE:;
#DIFFICULTY:Beginner;
#METER:1;
#RADARVALUES:0.103382,0.175633,0.032525,0.065049,0.000000,89.000000,85.000000,4.000000,8.000000,0.000000,0.000000,0.000000,0.000000,0.000000,0.103382,0.175633,0.032525,0.065049,0.000000,89.000000,85.000000,4.000000,8.000000,0.000000,0.000000,0.000000,0.000000,0.000000;
#CREDIT:;
#NOTES:
// measure 0
0000
0000
0000
0000
,  // measure 1
0000
0000
0000
0000
,  // measure 2
0000
0000
0000
0000
,  // measure 3
0000
0000
0000
0000
,  // measure 4
0100
0000
0000
0000
,  // measure 5
0100
0000
0000
0000
,  // measure 6
0010
0000
0000
0000
,  // measure 7
0010
0000
0000
0000
,  // measure 8
1001
0000
0000
0000
,  // measure 9
1000
0000
0000
0000
,  // measure 10
0001
0000
0000
0000
,  // measure 11
1000
0000
0000
0000
,  // measure 12
0001
0000
0000
0000
,  // measure 13
0010
0000
0000
0000
,  // measure 14
0100
0000
0000
0000
,  // measure 15
0010
0000
0000
0000
,  // measure 16
0110
0000
0000
0000
,  // measure 17
0100
0000
0000
0000
,  // measure 18
0010
0000
0000
0000
,  // measure 19
0010
0000
0000
0000
,  // measure 20
1000
0000
0000
0000
,  // measure 21
1000
0000
0000
0000
,  // measure 22
0001
0000
0000
0000
,  // measure 23
0001
0000
0000
0000
,  // measure 24
2000
0000
0000
0000
,  // measure 25
3000
0000
0000
0000
,  // measure 26
0002
0000
0000
0000
,  // measure 27
0003
0000
0000
0000
,  // measure 28
0020
0000
0000
0000
,  // measure 29
0030
0000
0000
0000
,  // measure 30
0200
0000
0000
0000
,  // measure 31
0300
0000
0000
0000
,  // measure 32
1000
0000
1000
0000
,  // measure 33
0001
0000
0001
0000
,  // measure 34
1000
0000
0001
0000
,  // measure 35
1000
0000
0001
0000
,  // measure 36
0100
0000
0100
0000
,  // measure 37
0010
0000
0010
0000
,  // measure 38
0100
0000
0010
0000
,  // measure 39
0100
0000
0010
0000
,  // measure 40
1000
0000
0001
0000
,  // measure 41
1000
0000
0001
0000
,  // measure 42
0010
0000
0100
0000
,  // measure 43
0010
0000
0100
0000
,  // measure 44
0001
0000
1000
0000
,  // measure 45
0001
0000
1000
0000
,  // measure 46
0100
0000
0010
0000
,  // measure 47
0100
0000
0010
0000
,  // measure 48
0200
0000
0000
0000
,  // measure 49
0300
0000
0000
0000
,  // measure 50
0002
0000
0000
0000
,  // measure 51
0003
0000
0000
0000
,  // measure 52
2000
0000
0000
0000
,  // measure 53
3000
0000
0000
0000
,  // measure 54
0020
0000
0000
0000
,  // measure 55
0030
0000
0000
0000
,  // measure 56
0100
0000
0000
0000
,  // measure 57
0100
0000
0000
0000
,  // measure 58
0001
0000
0000
0000
,  // measure 59
0001
0000
0000
0000
,  // measure 60
1000
0000
0000
0000
,  // measure 61
1000
0000
0000
0000
,  // measure 62
0010
0000
0000
0000
,  // measure 63
0010
0000
0000
0000
,  // measure 64
0110
0000
0100
0000
,  // measure 65
0010
0000
0100
0000
,  // measure 66
0001
0000
1000
0000
,  // measure 67
0001
0000
1000
0000
,  // measure 68
0100
0000
0010
0000
,  // measure 69
0100
0000
0010
0000
,  // measure 70
1000
0000
0001
0000
,  // measure 71
1000
0000
0001
0000
,  // measure 72
1001
0000
0000
0000
;
