#TITLE:Setsugekka;
#SUBTITLE:-Double Dragon Mix-;
#ARTIST:good-cool;
#TITLETRANSLIT:;
#SUBTITLETRANSLIT:;
#ARTISTTRANSLIT:;
#GENRE:;
#CREDIT:;
#MUSIC:Setsugekka -Double Dragon Mix-.ogg;
#BANNER:Setsugekka -Double Dragon Mix-.png;
#BACKGROUND:Setsugekka -Double Dragon Mix--bg.png;
#CDTITLE:;
#SAMPLESTART:39.018;
#SAMPLELENGTH:14.769;
#SELECTABLE:YES;
#OFFSET:-0.230;
#BPMS:0.000=129.961;
#STOPS:;
#ORIGIN:;
#PREVIEWVID:;
#JACKET:;
#CDIMAGE:;
#DISCIMAGE:;
#BGCHANGES:;
#FGCHANGES:;

//--------------- dance-single - ----------------
#NOTES:
     dance-single:
     :
     Beginner:
     2:
     0,0,0,0,0:
0000
0000
0000
0000
,
0000
0000
0000
0000
,
0000
0000
0000
0000
,
0000
0000
0000
0000
,
0000
0000
0000
0000
,
0000
0000
0000
0000
,
0000
0000
0000
0000
,
0010
0000
0000
0000
,
0010
0010
0010
0000
,
1000
0000
1000
0000
,
1000
0000
1000
0000
,
0001
0000
0001
0000
,
0001
0000
0001
0000
,
1000
0000
1000
0000
,
1000
0000
1000
0000
,
0001
0000
0001
0000
,
0001
0000
0001
0000
,
1001
0000
0000
0000
,
0000
0000
0000
0000
,
1001
0000
0000
0000
,
0000
0000
0000
0000
,
0100
0000
0100
0000
,
0010
0000
0010
0000
,
0100
0000
0100
0000
,
0010
0000
0010
0000
,
0001
0000
0001
0000
,
1000
0000
1000
0000
,
0001
0000
0001
0000
,
1000
1000
1000
0000
,
0010
0000
0010
0000
,
1000
0000
1000
0000
,
0010
0000
0010
0000
,
0100
0000
0100
0000
,
0001
0000
0001
0000
,
1000
0000
1000
0000
,
0010
0000
0010
0000
,
0100
0100
0100
0000
,
2000
0000
0000
0000
,
3000
0000
0000
0000
,
0010
0000
0010
0000
,
0100
0000
0100
0000
,
0020
0000
0000
0000
,
0030
0000
0000
0000
,
1000
0000
1000
0000
,
0001
0000
0001
0000
,
0100
0000
0100
0000
,
0100
0000
0100
0000
,
0010
0000
0010
0000
,
0010
0000
0010
0000
,
0100
0000
0100
0000
,
0100
0000
0100
0000
,
0010
0000
0010
0000
,
0010
0000
0010
0000
,
0200
0000
0000
0000
,
0300
0000
0000
0000
,
0200
0000
0000
0000
,
0300
0000
0000
0000
,
0020
0000
0000
0000
,
0030
0000
0000
0000
,
0020
0000
0000
0000
,
0030
0000
0000
0000
,
0001
0000
1000
0000
,
0001
0000
0001
0000
,
1000
0000
0010
0000
,
1000
0000
1000
0000
,
0010
0000
0100
0000
,
0010
0000
0010
0000
,
0100
0000
0001
0000
,
0100
0000
0100
0000
,
1000
1000
1000
0000
,
0001
0000
1000
0000
,
0010
0010
0010
0000
,
0100
0000
0010
0000
,
0001
0001
0001
0000
,
0010
0000
0001
0000
,
0100
0100
0100
0000
,
1000
0000
0100
0000
,
1001
0000
0000
0000
;

//--------------- dance-single - ----------------
#NOTES:
     dance-single:
     :
     Easy:
     5:
     0.21276,0.259451,0.101085,0.128041,0,221,206,15,19,0,0,0,0,0,0.21276,0.259451,0.101085,0.128041,0,221,206,15,19,0,0,0,0,0:
0000
0000
0000
0000
,
0000
0000
0000
0000
,
0000
0000
0000
0000
,
0000
0000
0000
0000
,
0000
0000
0000
0000
,
0000
0000
0000
0000
,
0000
0000
0000
0000
,
1001
0000
0000
0000
,
0100
0100
0100
0000
,
0010
1000
0010
0000
,
0100
0001
0100
0000
,
0001
1000
0001
0010
,
1000
0000
0110
0000
,
1000
0100
1000
0000
,
0010
1000
0010
0000
,
1000
0010
0100
0001
,
0100
0000
1001
0000
,
0020
0000
0000
0030
,
0000
0000
0000
0000
,
2002
0000
0000
3003
,
0010
0000
0020
0030
,
0100
0001
0100
0000
,
1000
0001
1000
0000
,
0010
0100
0010
0000
,
1000
0100
0001
0000
,
1000
0001
1000
1000
,
0100
1000
0100
0100
,
0010
0001
0010
0010
,
1000
0001
0100
0010
,
2000
3000
0001
0010
,
0002
0003
0100
1000
,
0200
0300
0001
1000
,
0010
0100
0200
0300
,
0010
1000
0002
0003
,
1000
0010
0200
0300
,
0100
0001
0020
0030
,
1000
1000
2000
3000
,
0110
0000
1000
0010
,
0100
0001
1000
0000
,
0001
0001
1000
0000
,
0010
0000
1001
0000
,
0100
0001
0010
0000
,
0010
0001
1000
0000
,
1000
0100
0001
0100
,
0010
0000
1001
0000
,
0200
0300
0010
0100
,
1000
0100
0001
0000
,
0020
0030
1000
0001
,
1000
0100
0100
0000
,
2000
3000
0001
0010
,
0100
0001
0100
0000
,
0002
0003
0010
0100
,
0010
1000
1000
0000
,
0110
0000
0000
0000
,
0000
0000
0001
1000
,
1001
0000
0000
0000
,
0000
0000
0010
0100
,
0110
0000
0000
0000
,
0000
0000
0100
1000
,
1001
0000
0000
0000
,
0110
0000
1001
0000
,
0010
0100
0010
0100
,
1000
0100
0001
0010
,
1000
0001
1000
0001
,
1000
0010
0100
0100
,
0001
0100
1000
0100
,
0001
0010
1000
0100
,
0010
0001
0100
0001
,
2000
3000
0220
0330
,
1000
0010
0001
0001
,
0100
0010
1000
1000
,
0100
0001
0100
0100
,
1000
0001
0010
0010
,
0001
0100
1000
0100
,
0001
0010
0001
0010
,
0100
0100
0001
0001
,
0010
1000
0100
0001
,
1001
0000
0000
0000
;

//--------------- dance-single - ----------------
#NOTES:
     dance-single:
     :
     Medium:
     9:
     0.361018,0.445364,0.148258,0.249343,0,375,353,22,37,0,0,0,0,0,0.361018,0.445364,0.148258,0.249343,0,375,353,22,37,0,0,0,0,0:
0000
0000
0000
0000
,
0000
0000
0000
0000
,
0000
0000
0000
0000
,
0000
0000
0000
0000
,
0000
0000
0000
0000
,
0000
0000
0000
0000
,
0000
0000
0000
0000
,
0220
0000
0000
0330
,
1000
0001
0100
0110
,
0010
0000
1000
0000
0100
1000
0100
0000
,
0001
0000
0100
0000
0010
0001
0010
0000
,
1000
0000
0100
0001
0010
0001
0100
0000
,
0001
0001
0100
1001
,
1000
0000
0010
0000
1000
0010
1000
0000
,
0010
0000
0100
0000
0001
1000
0001
0000
,
0010
0000
1000
0001
1000
0100
1000
0000
,
0010
0010
0100
0010
1000
0000
0011
0000
,
0220
0000
0000
0000
,
0000
0000
0000
0330
,
1000
1010
0000
0000
0000
0100
0101
0000
,
0000
0010
0011
0000
0100
0001
1001
0000
,
0020
0000
0130
1000
0100
0010
0001
0000
,
0200
0000
0301
1000
0010
1000
0100
0000
,
0002
0000
0013
1000
0100
0010
0100
0000
,
2000
0000
3010
0001
0100
0100
0100
0000
,
1002
0000
0103
0010
0100
0001
1000
0000
,
2010
0000
3001
0100
0010
0001
0100
0000
,
0120
0000
1030
1000
0100
1000
0001
0000
,
1200
0001
0310
0001
1000
0100
0110
0000
,
0100
0000
1000
0000
0010
1000
0100
1000
,
0001
0000
0100
0000
1000
0100
0010
0100
,
0001
0000
0010
0000
0001
1000
0010
1000
,
0100
0000
0010
1000
0010
0100
0100
0000
,
1000
0001
1000
0000
0010
1000
0010
0000
,
0100
0001
0100
0000
1000
0100
1000
0000
,
0010
0100
1000
0000
1000
0100
0001
0000
,
0001
0010
0100
0010
0100
1000
1001
0000
,
0020
1000
0100
0100
,
0031
0000
0100
1000
0000
1000
0010
0000
,
0001
0000
1000
0000
0101
0000
0100
1000
,
0010
0000
0010
1000
0100
0010
0100
0000
,
0200
0001
0010
0010
,
1300
0000
0100
0010
0000
0100
0001
0000
,
0010
0001
1000
0000
1000
0010
0100
0000
,
0100
1000
0100
0001
0001
0000
0011
0000
,
0020
0000
2030
0000
3010
0100
0010
0000
,
0200
0000
0302
0000
1003
0100
1000
0000
,
0020
0130
2000
3100
,
0200
0000
0001
1000
0000
1000
0301
0000
,
0002
0000
2003
0000
3100
0010
0100
1000
,
0020
0000
0230
0000
0301
0100
0010
0100
,
0002
0000
1000
0010
0000
0010
1000
0000
,
0103
0010
1000
0100
0100
0000
1001
0000
,
2000
0000
0000
0000
,
0000
0000
3000
0000
0010
0100
1000
0100
,
0020
0000
0000
0000
,
0000
0000
0030
0000
1000
0010
0001
0010
,
0200
0000
0000
0000
,
0000
0000
0300
0000
0001
1000
0100
0001
,
0202
0000
0000
0303
,
1000
1000
0001
0110
,
1000
0000
0100
0000
0010
0100
0010
0000
,
0100
0000
0010
1000
0100
1000
0001
0000
,
0100
0000
0010
0000
0100
0001
0010
0000
,
0001
1000
0001
0100
0100
0000
1010
0000
,
0100
0000
1000
0000
0100
1000
0010
0000
,
0010
0000
1000
0001
0010
0001
0100
0000
,
0001
1000
0001
0000
1000
0100
1000
0000
,
0200
2300
3200
0320
,
1030
0100
0010
0000
0100
0001
0010
0000
,
0100
0000
0100
1000
0100
0001
0010
0000
,
0010
1000
0001
0000
1000
0100
0001
0000
,
0010
0100
0010
0001
0100
0010
0010
0000
,
1000
0010
0100
0000
0001
0100
0010
0000
,
0001
0100
0010
1000
0010
0100
0010
0000
,
0001
0100
0100
0000
0010
1000
1000
0000
,
1000
0001
1000
0100
0010
1000
1000
0000
,
0220
0000
0000
0330
;

//--------------- dance-single - ----------------
#NOTES:
     dance-single:
     :
     Hard:
     12:
     0.43996,0.551482,0.168475,0.229126,0.212278,457,432,25,34,0,0,0,0,0,0.43996,0.551482,0.168475,0.229126,0.212278,457,432,25,34,0,0,0,0,0:
0000
0000
0000
0000
,
0000
0000
0000
0000
,
0000
0000
0000
0000
,
0000
0000
0000
0000
,
0000
0000
0000
0000
,
0000
0000
0000
0000
,
0000
0000
0000
0000
,
2002
0000
0000
3003
,
0010
0000
0010
0000
0010
0000
0010
0000
0100
1000
0100
0000
0001
0010
0001
0000
,
1000
0100
0010
0001
1000
0010
1000
0000
,
0001
1000
0010
0100
0001
0010
0001
0000
,
0200
0000
0010
0000
0310
0001
0100
0000
,
0010
0001
0000
1000
0000
0100
0101
0000
,
0100
0010
0100
0000
1000
0100
1000
0001
,
0100
1000
0001
0000
0010
0001
0010
0100
,
2000
0000
0001
0000
3001
0010
0100
0000
,
1000
0000
0001
0001
1000
0001
0000
0000
,
0220
0030
0002
0300
,
2000
0003
0200
3300
,
0101
0202
0000
0300
0010
0000
0010
0000
,
1003
0000
0010
0000
0100
0001
1001
0000
,
0001
0000
0100
0000
0010
0000
0000
1000
0000
0001
0000
0100
0000
0000
0010
0000
,
0100
0000
0001
0000
1000
0000
0000
0010
0000
0100
0000
0001
0000
0000
1000
0000
,
0001
0000
0010
0000
0100
0000
0000
0001
0000
0100
0000
1000
0000
0000
0100
0000
,
1000
0100
0001
0100
0010
0010
1000
1000
,
0010
0000
0100
0000
1000
0000
0000
0010
0000
0100
0000
1001
0000
0000
0010
0000
,
0001
0000
1000
0000
0010
0000
0000
1000
0000
0100
0000
0101
0000
0000
0100
0000
,
0010
0000
0001
0000
0010
0000
0000
0100
0000
1000
0000
0110
0000
0000
0010
0000
,
0001
0000
0001
0000
1000
0000
1000
0000
0100
0000
0010
0000
0100
0010
0100
0000
,
2100
0000
3100
0010
0100
0001
0010
0000
,
0002
0000
1003
0010
0100
1000
0100
0000
,
0020
0000
0130
0001
0010
1000
0001
0000
,
0100
1000
0100
0010
1000
0001
1001
0000
,
0020
0100
1030
0100
0001
0010
0001
0001
,
2000
0100
3010
0100
0001
0010
1000
1000
,
0200
1000
0301
0010
1000
0100
0010
0010
,
0002
0100
0203
0010
0310
0001
0110
1000
,
0001
0000
0010
0000
0100
0001
1000
0000
,
0010
0000
0010
0001
0000
0001
0100
0000
,
1000
0100
0010
1000
0001
0000
0100
0010
,
0100
1000
0000
1000
0001
0100
0100
0000
,
1010
0000
0010
0100
0000
0001
0010
0000
,
1000
0000
0000
0000
0001
0000
1000
0000
0000
0000
0100
0000
0000
0010
0100
0010
,
0100
0000
0001
0000
1000
0010
1000
0000
,
1000
0100
0010
0001
0010
0100
0001
1000
,
0110
0000
0001
0000
0001
0010
0100
0000
,
1000
0100
0001
0100
1000
0010
0010
0000
,
0200
1000
0001
0001
,
0310
0001
0000
0010
0000
1000
1100
0000
,
0100
0000
0010
0000
0100
1000
0100
0000
,
0001
1000
0001
1000
0010
0100
0100
0000
,
0002
0010
1000
0100
,
0103
0000
1000
0100
0001
0100
0000
0000
,
0100
0020
0200
0000
0000
0000
0000
0000
0000
0000
0000
0000
0000
0000
0000
0000
,
0000
0000
0330
0000
0010
0100
0010
1000
,
0001
0200
0002
0000
0000
0000
0000
0000
0000
0000
0000
0000
0000
0000
0000
0000
,
0000
0000
0303
0000
0100
1000
0100
0001
,
0010
2000
0020
0000
0000
0000
0000
0000
0000
0000
0000
0000
0000
0000
0000
0000
,
0000
0000
3030
0000
0001
0100
1000
0010
,
2002
0000
0000
3003
,
0202
0303
2200
3300
,
1000
0010
1000
0100
0001
0100
0010
0000
,
0001
0010
0100
1000
0010
0100
0001
0000
,
0010
1000
0010
1000
0100
0001
1000
0000
,
0010
0010
0100
0100
1000
0001
1100
0000
,
0001
1000
0001
0010
0100
0001
0100
0000
,
1000
0100
0001
0010
0100
0010
0100
0000
,
0001
1000
0010
0100
1000
0001
0010
0000
,
1001
0110
0011
1100
,
0010
0000
1000
0001
0000
0001
0100
0010
0000
1000
0000
0001
0000
0010
1000
0010
,
0100
0000
0000
0001
0010
0000
1000
0000
0100
0000
0001
0000
1000
0000
0001
0000
,
0010
0000
1000
0010
0000
0100
0001
0100
0000
1000
0000
0001
0000
1000
0100
1000
,
0001
0000
0000
0100
0010
0000
1000
0000
0001
0100
0000
0010
0000
0001
0000
0100
,
1000
0000
0010
1000
0000
0001
0100
0001
0000
0010
0000
1000
0000
0010
1000
0010
,
1000
0000
0000
0001
0100
0000
0010
0000
0001
0000
0010
0000
0100
0000
1000
0000
,
0001
0000
0100
0010
0000
1000
0010
1000
0000
0001
0000
1000
0000
0010
0100
0010
,
0100
0000
0000
0001
0000
0000
1000
0000
0000
0100
0001
0000
0011
0000
1001
0000
,
0200
0000
0000
0000
0000
0000
0000
0000
0000
0000
0000
0000
0000
0000
0000
0300
;
