#VERSION:0.83;
#TITLE:Seaside Labyrinth;
#SUBTITLE:;
#ARTIST:Dirty Androids;
#TITLETRANSLIT:;
#SUBTITLETRANSLIT:;
#ARTISTTRANSLIT:;
#GENRE:;
#ORIGIN:;
#CREDIT:;
#BANNER:Seaside Labyrinth.png;
#BACKGROUND:Seaside Labyrinth-bg.png;
#PREVIEWVID:;
#JACKET:Seaside Labyrinth-jacket.png;
#CDIMAGE:;
#DISCIMAGE:;
#LYRICSPATH:;
#CDTITLE:;
#MUSIC:Seaside Labyrinth.ogg;
#OFFSET:-1.234038;
#SAMPLESTART:16.544176;
#SAMPLELENGTH:14.117649;
#SELECTABLE:YES;
#BPMS:0.000=136.000;
#STOPS:;
#DELAYS:;
#WARPS:;
#TIMESIGNATURES:0.000=4=4;
#TICKCOUNTS:0.000=4;
#COMBOS:0.000=1;
#SPEEDS:0.000=1.000=0.000=0;
#SCROLLS:0.000=1.000;
#FAKES:;
#LABELS:0.000=Song Start;
#BGCHANGES:0.000=Seaside Labyrinth.avi=1.000=0=0=0=StretchNoLoop====,
99999=-nosongbg-=1.000=0=0=0 // don't automatically add -songbackground-
;
#KEYSOUNDS:;
#ATTACKS:
;

//---------------dance-single - ----------------
#NOTEDATA:;
#CHARTNAME:;
#STEPSTYPE:dance-single;
#DESCRIPTION:;
#CHARTSTYLE:;
#DIFFICULTY:Hard;
#METER:12;
#RADARVALUES:0.502255,0.546027,0.342605,0.432335,0.350763,431.000000,389.000000,42.000000,53.000000,0.000000,0.000000,0.000000,0.000000,0.000000,0.502255,0.546027,0.342605,0.432335,0.350763,431.000000,389.000000,42.000000,53.000000,0.000000,0.000000,0.000000,0.000000,0.000000;
#CREDIT:;
#NOTES:
0000
0000
0000
0000
,
0000
0000
0000
0000
,
0000
0000
0000
0000
,
0000
0000
0000
0000
0000
0000
0000
0100
0002
0000
0000
0000
0103
1000
0000
1010
,
0000
0000
0000
0000
0010
0000
0000
0000
1000
0000
1000
0000
0100
0000
0000
1000
,
0000
0000
0000
0000
0110
0000
0000
0000
0010
0000
0010
0000
0001
1000
0000
0001
,
0000
0000
0000
0000
0100
0000
0000
0000
0100
0000
0000
0010
0000
0000
1020
0000
,
0000
0001
0031
1000
0100
1000
0010
0001
,
0011
0000
0100
0000
0110
0000
1000
0000
1010
0000
0000
0000
0010
1000
0000
2001
,
0000
0000
0010
0000
3100
0000
0000
0000
0001
0000
1000
0000
0001
0000
0000
0020
,
0000
0000
0100
0000
0000
1000
0000
0000
1030
0000
0000
0000
0100
0001
0000
0020
,
0000
0000
0001
0000
0030
0000
0000
0000
1000
0000
0100
0000
1000
0000
0000
1010
,
0000
0000
0001
0000
0000
0100
0000
0000
0100
0000
0000
0000
1000
0001
1000
0200
,
0000
0000
0010
0000
0310
0000
0000
0000
1000
0000
0010
0000
0001
0010
0000
2000
,
0000
0000
0001
0000
3001
0000
0000
0000
0100
0000
0010
0000
0100
1000
0000
0120
,
0000
0000
1000
0000
0000
0000
1000
0000
0100
0000
0030
0000
1000
0001
0000
1001
,
0000
0000
1010
0000
0000
0010
0000
0102
0000
0000
0000
0000
1003
0000
0000
0000
,
0100
0001
0100
0010
0001
1000
0001
0000
,
0010
0000
0100
0000
0010
0000
0000
1000
0000
0000
0001
0000
0001
0000
0000
0000
,
1000
0100
0001
0000
0010
0001
0010
1000
,
0000
0000
0010
0000
0000
1000
0000
0000
1010
0000
0000
0000
0200
0000
0001
0000
,
1300
0000
0020
0100
0031
0000
2000
0010
,
3001
0000
0010
0000
0100
0000
0002
0000
0000
0000
0010
0000
0013
0000
0000
1020
,
0000
0000
0100
0000
0001
0000
0031
1000
,
0000
0000
1000
0001
0000
0010
0001
0000
0100
0000
1000
0000
1001
0000
0000
0000
,
0200
2300
3020
2030
,
3002
0000
0000
0000
0203
0000
0000
0000
0320
0000
0000
0000
0130
1000
0000
2010
,
0000
3002
0203
0320
,
0032
0000
0000
0000
2003
0000
0000
0000
3010
0000
0010
0000
0001
0100
0000
1002
,
0000
0000
0103
0000
1000
1000
0010
0000
,
0001
0000
0000
0000
0110
0000
0000
0000
0100
0000
0100
0000
1000
0010
0000
0011
,
0000
0000
0001
0010
0100
0000
0100
1000
,
0100
0000
0001
0000
0010
0000
0000
0000
1000
0000
0100
0000
0010
0100
0000
0102
,
0000
0010
1000
0100
,
0100
0000
0000
0000
0010
0000
0000
0000
1003
0000
0010
0000
0100
0000
0000
0200
,
0000
0001
0010
0010
,
0001
0000
0000
0000
1000
0000
0000
0000
0301
0000
1000
0000
0010
1000
0000
1020
,
0000
0000
0130
0000
0002
0000
0103
1000
,
2000
0000
3010
0001
0100
0010
0200
0000
,
0320
0000
0000
0001
0030
0000
0001
0000
2000
0000
0000
0010
3000
0000
0010
0000
,
0000
0000
0010
0000
0000
0100
0000
0101
0000
1000
0000
0022
0000
0000
0033
0000
,
0000
0000
1000
0000
0100
0000
0000
0010
0000
0000
0010
0000
0100
0000
0000
0000
,
0001
0010
0100
0010
2000
0000
3200
0000
,
0301
0000
1000
0000
0001
0000
0000
0100
0000
0000
0100
0000
0010
1000
0000
1000
,
0000
0001
0010
0010
0001
0100
2100
0000
,
3100
0000
0001
0010
1000
0000
1000
0100
,
0010
0000
0100
0000
0001
0000
0000
0000
0020
0000
1000
0000
1030
0000
0000
0201
,
0000
0000
0000
0000
0010
0000
0000
0000
1000
0000
0000
0000
1300
0000
0000
0001
,
0000
0000
0010
0000
0110
0000
0100
0000
1100
0000
0100
0000
1000
0001
0000
0021
,
0000
0000
0100
0000
0130
0000
0000
0000
0010
0000
0001
0000
1000
0010
0000
0200
,
0000
0000
0001
0000
0001
0000
1000
0000
0310
0000
0000
0000
0100
0001
0000
1001
,
0000
0000
0010
0000
0100
0000
0000
0000
1000
0000
1000
0000
0100
0001
0000
0110
,
0000
0000
0001
0000
0000
0010
0000
0000
1000
0000
0001
0000
1000
0100
0010
0200
,
0000
0000
1000
0000
0301
0000
0000
0000
1000
0000
0010
0000
0001
0010
0000
1000
,
0000
0000
0010
0000
0000
0100
0000
0000
0001
0000
0001
0000
0100
0000
0000
1010
,
0000
0000
1000
0000
0010
0000
0000
0000
0100
0000
0001
0000
0100
0010
0000
1020
,
0000
0000
0230
0000
0000
2300
0000
0000
3010
0000
0010
0000
0011
0000
0000
0200
,
0000
0010
0301
0010
1000
0010
0100
0000
,
1000
0100
1000
0010
0001
1000
1000
0000
,
0010
0000
0001
0000
0100
0000
0000
0000
1000
0000
0010
0000
0100
0001
0000
0100
,
0000
0000
0010
0000
0001
0000
1000
0000
0010
0000
0010
0000
0100
0000
0000
0101
,
0000
0000
0010
0000
2001
0000
0000
0000
3100
0000
0010
0000
0100
0010
0000
1000
,
0000
0000
0010
0000
1000
0000
0100
0000
0100
0000
0000
0000
1000
0001
0000
1010
,
0000
0010
0001
0100
0010
0100
0001
1000
,
1000
0000
0100
0000
0000
0001
0000
0000
1000
0000
0010
0000
0110
0000
0000
0000
,
0010
0000
0021
0000
0000
0100
0000
0000
0130
0000
2010
0000
0000
0001
0000
0001
,
3000
0000
0100
0000
0000
0001
0000
0000
0011
0000
0000
1001
0000
0000
0110
0100
;

//---------------dance-single - ----------------
#NOTEDATA:;
#CHARTNAME:;
#STEPSTYPE:dance-single;
#DESCRIPTION:;
#CHARTSTYLE:;
#DIFFICULTY:Medium;
#METER:8;
#RADARVALUES:0.350763,0.381862,0.195775,0.432335,0.114202,301.000000,277.000000,24.000000,53.000000,0.000000,0.000000,0.000000,0.000000,0.000000,0.350763,0.381862,0.195775,0.432335,0.114202,301.000000,277.000000,24.000000,53.000000,0.000000,0.000000,0.000000,0.000000,0.000000;
#CREDIT:;
#NOTES:
0000
0000
0000
0000
,
0000
0000
0000
0000
,
0000
0000
0000
0000
,
0000
0000
0100
0110
,
1000
0000
0000
0000
0001
0000
0000
0000
1000
0000
0000
0000
0010
0000
0000
2000
,
0000
0000
0000
0000
3100
0000
0000
0000
0001
0000
0000
0000
0100
0000
0000
0020
,
0000
0000
0000
0000
1030
0000
0000
0000
0100
0000
0000
1000
0000
0000
0002
0000
,
0000
0100
0010
0010
,
1003
0000
0000
0000
0010
0000
0000
0000
1000
0000
0000
0000
0101
0000
0000
0002
,
0000
1003
0010
1000
,
0010
0000
0000
0000
1000
0000
0000
0000
0100
0000
0000
0000
1100
0000
0000
0020
,
0000
0130
0001
0001
,
0010
0000
0000
0000
1000
0000
0000
0000
0100
0000
0000
0000
0011
0000
0000
2000
,
0000
3010
0001
0010
,
0100
0000
0000
0000
1000
0000
0000
0000
0001
0000
0000
0000
1010
0000
0000
0020
,
0000
0130
1000
1000
,
0010
0100
1000
1100
,
2000
3010
0200
0310
,
0002
1000
1003
0010
,
0200
0310
0002
0013
,
2000
0010
3010
1001
,
0200
1000
0302
0010
,
2003
0100
0100
3002
,
0023
0001
0100
1030
,
0100
0000
0000
0000
0010
0000
0000
0000
0100
0000
0000
0000
0101
0000
0000
2000
,
0000
3000
0001
0010
,
0100
0000
0000
0000
1000
0000
0000
0000
0100
0000
0000
0000
0100
0000
0000
0020
,
0000
0031
1000
0010
,
0100
0000
0000
0000
0001
0000
0000
0000
0100
0000
0000
0000
1000
0000
0000
0200
,
0000
0300
1000
0001
,
1000
0000
0000
0000
0010
0000
0000
0000
1000
0000
0000
0000
1000
0000
0000
0002
,
0000
0013
1000
0100
,
1000
0000
0000
0000
0010
0000
0000
0000
1000
0000
0001
0000
1000
0000
0000
0210
,
0000
1300
0020
1030
,
2000
0000
0000
0000
3200
0000
0000
0000
0302
0000
0000
0000
0013
0000
0000
0200
,
0000
0301
0200
0310
,
0020
0032
2003
3200
,
0301
1001
0100
0101
,
0001
0010
1000
0110
,
0020
0130
0002
0100
,
0103
1000
0001
0011
,
0000
0010
1000
0000
0100
0010
0100
0000
,
0001
0000
0100
0000
0001
0100
0010
0000
,
0000
1000
0001
0000
1000
0100
1000
0000
,
0010
0000
1000
0100
0000
0010
0100
0000
,
0010
0000
0001
0010
0100
0000
0001
1000
,
0100
0000
1000
0000
0000
0000
0100
0000
0010
0000
1000
0000
0010
0000
0000
2000
,
0000
0000
0000
0000
3020
0000
0000
0000
0032
0000
0000
0000
0103
0000
0000
0200
,
0000
0000
0000
0000
0010
0000
0000
0000
0310
0000
0000
0000
1100
0000
0000
0020
,
0000
0000
0000
0000
1030
0000
0000
0000
0010
0000
0000
0000
1000
0000
0000
2000
,
0000
0000
0000
0000
3100
0000
0000
0000
0100
0000
0000
0000
0101
0000
0000
0002
,
0000
0000
0000
0000
1003
0000
0000
0000
0010
0000
0000
0000
1000
0000
0000
0200
,
0000
0000
0000
0000
0310
0000
0000
0000
1000
0000
0000
0000
0011
0000
0000
2000
,
0000
0000
0001
0000
3100
0000
0000
0000
0010
0000
0100
0000
0010
0000
0000
0002
,
0000
0000
0100
0000
0103
0000
0000
0000
1000
0000
0001
0000
1000
0000
0000
0020
,
0000
0000
0000
0000
0130
0000
0000
0000
0010
0000
0000
0000
0001
0000
0000
1002
,
0000
0100
0010
0013
,
1000
0100
1000
0000
0100
0001
0100
0000
,
1000
0010
0100
0000
0001
0000
0101
0000
,
0010
0000
1000
0010
0001
0000
0010
0100
,
0001
0010
0001
0000
1000
0010
0010
0000
,
0100
1001
0001
1010
,
0001
0000
0010
0000
0001
0000
0000
0000
1100
0000
0000
0000
0110
0000
0000
0200
,
0000
0000
0010
0000
0310
0000
0001
0100
,
0010
0100
0001
0010
0000
0100
0101
0000
,
0000
0000
2000
0000
0000
3100
0000
0000
0000
0000
0002
0000
0000
1003
0000
0000
,
0000
0000
0002
0000
0000
2003
0000
0000
3020
0000
0000
0031
0000
0000
0110
0000
;

//---------------dance-single - ----------------
#NOTEDATA:;
#CHARTNAME:;
#STEPSTYPE:dance-single;
#DESCRIPTION:;
#CHARTSTYLE:;
#DIFFICULTY:Easy;
#METER:5;
#RADARVALUES:0.263363,0.327311,0.040786,0.285505,0.012236,226.000000,221.000000,5.000000,35.000000,0.000000,0.000000,0.000000,0.000000,0.000000,0.263363,0.327311,0.040786,0.285505,0.012236,226.000000,221.000000,5.000000,35.000000,0.000000,0.000000,0.000000,0.000000,0.000000;
#CREDIT:;
#NOTES:
0000
0000
0000
0000
,
0000
0000
0000
0000
,
0000
0000
0000
0000
,
0000
0000
0000
0000
,
2000
3000
0010
0100
,
0200
0300
1000
0001
,
0002
0003
0010
0100
,
0220
0330
1000
0010
,
1000
0100
0200
0300
,
1000
0100
0001
0100
,
1000
0100
0001
0100
,
1000
0010
0001
0010
,
1000
0010
0001
0010
,
0100
0010
1000
0010
,
0100
0010
1000
0010
,
1000
0001
0010
0001
,
1000
0010
0001
0010
,
2000
3000
0010
1000
,
0100
0010
0002
0003
,
0020
0030
0100
0001
,
0010
1000
2000
3000
,
0001
1000
0001
0001
,
0010
0001
0010
0010
,
1001
0001
1000
1000
,
1001
1000
0001
0001
,
0200
0000
0300
0010
,
1000
1000
0001
0010
,
0002
0003
0010
0100
,
0010
1000
0010
0010
,
2000
0000
3000
0001
,
0010
1000
1000
0100
,
0200
0300
0001
0010
,
1000
0001
0002
0003
,
1000
0001
2000
3000
,
0010
0100
0020
0030
,
0100
0001
0010
1000
,
0001
0001
0020
0030
,
2000
3000
0100
0010
,
0002
0003
1000
0010
,
0200
0300
0001
1000
,
0010
0001
2002
3003
,
0000
0010
0001
0001
,
1000
0100
1000
0100
,
0000
0100
0001
1000
,
0001
0100
0001
0100
,
0000
0010
1000
0010
,
0200
0300
0002
0003
,
0000
0001
0100
0010
,
1000
0100
0200
0300
,
1000
0010
0001
0010
,
1000
0010
0001
0010
,
1000
0100
0001
0100
,
1000
0100
0001
0100
,
0010
0100
0001
0100
,
0010
0100
1000
0100
,
1000
0001
0100
0001
,
1000
0001
1000
0001
1000
0001
1000
0000
,
0020
0031
1000
1000
,
0002
0103
0010
0010
,
0200
0301
1000
0010
,
0001
0010
0020
0030
,
0100
0001
0200
0301
,
0001
1000
0002
1003
,
0200
0300
2000
3000
,
0010
0100
0002
0003
,
0000
0000
0100
0000
0000
0001
0000
0000
0000
0000
0010
0000
0000
1000
0000
0000
,
0000
0000
0000
0000
0001
0000
0000
0000
1000
0000
0000
0010
0000
0000
1001
0000
;

//---------------dance-single - ----------------
#NOTEDATA:;
#CHARTNAME:;
#STEPSTYPE:dance-single;
#DESCRIPTION:;
#CHARTSTYLE:;
#DIFFICULTY:Beginner;
#METER:3;
#RADARVALUES:0.142170,0.190574,0.024472,0.122359,0.000000,122.000000,119.000000,3.000000,15.000000,0.000000,0.000000,0.000000,0.000000,0.000000,0.142170,0.190574,0.024472,0.122359,0.000000,122.000000,119.000000,3.000000,15.000000,0.000000,0.000000,0.000000,0.000000,0.000000;
#CREDIT:;
#NOTES:
// measure 0
0000
0000
0000
0000
,  // measure 1
0000
0000
0000
0000
,  // measure 2
0000
0000
0000
0000
,  // measure 3
0000
0000
0000
0000
,  // measure 4
1000
0000
0001
0000
,  // measure 5
1000
0000
0001
0000
,  // measure 6
0010
0000
0100
0000
,  // measure 7
0020
0000
0000
0000
,  // measure 8
0030
0000
0000
0000
,  // measure 9
0100
0000
0001
0000
,  // measure 10
0100
0000
0100
0000
,  // measure 11
0010
0000
1000
0000
,  // measure 12
0010
0000
0010
0000
,  // measure 13
0100
0000
0010
0000
,  // measure 14
0100
0000
0100
0000
,  // measure 15
1000
0000
0001
0000
,  // measure 16
2000
0000
3000
0000
,  // measure 17
0010
0010
0010
0000
,  // measure 18
0100
0000
0001
0000
,  // measure 19
0100
0100
0100
0000
,  // measure 20
1000
0000
0001
0000
,  // measure 21
1000
1000
1000
0000
,  // measure 22
0010
0000
0001
0000
,  // measure 23
0020
0000
0030
0000
,  // measure 24
1000
0000
1001
0000
,  // measure 25
0002
0000
0003
0000
,  // measure 26
0100
0000
0001
0000
,  // measure 27
0100
0000
0010
0000
,  // measure 28
1000
1000
1000
0000
,  // measure 29
0200
0000
0300
0000
,  // measure 30
0001
0000
0001
0000
,  // measure 31
1000
0000
0010
0000
,  // measure 32
2000
0000
3000
0000
,  // measure 33
0001
0000
0001
0000
,  // measure 34
1000
0000
1000
0000
,  // measure 35
0100
0000
0100
0000
,  // measure 36
0010
0000
0010
0000
,  // measure 37
0001
0000
0100
0000
,  // measure 38
1000
0000
0100
0000
,  // measure 39
0002
0000
0003
0000
,  // measure 40
0100
0000
0220
0330
,  // measure 41
0000
0010
0000
0100
,  // measure 42
0200
0000
0000
0300
,  // measure 43
0000
1000
0000
0001
,  // measure 44
0002
0000
0000
0003
,  // measure 45
0000
0010
0000
1000
,  // measure 46
0000
0001
0000
1000
,  // measure 47
2000
0000
0000
0000
,  // measure 48
3000
0000
0000
0000
,  // measure 49
0010
0000
0001
0000
,  // measure 50
0010
0000
0010
0000
,  // measure 51
0100
0000
1000
0000
,  // measure 52
0100
0000
0100
0000
,  // measure 53
1000
0000
0001
0000
,  // measure 54
1000
0000
1000
0000
,  // measure 55
0010
0000
0001
0000
,  // measure 56
0001
0000
1001
0000
,  // measure 57
1000
1000
1000
0000
,  // measure 58
0100
0000
0010
0000
,  // measure 59
0100
0100
0100
0000
,  // measure 60
0001
0000
1000
0000
,  // measure 61
0001
0001
0001
0000
,  // measure 62
0010
0000
0100
0000
,  // measure 63
0020
0000
0000
0030
,  // measure 64
0100
0000
0100
0000
,  // measure 65
0000
0002
0003
2000
,  // measure 66
3000
0010
0010
0010
;
