#VERSION:0.83;
#TITLE:Sacrifice for Justice;
#SUBTITLE:;
#ARTIST:RoughSketch;
#TITLETRANSLIT:;
#SUBTITLETRANSLIT:;
#ARTISTTRANSLIT:;
#GENRE:;
#ORIGIN:;
#CREDIT:;
#BANNER:Sacrifice for Justice.png;
#BACKGROUND:Sacrifice for Justice-bg.png;
#PREVIEWVID:;
#JACKET:;
#CDIMAGE:;
#DISCIMAGE:;
#LYRICSPATH:;
#CDTITLE:;
#MUSIC:Sacrifice for Justice.ogg;
#OFFSET:-0.088000;
#SAMPLESTART:79.664001;
#SAMPLELENGTH:15.000000;
#SELECTABLE:YES;
#BPMS:0.000=190.000,
180.000=95.000,
212.000=47.500,
214.000=190.000;
#STOPS:;
#DELAYS:;
#WARPS:;
#TIMESIGNATURES:0.000=4=4;
#TICKCOUNTS:0.000=4;
#COMBOS:0.000=1;
#SPEEDS:0.000=1.000=0.000=0;
#SCROLLS:0.000=1.000;
#FAKES:;
#LABELS:0.000=Song Start;
#BGCHANGES:;
#KEYSOUNDS:;
#ATTACKS:
;

//---------------dance-single - ----------------
#NOTEDATA:;
#CHARTNAME:;
#STEPSTYPE:dance-single;
#DESCRIPTION:;
#CHARTSTYLE:;
#DIFFICULTY:Beginner;
#METER:5;
#RADARVALUES:0.188224,0.242475,0.051003,0.110506,0.000000,155.000000,149.000000,6.000000,13.000000,0.000000,0.000000,0.000000,0.000000,0.000000,0.188224,0.242475,0.051003,0.110506,0.000000,155.000000,149.000000,6.000000,13.000000,0.000000,0.000000,0.000000,0.000000,0.000000;
#CREDIT:;
#NOTES:
// measure 0
0000
0000
0000
0000
,  // measure 1
0000
0000
0000
0000
,  // measure 2
0000
0000
0000
0000
,  // measure 3
0000
0000
0000
0000
,  // measure 4
0000
0000
0000
0000
,  // measure 5
0000
0000
0000
0000
,  // measure 6
0000
0000
0000
0000
,  // measure 7
0000
0000
0000
0000
,  // measure 8
0000
0000
0000
0000
,  // measure 9
0010
0000
0010
0000
,  // measure 10
0100
0000
0100
0000
,  // measure 11
0001
0000
1000
0000
,  // measure 12
0002
0000
0003
0000
,  // measure 13
1001
0000
0001
0000
,  // measure 14
0100
0000
0001
0000
,  // measure 15
0010
0000
0010
0000
,  // measure 16
1000
0000
0001
0000
,  // measure 17
1000
0000
1000
0000
,  // measure 18
0100
0000
0010
0000
,  // measure 19
0100
0000
1000
0000
,  // measure 20
0000
0001
0001
0000
,  // measure 21
1000
0000
1000
0000
,  // measure 22
0010
0000
0100
0000
,  // measure 23
0010
0000
0001
0000
,  // measure 24
1000
0000
0010
0000
,  // measure 25
0100
0100
0100
0000
,  // measure 26
0010
0010
0010
0000
,  // measure 27
0001
0000
1000
0000
,  // measure 28
0001
0001
0001
0000
,  // measure 29
1001
0000
1000
0000
,  // measure 30
0001
0000
1000
0000
,  // measure 31
0010
0000
0100
0000
,  // measure 32
0010
0000
0100
0000
,  // measure 33
0001
0000
0010
0000
,  // measure 34
0001
0000
1000
0000
,  // measure 35
0100
0000
0010
0000
,  // measure 36
1000
1000
1000
0000
,  // measure 37
0010
0000
0100
0000
,  // measure 38
0010
0000
0001
0000
,  // measure 39
1000
0000
0001
0000
,  // measure 40
0100
0000
0010
0000
,  // measure 41
0100
0100
0100
0000
,  // measure 42
1000
1000
1000
0000
,  // measure 43
0001
0000
0100
0000
,  // measure 44
0220
0000
0330
0000
,  // measure 45
0020
0000
0030
0000
,  // measure 46
0020
0000
0030
0000
,  // measure 47
2000
0000
3000
0000
,  // measure 48
2000
0000
3000
0000
,  // measure 49
0200
0000
0300
0000
,  // measure 50
0200
0000
0300
0000
,  // measure 51
0002
0000
0003
0000
,  // measure 52
0002
0000
0003
0000
,  // measure 53
2002
3003
0010
0000
,  // measure 54
0010
0000
0100
0000
,  // measure 55
0100
0000
0001
0000
,  // measure 56
0100
0000
1000
0000
,  // measure 57
0100
0000
0001
0000
,  // measure 58
0001
0000
1000
0000
,  // measure 59
1000
0000
0010
0000
,  // measure 60
1000
0000
0100
0000
,  // measure 61
1000
0000
0010
0010
,  // measure 62
0010
0000
1000
0000
,  // measure 63
0001
0000
1000
1000
,  // measure 64
1000
0000
0100
0000
,  // measure 65
0001
0000
0100
0100
,  // measure 66
0100
0000
0010
0010
,  // measure 67
0010
0000
1000
0000
,  // measure 68
0001
0000
1000
0000
,  // measure 69
1001
0000
0100
0000
,  // measure 70
0100
0000
0001
0000
,  // measure 71
0001
0000
0010
0000
,  // measure 72
1000
0000
0010
0010
,  // measure 73
0010
0000
1000
0000
,  // measure 74
0001
0000
1000
0000
,  // measure 75
0100
0000
0010
0000
,  // measure 76
0001
0001
0001
0000
,  // measure 77
0100
0000
1000
1000
,  // measure 78
1000
0000
0010
0000
,  // measure 79
0010
0000
0100
0000
,  // measure 80
0001
0000
1000
0000
,  // measure 81
0001
0000
1001
0000
;

//---------------dance-single - ----------------
#NOTEDATA:;
#CHARTNAME:;
#STEPSTYPE:dance-single;
#DESCRIPTION:;
#CHARTSTYLE:;
#DIFFICULTY:Easy;
#METER:7;
#RADARVALUES:0.295087,0.346393,0.068004,0.068004,0.000000,243.000000,235.000000,8.000000,8.000000,0.000000,0.000000,0.000000,0.000000,0.000000,0.295087,0.346393,0.068004,0.068004,0.000000,243.000000,235.000000,8.000000,8.000000,0.000000,0.000000,0.000000,0.000000,0.000000;
#CREDIT:;
#NOTES:
0000
0000
0000
0000
,
0000
0000
0000
0000
,
0000
0000
0000
0000
,
0000
0000
0000
0000
,
0000
0000
0000
0000
,
0000
0000
0000
0000
,
0000
0000
0000
0000
,
0000
0000
0000
0000
,
0000
0000
0000
0000
,
0001
0000
0001
0000
,
1000
0000
1000
0000
,
0010
0100
0010
1000
,
0001
0000
1001
0000
,
0010
0010
0001
0000
,
0100
0100
0010
0000
,
1000
0001
1000
1000
,
0010
0100
0001
0000
,
1000
0100
0010
0000
,
0001
0010
0100
0000
,
1000
0010
0100
0010
,
0000
0001
1001
0000
,
0100
0010
0100
0100
,
0001
1000
0010
0000
,
0001
0100
0010
1000
,
0010
0010
0100
0000
,
1000
0000
0001
0000
1000
0000
0000
0010
,
0000
0100
0010
0010
,
0000
0000
0001
0000
0100
0000
0000
0001
,
0000
1000
0000
0020
0000
0000
0030
0000
,
1000
0100
1000
0000
,
0010
1000
0010
0000
,
0100
0001
0100
0000
,
0001
1000
0001
0000
,
0010
0001
1000
0000
,
0100
1000
0001
0000
,
0100
0010
1000
0000
,
0010
0000
0001
0000
0000
1001
0000
0000
,
0100
0010
0100
1000
,
0001
1000
0010
0000
,
0001
0010
0001
1000
,
0100
0010
0100
0000
,
0001
0001
1000
0000
,
0100
0100
0010
0000
,
1000
0100
0001
0010
,
0200
0000
0300
0000
,
1001
0000
0001
0000
,
1000
0000
0010
0000
,
0110
0000
0100
0000
,
0001
0000
0010
0000
,
1000
1000
0001
0001
,
0010
0010
0100
0100
,
0010
1000
0010
0100
,
0001
0010
1000
0100
,
2000
0000
3000
1001
0010
0000
0001
0000
,
0010
0100
1000
0001
,
0010
0000
1000
0010
,
0100
0001
1000
1000
,
0010
0000
0100
0001
,
0100
0010
1000
0001
,
0100
0000
0001
0010
,
0100
1000
0001
0001
,
0200
0300
0010
1000
,
0001
0001
1000
0010
,
0100
0100
0001
1000
,
0010
0010
0100
0001
,
1000
1000
0010
0100
,
0001
0100
0010
1000
,
0010
0100
0001
0010
,
1000
0010
0100
0001
,
0020
0030
1000
0000
,
1000
0000
0001
0000
,
0001
0000
0100
0100
,
0010
0010
1000
0001
,
2002
3003
0010
0010
,
0001
0001
0100
0100
,
0010
0010
1000
1000
,
0001
0001
1000
0010
,
0200
0300
0010
0001
,
0010
0000
1000
0001
,
1000
0000
0100
0010
,
1000
0010
0100
0001
,
1000
0000
0110
0000
;

//---------------dance-single - ----------------
#NOTEDATA:;
#CHARTNAME:;
#STEPSTYPE:dance-single;
#DESCRIPTION:;
#CHARTSTYLE:;
#DIFFICULTY:Medium;
#METER:11;
#RADARVALUES:0.421379,0.525965,0.161508,0.144507,0.093505,347.000000,328.000000,19.000000,17.000000,0.000000,0.000000,0.000000,0.000000,0.000000,0.421379,0.525965,0.161508,0.144507,0.093505,347.000000,328.000000,19.000000,17.000000,0.000000,0.000000,0.000000,0.000000,0.000000;
#CREDIT:;
#NOTES:
0000
0000
0000
0000
,
0000
0000
0000
0000
,
0000
0000
0000
0000
,
0000
0000
0000
0000
,
0000
0000
0000
0000
,
0000
0000
0000
0000
,
0000
0000
0000
0000
,
0000
0000
0000
0000
,
0000
0000
0000
0000
,
1001
0001
0100
0010
,
0100
0001
1000
0010
,
0100
0001
0100
0000
0010
0100
0010
0000
,
1000
0010
1000
0001
0100
0000
0110
0000
,
0010
1000
0001
1000
,
0100
0010
0100
0001
,
1000
0000
0010
0000
1000
0000
0001
0010
,
0001
0000
0100
0000
1000
0001
1000
0000
,
0100
0000
0010
0000
0001
0000
0100
0010
,
0100
0010
1000
0001
,
1000
0100
1000
0000
0010
0000
0001
0010
,
0000
1000
0000
0001
0200
0000
0300
0000
,
1000
1000
0010
0000
0100
0000
0001
0000
,
0010
0000
1000
0000
0001
0000
0100
0010
,
0100
0010
0001
0010
,
1000
0001
1000
0110
,
0100
0001
1000
0001
0100
0000
0000
0010
,
0000
0010
1000
0000
0010
0100
0100
0000
,
0001
0000
0100
0001
0100
1000
0000
0010
,
0000
0001
0000
2002
0000
0000
3003
0000
,
0100
0000
0010
0000
1000
0010
0000
0100
,
0100
0000
0001
0000
0010
0001
0000
1000
,
1000
0000
0100
0000
0010
0100
0000
0001
,
0001
0000
1000
0000
0010
1000
0000
0010
,
0010
0000
0001
0000
1000
0001
0000
0100
,
0100
0000
0010
0000
1000
0010
0000
1000
,
1000
0000
0001
0000
0010
0001
0000
0100
,
0100
0000
1000
0001
0100
0002
0000
0000
,
1003
0000
0010
0000
0100
0001
0000
0100
,
0010
0000
0100
0000
0001
1000
0001
0000
,
0010
0000
0100
0010
1000
0000
0010
1000
,
0010
0000
0100
0000
0001
0010
0001
0000
,
1000
0000
0010
0000
1000
0010
0000
0100
,
0001
0000
0100
0000
0010
1000
0000
0001
,
1000
0000
0010
0000
0100
0001
1000
0000
,
0220
0000
0000
0330
,
1002
0000
0010
0000
,
2000
0000
0000
0000
3003
0000
0000
0100
,
0210
0000
1000
0000
,
0010
0000
0002
0303
,
1000
0000
1000
0001
0010
0000
0010
1000
,
0100
0000
0100
0001
1000
0000
1000
0010
,
0100
0000
0001
1000
0010
0000
0100
0001
,
1000
0000
0001
1000
0100
0010
0001
0000
,
1000
1000
0001
1001
0100
0000
0010
0000
,
0100
1000
0001
0010
,
1000
0000
0001
0000
1000
0000
0010
0000
0000
0001
0000
0000
,
0100
0010
1000
0100
,
0010
0000
0001
0000
0010
0000
0100
0000
0000
0001
0000
0000
,
1000
0100
0001
1000
,
0010
0000
0100
0000
0010
0000
1000
0000
0000
0001
0000
0000
,
0100
0010
0001
1000
,
0020
0030
0110
0010
,
0001
0000
0100
0000
0001
0000
1000
0000
0000
0010
0000
0000
,
0100
0000
1000
0000
0100
0000
0001
0000
0000
0010
0000
0000
,
1000
0000
0010
0000
1000
0000
0001
0000
0000
0100
0000
0000
,
0010
0000
0001
0000
0010
0000
1000
0000
0000
0001
0000
0000
,
0100
0000
0010
0000
1000
0000
0001
0000
0000
0100
0000
0000
,
0010
0000
0001
0000
1000
0000
0100
0000
0000
0110
0000
0000
,
0001
1001
2000
0100
,
0002
3003
0010
0010
,
0001
0001
0100
0100
,
1000
1000
0001
0100
,
0010
1000
0001
0010
,
0220
0330
0001
1000
,
0010
1000
0100
0010
,
0001
0000
0000
1001
0000
0000
0010
0000
0010
0001
0000
0000
,
1000
0000
0000
0001
0000
0000
0010
0000
0010
1000
0000
1000
,
0100
0110
0001
1000
,
0100
0000
0000
1100
0000
0000
0001
0000
0010
0001
0000
0000
,
0101
0000
0010
0011
,
1000
1100
0010
0001
,
0100
1000
2002
0000
,
0000
0000
3003
0000
;

//---------------dance-single - ----------------
#NOTEDATA:;
#CHARTNAME:;
#STEPSTYPE:dance-single;
#DESCRIPTION:;
#CHARTSTYLE:;
#DIFFICULTY:Hard;
#METER:15;
#RADARVALUES:0.616889,0.876608,0.255013,0.229512,0.446273,508.000000,478.000000,30.000000,27.000000,0.000000,0.000000,0.000000,0.000000,0.000000,0.616889,0.876608,0.255013,0.229512,0.446273,508.000000,478.000000,30.000000,27.000000,0.000000,0.000000,0.000000,0.000000,0.000000;
#CREDIT:;
#NOTES:
0000
0000
0000
0000
,
0000
0000
0000
0000
,
0000
0000
0000
0000
,
0000
0000
0000
0000
,
0000
0000
0000
0000
,
0000
0000
0000
0000
,
0000
0000
0000
0000
,
0000
0000
0000
0000
,
0000
0000
0000
0000
,
0120
0100
1000
0100
,
0001
1000
0001
0100
,
1030
0010
1000
0001
0100
0010
0100
0001
,
0010
0001
0010
0001
0010
0001
0010
0001
1000
0000
0001
0000
1001
0000
0000
0000
,
0100
0001
1000
0001
,
1000
0000
0010
0000
1000
0000
0001
0010
,
0001
0000
0000
0000
1000
0000
0000
0001
1000
0000
0010
0000
0100
0000
0010
0000
,
0100
0000
0001
0000
1000
1000
0010
0000
,
0100
0000
0001
0000
0010
0000
0001
1000
,
0001
0000
0100
0000
0010
0000
1000
0100
,
1000
0001
0010
0001
1000
0010
0100
0010
,
0000
1100
0000
1000
1002
0000
0013
0000
,
0100
0100
0100
0000
1000
0000
0100
0000
,
0010
0000
0001
0000
0100
0000
0010
1000
,
0010
0100
0001
0100
,
1000
0001
0100
0001
1000
0000
0010
0000
,
1000
0100
1000
0100
1000
0010
0010
0110
,
0000
0000
1000
0000
0001
0000
1000
0000
0010
0000
0100
0010
0100
0000
0000
0000
,
0001
0000
0000
0000
0010
0001
0010
0001
0010
0000
0100
0000
1000
0000
1010
0000
,
0000
0101
0000
2001
0000
0010
3010
0000
,
0100
0010
0100
0001
0100
0001
0000
0010
,
0001
0000
1000
0000
0001
0000
0010
0000
0001
0000
0010
0000
0000
0000
0100
1000
,
0100
1000
0100
0010
0100
0010
0000
0001
,
1000
0000
0010
0000
1000
0000
0100
0000
1000
0000
0100
0000
0010
0100
0010
0100
,
0010
0001
0010
0100
0010
0100
0000
1000
,
0010
0000
0100
0000
0010
0000
1000
0000
0010
0000
1000
0000
0000
0000
0001
0010
,
0001
1000
0001
0100
0001
0100
0000
0010
,
0100
0000
0100
0000
0001
0000
0001
0000
0010
0000
0011
0000
0000
0000
0100
0010
,
0100
1000
0001
0100
0010
1000
0001
0010
,
0001
0100
0010
1000
0010
0100
0001
0100
,
0010
0000
1000
0000
0100
0000
1000
0000
0001
0000
0000
0010
0000
0000
0100
0000
,
1000
0010
0100
0001
0100
0010
1000
0001
,
1000
1000
0010
0100
0100
0010
1000
0001
,
0100
0000
0100
0000
0001
0000
0010
0000
0010
0000
0001
0000
0100
0000
0010
1000
,
0010
0000
0100
0000
0001
0000
1000
0000
0100
0000
0010
0000
0001
1000
0001
1000
,
0001
0010
0100
1000
0010
0100
0001
1000
,
2100
0000
0000
0000
0000
0000
0000
0001
3002
0000
0000
0000
0000
0000
0103
0010
,
0200
0000
0000
0000
0010
0000
0000
0301
,
2000
0000
0000
0000
0000
0000
3100
0000
0020
0000
0000
0000
0000
0000
0031
0010
,
0002
0000
0000
0100
0200
0000
0303
0000
,
1000
0000
0000
1000
0000
0000
0001
0000
0000
0001
0000
0000
0100
0000
0000
0100
0000
0000
0010
0000
0100
0000
0010
0000
,
1000
0000
0000
1000
0000
0000
0010
0000
0000
0010
0000
0000
0100
0000
0000
0100
0000
0000
0001
0000
0100
0000
0001
0000
,
0010
0000
0000
0100
0000
0000
1000
0000
0000
0100
0000
0000
1000
0000
0000
0010
0000
0000
0100
0000
0001
0000
0010
0000
,
0100
0000
0000
1000
0000
0000
0010
0000
0000
0100
0000
0000
0001
0000
0000
1000
0000
0000
0001
0000
0010
0000
0100
0000
,
2000
0000
0000
3010
0100
0001
0010
0000
0000
0100
0000
1000
0020
0000
0000
0030
0000
0000
2002
0000
0000
3003
0000
0000
1000
0000
0000
0000
0000
0000
0000
0000
0000
0000
0000
0000
1000
0000
0000
0000
0010
0000
0000
0000
0100
0000
0000
0000
,
0001
0010
0100
1000
,
0010
0000
1000
0000
0001
0000
0100
0000
0000
0010
1000
0010
,
0100
0001
1000
0100
,
1100
0000
1010
0000
0110
0000
0001
0000
0000
0010
0001
0100
,
0010
1000
0001
0010
,
0110
0000
1010
0000
0101
0000
0100
0000
0000
0001
1000
0010
,
1000
0001
0101
0110
,
2200
0000
0000
3300
0000
0000
0011
0000
0000
0100
1000
0100
,
1000
0000
0010
0000
0100
0000
0001
0000
0000
0010
0001
0000
,
1010
0000
1100
0000
1001
0000
0010
0000
0000
0100
0001
0010
,
0001
0000
1000
0000
0010
0000
0100
0000
0000
0001
1000
0100
,
0010
0000
0001
0000
1000
0000
0100
0000
0000
0010
0100
0010
,
1000
0000
0001
0000
1000
0000
0010
0000
0000
0100
0000
0000
,
0001
0000
0010
0000
0001
0000
0101
0000
0100
0001
0000
0000
,
1010
0000
1000
0010
0000
0000
2000
0000
0000
3200
0000
0000
,
0020
0330
1001
0001
,
0001
0000
0000
0001
0000
0010
0001
0010
0100
0010
0000
0000
,
0001
0000
0010
0000
0100
0000
1000
0000
1000
0001
0000
0001
,
0100
0010
0100
0001
1000
0010
0100
0000
0000
0100
0000
0001
,
0020
0000
0000
0030
0000
0000
1000
0010
1000
0100
0000
0000
,
0010
0000
0000
0001
0000
0000
0100
0000
0100
0010
0000
0000
,
1000
0000
0000
0110
0000
0000
1000
0000
1000
0001
0000
0000
,
0010
0000
0000
0100
0000
0010
0001
0100
0001
0100
0010
0100
,
0001
1000
0001
0100
0000
0000
0010
0000
0000
1000
0000
0000
,
0010
0000
0010
0200
0000
0000
0301
1000
0001
1000
0000
0000
,
2020
0000
0000
0030
0000
0000
3100
0010
0001
0200
0000
0000
,
0310
1000
0001
0020
0000
0000
0130
0000
1000
0100
0000
1000
,
0001
0000
1000
0100
0010
0001
0202
0000
0000
0000
0000
0000
,
0000
0000
0303
0000
;
