#VERSION:0.83;
#TITLE:Sabrina;
#SUBTITLE:;
#ARTIST:School;
#TITLETRANSLIT:;
#SUBTITLETRANSLIT:;
#ARTISTTRANSLIT:;
#GENRE:;
#ORIGIN:;
#CREDIT:;
#BANNER:Sabrina.png;
#BACKGROUND:Sabrina-bg.png;
#PREVIEWVID:;
#JACKET:;
#CDIMAGE:;
#DISCIMAGE:;
#LYRICSPATH:;
#CDTITLE:;
#MUSIC:Sabrina.mp3;
#OFFSET:-1.705800;
#SAMPLESTART:49.903000;
#SAMPLELENGTH:15.000000;
#SELECTABLE:YES;
#BPMS:0.000=130.000;
#STOPS:164.000=0.923;
#DELAYS:;
#WARPS:;
#TIMESIGNATURES:0.000=4=4;
#TICKCOUNTS:0.000=4;
#COMBOS:0.000=1;
#SPEEDS:0.000=1.000=0.000=0;
#SCROLLS:0.000=1.000;
#FAKES:;
#LABELS:0.000=Song Start;
#BGCHANGES:;
#KEYSOUNDS:;
#ATTACKS:
;

//---------------dance-single - ----------------
#NOTEDATA:;
#CHARTNAME:;
#STEPSTYPE:dance-single;
#DESCRIPTION:;
#CHARTSTYLE:;
#DIFFICULTY:Hard;
#METER:11;
#RADARVALUES:0.432746,0.453134,0.249661,0.274627,0.054093,364.000000,334.000000,30.000000,33.000000,0.000000,0.000000,0.000000,0.000000,0.000000,0.432746,0.453134,0.249661,0.274627,0.054093,364.000000,334.000000,30.000000,33.000000,0.000000,0.000000,0.000000,0.000000,0.000000;
#CREDIT:;
#NOTES:
0000
0000
0000
0000
,
0000
0000
0000
0000
,
0200
0000
0320
0000
0130
1000
0001
0000
,
0100
0001
0100
1000
0010
0000
0101
0000
,
0020
0000
0032
0000
1003
0010
0100
0000
,
0001
0010
0100
1000
0100
0000
0110
0000
,
2000
0000
3002
0000
0013
0100
0001
0000
,
1000
0001
0100
0010
1000
0100
1100
0000
,
0200
0000
2300
0000
3010
0001
0100
0010
,
2002
3003
0110
1001
,
0010
0000
0100
1000
0010
1000
0001
0000
,
1000
0000
0100
0000
0010
0000
0000
0000
0100
0000
0000
0010
0000
0000
0001
0000
,
0010
0000
1000
0100
0001
0100
0001
0000
,
0200
0000
0000
1000
0300
0000
1000
0000
0020
0000
0000
0001
0030
0000
0001
0000
,
0100
0000
0010
0000
0100
0000
0000
0000
1000
0000
0000
0001
0000
0000
1000
0000
,
1000
0010
0100
0010
0001
0100
1000
0000
,
0001
0001
0100
0000
0010
0010
1000
0000
,
0200
0000
0000
0001
0300
0000
0010
0000
1000
0000
0010
0000
0110
0000
0000
0000
,
0001
1000
1000
0000
0010
0001
0010
0100
,
1000
0000
0100
0010
1000
0100
1000
0000
,
0010
0100
0100
0010
0001
1000
0010
0000
,
0001
0000
0000
1000
0000
0000
0001
0000
0100
0000
0001
0000
0011
0000
0000
0000
,
0100
1000
0100
0001
0010
0001
0001
0100
,
1000
0000
1000
0010
0000
0010
0100
0000
,
0010
0000
0000
0100
0000
0000
1000
0000
0100
0000
0000
0010
0000
0000
0001
0000
,
0100
1000
0100
0010
1001
0000
0110
0000
,
1002
0000
0013
0000
1000
0100
0010
2000
,
0000
0001
3001
0100
0010
0100
0001
0000
,
0100
0000
1000
0100
0100
0010
1000
0001
,
0010
0100
1000
0000
1100
0000
0101
0000
,
0021
0000
1030
0000
0100
0001
0010
0002
,
0000
0100
0103
1000
0010
1000
0001
0000
,
0010
0000
0001
0100
1000
0100
1000
0000
,
0010
0010
0100
0010
0002
0000
0023
0000
,
0130
0000
1100
0000
1000
0001
0100
0000
,
0010
0000
0001
0000
1000
0000
1000
0010
,
0010
0000
1010
0000
0100
0001
0010
0000
,
1000
1000
1001
0000
0100
0100
0110
0000
,
0200
0001
0010
0010
,
2300
0000
0001
0000
0010
0100
0100
0000
,
3001
0000
0011
0000
0100
1000
0100
0000
,
1001
0100
0101
0000
0002
0000
0100
0000
,
0103
1000
0010
0000
0100
1000
0001
1000
,
0010
0100
1000
0000
0200
0000
0001
0000
,
0301
0010
1000
0000
0010
0001
0100
0000
,
1000
0000
1001
0000
0000
0110
0000
0000
0021
0000
0000
0000
1000
0000
0000
0000
,
0100
0100
0031
0000
0100
1000
0100
0001
,
0010
0001
0100
0000
1000
1000
0001
0001
,
0010
0100
1000
0100
0010
0010
0100
0100
,
0001
0010
1100
0000
0202
0000
0000
0000
,
0000
0300
2000
0000
,
0000
0000
0000
0000
3003
0000
0000
0000
0001
0000
0100
0000
0010
0000
0100
2000
,
0000
0000
0001
0000
3001
0010
0100
0001
,
1000
0000
0000
0000
0011
0000
0000
0000
0100
0000
0010
0000
0100
0000
1000
0020
,
0000
0000
0100
0000
0130
1000
0001
0010
,
0100
0000
0001
0000
1001
0000
0000
0000
1000
0000
0001
0000
0001
0000
1000
0200
,
0000
0000
0010
0000
0310
0001
1000
0100
,
0100
0000
0000
0000
1100
0000
0000
0000
0010
0000
1000
0000
0010
0000
0100
0002
,
0000
0010
0013
1000
0100
1000
0001
0010
,
0100
0001
0001
0220
0000
0000
0000
0000
,
0000
0000
0330
0000
;

//---------------dance-single - ----------------
#NOTEDATA:;
#CHARTNAME:;
#STEPSTYPE:dance-single;
#DESCRIPTION:;
#CHARTSTYLE:;
#DIFFICULTY:Medium;
#METER:7;
#RADARVALUES:0.293649,0.300841,0.108186,0.174763,0.004161,247.000000,234.000000,13.000000,21.000000,0.000000,0.000000,0.000000,0.000000,0.000000,0.293649,0.300841,0.108186,0.174763,0.004161,247.000000,234.000000,13.000000,21.000000,0.000000,0.000000,0.000000,0.000000,0.000000;
#CREDIT:;
#NOTES:
0000
0000
0000
0000
,
0000
0000
0000
0000
,
0010
1000
0010
0010
,
0100
0000
0001
0100
0001
0000
0001
0000
,
0100
1000
0100
0100
,
0010
0000
1000
0010
1000
0000
1000
0000
,
0001
0100
0001
0001
,
0010
0000
0100
0010
0100
0000
0100
0000
,
1000
0010
1000
1000
,
2002
0000
0000
3003
,
0010
0000
0001
0000
1000
0010
1000
0000
,
0100
0100
0001
0100
,
0010
0000
0001
0000
0010
0100
0010
0000
,
2000
0100
0001
3001
,
0100
0000
0010
0000
0100
1000
0100
0000
,
0010
0010
0001
0010
,
0100
0000
0001
0000
0100
1000
0100
0000
,
0020
0100
1000
1030
,
0001
0100
1000
0100
,
0001
0000
0001
0000
1000
0100
1000
0000
,
0010
1000
0100
1000
,
0010
0011
0100
1100
,
0001
0010
0100
0010
,
1000
0000
0100
0000
0010
0001
0010
0000
,
2000
3100
0200
0301
,
0002
0010
0013
1001
,
0220
0330
1000
0010
,
0001
0000
0001
0000
0100
0010
0100
0000
,
0001
0010
0001
0100
,
1000
0010
1000
0000
0100
0000
0010
0000
,
2002
3003
0100
1000
,
0100
0000
0100
0000
0010
1000
0010
0000
,
0100
0001
0010
0100
,
0001
0000
1000
0001
1000
0000
0010
0000
,
0200
0000
1000
1000
,
0301
0010
1000
0010
,
0002
0000
0010
0010
,
0103
0110
1000
1001
,
0020
0000
1000
0001
,
0031
1000
0010
0100
,
2000
0001
0100
0100
,
3010
1001
0100
0000
,
0010
0001
1000
0000
,
0010
1000
0010
0000
0100
0000
1000
0000
,
1000
0001
1000
0010
,
0000
0000
0100
0000
0000
0010
0000
0000
0220
0000
0000
0000
0330
0000
0000
0000
,
0010
0010
1000
0100
,
1000
0001
1000
0000
0010
0000
0010
0000
,
1000
0000
0010
0000
1000
0000
0001
1000
,
0001
0100
2002
0000
,
0000
0000
3003
0000
,
0000
0000
0010
0010
,
0001
0100
0001
0000
0100
0000
0010
0000
,
0001
0010
0100
0100
,
1000
0001
1000
0000
0100
0000
1000
0000
,
0100
0110
1000
1000
,
0010
0001
0010
0000
1000
0000
0010
0000
,
1000
0001
0100
0100
,
0001
0010
0001
0000
0100
0000
1000
0100
,
1000
0000
0010
0220
0000
0000
0000
0000
,
0000
0330
0000
0000
;

//---------------dance-single - ----------------
#NOTEDATA:;
#CHARTNAME:;
#STEPSTYPE:dance-single;
#DESCRIPTION:;
#CHARTSTYLE:;
#DIFFICULTY:Easy;
#METER:4;
#RADARVALUES:0.172385,0.197648,0.049932,0.074898,0.000000,145.000000,139.000000,6.000000,9.000000,0.000000,0.000000,0.000000,0.000000,0.000000,0.172385,0.197648,0.049932,0.074898,0.000000,145.000000,139.000000,6.000000,9.000000,0.000000,0.000000,0.000000,0.000000,0.000000;
#CREDIT:;
#NOTES:
0000
0000
0000
0000
,
0000
0000
0000
0000
,
0001
0001
1000
0000
,
0010
0000
0100
0000
,
0010
0010
0001
0000
,
1000
0000
0100
0000
,
1000
1000
0010
0000
,
0100
0000
0001
0000
,
0100
0100
0010
0000
,
1001
0000
0000
0000
,
1000
0001
1000
0000
,
0010
0000
1000
0000
,
0100
0001
0100
0001
,
1000
0000
0000
0000
,
0001
0010
0001
0000
,
0100
0000
0010
0000
,
1000
0001
0100
0001
,
1000
0000
0000
0000
,
0010
0010
0100
0010
,
2000
0000
3000
0000
,
1000
1000
0100
1000
,
0002
0000
0003
0000
,
0001
0001
0100
0001
,
0020
0000
0030
0000
,
1000
0000
0001
0000
,
0100
0000
0110
0000
,
2000
3000
1000
0000
,
0010
0001
0010
0000
,
0100
1000
0010
1000
,
0100
0000
0001
0000
,
0020
0030
0010
0000
,
0100
1000
0100
0000
,
0001
0010
0100
1000
,
0100
0000
1001
0000
,
0010
0000
0000
0100
,
0100
0000
1000
0000
,
0001
0000
0000
0010
,
0010
0100
0001
0000
,
0100
0000
1000
0000
,
0010
0000
0010
0001
,
0010
0000
0100
0000
,
0110
0000
2000
0000
,
3000
0001
0010
0010
,
0001
0000
0020
0000
,
0030
0100
1000
1000
,
0100
0000
2000
0000
,
3000
0010
0100
0100
,
0010
0000
0200
0000
,
0300
1000
0010
0010
,
1000
0000
0110
0000
,
0000
0000
0000
0000
,
0000
0000
0010
0010
,
0001
0000
0100
0000
,
0010
0000
0100
0100
,
1000
0000
0001
0000
,
1000
0000
0001
0001
,
0010
0000
1000
0000
,
0100
0000
1000
1000
,
0100
0000
0010
0000
,
0100
0000
0000
1001
0000
0000
0000
0000
;

//---------------dance-single - ----------------
#NOTEDATA:;
#CHARTNAME:;
#STEPSTYPE:dance-single;
#DESCRIPTION:;
#CHARTSTYLE:;
#DIFFICULTY:Beginner;
#METER:1;
#RADARVALUES:0.090353,0.146052,0.033288,0.066576,0.000000,76.000000,72.000000,4.000000,8.000000,0.000000,0.000000,0.000000,0.000000,0.000000,0.090353,0.146052,0.033288,0.066576,0.000000,76.000000,72.000000,4.000000,8.000000,0.000000,0.000000,0.000000,0.000000,0.000000;
#CREDIT:;
#NOTES:
// measure 0
0000
0000
0000
0000
,  // measure 1
0000
0000
0000
0000
,  // measure 2
0010
0000
0010
0000
,  // measure 3
0010
0000
0000
0000
,  // measure 4
0100
0000
0100
0000
,  // measure 5
0100
0000
0000
0000
,  // measure 6
0001
0000
0001
0000
,  // measure 7
0001
0000
0000
0000
,  // measure 8
1000
0000
1000
0000
,  // measure 9
1000
0000
0000
0000
,  // measure 10
0010
0000
0000
0000
,  // measure 11
0100
0000
0000
0000
,  // measure 12
0010
0000
0000
0000
,  // measure 13
0000
0000
0000
0000
,  // measure 14
1000
0000
0000
0000
,  // measure 15
0001
0000
0000
0000
,  // measure 16
1000
0000
0000
0000
,  // measure 17
0000
0000
0000
0000
,  // measure 18
0100
0000
0000
0000
,  // measure 19
0200
0000
0300
0000
,  // measure 20
0001
0000
0000
0000
,  // measure 21
0002
0000
0003
0000
,  // measure 22
1000
0000
0000
0000
,  // measure 23
2000
0000
3000
0000
,  // measure 24
0010
0000
0000
0000
,  // measure 25
0020
0000
0030
0000
,  // measure 26
1001
0000
0000
0000
,  // measure 27
0100
0000
0100
0000
,  // measure 28
0001
0000
1000
0000
,  // measure 29
0001
0000
1000
0000
,  // measure 30
0110
0000
0000
0000
,  // measure 31
0001
0000
0001
0000
,  // measure 32
0010
0000
0100
0000
,  // measure 33
0010
0000
0100
0000
,  // measure 34
1001
0000
0000
0000
,  // measure 35
0010
0000
0000
0000
,  // measure 36
1000
0000
0000
0000
,  // measure 37
0001
0000
0000
0000
,  // measure 38
0010
0000
0010
0000
,  // measure 39
0100
0000
0100
0000
,  // measure 40
1000
0000
1000
0000
,  // measure 41
0001
0000
0200
0000
,  // measure 42
0300
0000
0100
0000
,  // measure 43
0000
0000
0020
0000
,  // measure 44
0030
0000
0010
0000
,  // measure 45
0000
0000
2000
0000
,  // measure 46
3000
0000
1000
0000
,  // measure 47
0000
0000
0002
0000
,  // measure 48
0003
0000
0001
0000
,  // measure 49
0000
0000
0110
0000
,  // measure 50
0000
0000
0000
0000
,  // measure 51
0000
0000
1000
0000
,  // measure 52
1000
0000
1000
0000
,  // measure 53
0000
0000
0001
0000
,  // measure 54
0001
0000
0001
0000
,  // measure 55
0000
0000
0100
0000
,  // measure 56
0100
0000
0100
0000
,  // measure 57
0000
0000
0010
0000
,  // measure 58
0010
0000
0010
0000
;
