#TITLE:SPARKLE;
#SUBTITLE:;
#ARTIST:Sota Fujimori 2nd Season;
#TITLETRANSLIT:;
#SUBTITLETRANSLIT:;
#ARTISTTRANSLIT:;
#GENRE:;
#CREDIT:;
#BANNER:SPARKLE.png;
#BACKGROUND:SPARKLE-bg.png;
#LYRICSPATH:;
#CDTITLE:;
#MUSIC:SPARKLE.ogg;
#OFFSET:-0.561342;
#SAMPLESTART:0.561000;
#SAMPLELENGTH:10.549451;
#SELECTABLE:YES;
#BPMS:0.000000=182.000000
,128.000000=91.000000
,136.000000=182.000000
,168.000000=91.000000
,200.000000=182.000000
;
#STOPS:
;
#BGCHANGES:;
#KEYSOUNDS:;
#ATTACKS:;

//---------------dance-single - ----------------
#NOTES:
     dance-single:
     :
     Hard:
     14:
     0.705757,0.860166,0.387837,0.350900,0.387837,535.000000,493.000000,42.000000,38.000000,0.000000,0.000000,0.705757,0.860166,0.387837,0.350900,0.387837,535.000000,493.000000,42.000000,38.000000,0.000000,0.000000:
// measure 0
1001
0000
0010
0100
0010
1000
0100
2000
,  // measure 1
0000
0000
3001
0000
0010
0001
0010
0000
,  // measure 2
0100
1000
0100
0001
0010
0001
0000
0110
,  // measure 3
0000
0001
0001
0000
0010
1000
0010
0000
,  // measure 4
0100
0000
0001
1000
0100
1000
0000
0200
,  // measure 5
0000
0010
0310
0000
0010
0001
0010
0000
,  // measure 6
1100
0000
1000
0100
0001
0010
0000
2000
,  // measure 7
0000
0100
0000
3100
0000
0001
1001
0000
,  // measure 8
0010
0000
0100
1000
0100
0001
0010
0002
,  // measure 9
0000
0000
1003
0000
0100
1000
0010
0100
,  // measure 10
0000
0000
0101
0000
0010
0001
0010
1000
,  // measure 11
0000
1000
0100
0000
0001
1000
0001
0000
,  // measure 12
1000
1000
0100
0010
0100
0001
0000
0020
,  // measure 13
0000
0100
0130
0000
0100
1000
0100
0001
,  // measure 14
0000
0000
0001
0100
0010
1000
0000
1001
,  // measure 15
0000
0000
0100
0000
0010
0000
0000
0000
0001
1000
0001
0100
0010
0000
0000
0000
,  // measure 16
0000
0010
1000
0001
1001
0000
0000
0001
,  // measure 17
0010
1000
0100
0101
0000
1100
0000
0110
,  // measure 18
0000
0001
0100
0010
0010
0000
1000
0001
,  // measure 19
1000
0000
0010
0100
0000
0011
0000
0101
,  // measure 20
0000
1000
0100
0010
1100
1000
0100
0001
,  // measure 21
0001
0010
1000
1010
0000
0110
0000
1001
,  // measure 22
0000
0100
0010
0001
0010
0000
1000
0001
,  // measure 23
0020
0000
0130
0200
0000
0001
0301
0000
,  // measure 24
1000
0000
0010
0000
1000
0010
1000
0000
0000
0000
0001
0000
0000
0000
0100
0000
,  // measure 25
0001
0000
0000
1000
0000
0000
0010
0000
0000
0000
0100
0000
0001
0000
0010
0000
,  // measure 26
0100
0000
0001
0000
0010
0100
0010
0000
0000
0000
1000
0000
0000
0000
0100
0000
,  // measure 27
0010
0000
0000
0010
0000
0000
0200
0000
0000
0000
1000
0000
1300
0000
0010
0000
,  // measure 28
0100
0000
1000
0000
0010
0001
0010
0000
0000
0000
0001
0000
0000
0000
1000
0000
,  // measure 29
0001
0000
0000
0100
0000
0000
0010
0000
0000
0000
0100
0000
0001
0000
0100
0000
,  // measure 30
0010
0000
0010
0000
0100
1000
0100
0000
0000
0000
1000
0000
0000
0000
1000
0000
,  // measure 31
0011
0000
0000
0110
0000
0000
2020
0000
0000
0000
0000
0000
3030
0000
0000
0000
,  // measure 32
0020
0000
1000
0100
1030
0100
0001
0010
0000
0100
0001
0100
0010
1000
0100
0002
,  // measure 33
0000
0010
0013
0100
0010
1000
0100
1000
0000
0100
0001
0100
0220
0000
0330
0000
,  // measure 34
0001
0000
0010
0000
0001
0000
0100
0000
0010
0000
0001
0000
1000
0100
1000
0000
,  // measure 35
0100
0000
0001
0000
0100
0000
1000
0000
0001
0000
1000
0000
0100
0001
0100
0000
,  // measure 36
0010
0000
1000
0000
0010
0000
1000
0000
0001
0000
0100
0000
0010
1000
0010
0000
,  // measure 37
0001
0000
0001
0000
0100
0000
0010
0000
0100
0000
1000
0000
1000
0010
1000
0000
,  // measure 38
0100
0000
0001
0000
0100
0000
0010
0001
0010
0000
0001
0000
1000
0010
1000
0000
,  // measure 39
0010
0000
0001
0000
0100
0000
0100
0001
0100
0000
1000
0000
0010
0100
0010
0000
,  // measure 40
1000
0000
0100
0000
1000
0000
0001
1000
0001
0000
0100
0000
0001
0100
0010
0000
,  // measure 41
1000
0000
0010
0000
1000
0000
0001
0000
1000
0010
0100
0010
0001
0000
0000
0000
,  // measure 42
2000
0000
0000
0000
3002
0000
0000
0000
0013
0000
1000
0000
0010
0000
0100
0000
1000
0000
1000
0000
0010
0100
0010
0000
0101
0000
0000
0000
0011
0000
0000
0000
,  // measure 43
0200
0000
0000
0000
1300
0010
1000
0001
0010
0100
0010
0001
1000
0000
1000
0000
,  // measure 44
0010
0000
0000
0011
0000
0001
0000
2001
0000
0010
3010
0000
0100
0001
0100
0000
,  // measure 45
0002
0000
0000
0000
0000
0000
1003
0000
0000
0100
0000
0000
1000
0000
0000
0010
0000
0000
0100
0000
0000
1000
0000
0000
0000
0000
0000
0010
0000
0000
0100
0000
0000
0010
0000
0000
1000
0000
0100
0000
0010
0000
0001
0000
0000
0000
0000
0000
,  // measure 46
0022
0000
0000
0000
0033
0100
0000
2200
0000
0000
3300
0000
0110
0001
0100
0020
,  // measure 47
0000
0000
1000
0000
1030
0001
0000
2020
0000
0000
3030
0000
1001
0100
0010
0100
,  // measure 48
0001
0000
1000
0010
1000
0100
0000
0220
0000
0000
0330
0000
1000
0001
0010
0100
,  // measure 49
0000
0000
0000
0000
0010
1000
0010
0000
0100
0000
0001
0000
0000
0000
2200
0000
0000
0000
0000
0000
3300
0000
0000
0000
0010
0001
0010
0001
0010
0000
0000
0000
,  // measure 50
0100
0000
1000
0000
0100
0000
0002
0000
0000
0000
0003
0000
0000
0000
0100
0010
,  // measure 51
0100
0010
1000
0020
0000
0200
0000
0330
,  // measure 52
0001
0010
1000
0010
0000
0110
0000
0000
,  // measure 53
0001
0001
1000
0010
0000
1010
0000
0000
,  // measure 54
0010
0000
1000
0000
0100
0000
2000
0000
0000
0000
3000
0000
0000
0000
0001
0010
,  // measure 55
0001
0010
0100
0002
0000
0010
0003
1000
,  // measure 56
0010
1000
0100
0001
0000
0011
0000
0000
,  // measure 57
0100
0100
1000
0100
0000
1001
0000
0000
,  // measure 58
0010
1000
0100
0010
0100
0001
1000
0010
,  // measure 59
1000
0001
0010
1000
0001
0010
0100
0100
,  // measure 60
0001
0010
1000
0010
0001
1000
0100
1000
,  // measure 61
0010
0100
0001
1000
0010
0010
0001
0001
,  // measure 62
1000
0000
0100
0000
0010
0000
0001
0000
0010
0000
0100
0000
1000
0010
1000
0000
,  // measure 63
0010
0000
0100
0000
0010
0000
0100
0000
1000
0000
0100
0000
0010
1000
0010
0000
,  // measure 64
0001
0000
0010
0000
0100
0000
0001
0000
1000
0000
1000
0000
0010
0001
0010
0000
,  // measure 65
0100
0000
0001
0000
1000
0000
0001
0000
1000
0000
1000
0010
0100
0010
0100
0000
,  // measure 66
1100
0000
0000
0000
0101
0000
0000
0000
0000
0010
1000
0000
0000
0000
1010
0000
,  // measure 67
0000
1001
0000
0012
0000
1000
1003
0100
,  // measure 68
0220
0000
0000
0000
0000
0000
0000
0330
,  // measure 69
1001
0000
0000
0000
;

//---------------dance-single - ----------------
#NOTES:
     dance-single:
     :
     Medium:
     10:
     0.477540,0.637160,0.138513,0.295495,0.018468,362.000000,347.000000,15.000000,32.000000,0.000000,0.000000,0.477540,0.637160,0.138513,0.295495,0.018468,362.000000,347.000000,15.000000,32.000000,0.000000,0.000000:
0010
0000
0001
0000
0010
0000
0001
1000
,
0000
0000
1000
0000
0100
0010
0100
0000
,
1000
0000
0100
0000
0010
1000
0000
0200
,
0000
0000
0301
0000
0010
0100
1000
0000
,
0000
0000
1100
0000
0010
0100
0000
0010
,
0000
0000
0010
0000
0001
0100
0001
0000
,
0100
0000
0010
0000
1000
0100
0000
0002
,
0000
0003
0010
0110
,
0001
0000
1000
0000
0010
0000
0100
0010
,
0000
0000
1000
0000
0001
0000
0100
1000
,
0100
0000
0010
0000
0010
0001
0000
0100
,
0000
0001
0100
0000
0001
1000
0001
0000
,
0100
1000
0010
0100
,
0010
1000
0100
0000
0100
0001
0010
0000
,
1000
0000
0001
0000
1000
0001
1000
0100
,
0000
0010
0100
0000
0100
0000
2002
0000
,
3003
0000
0100
0010
0100
0000
0000
0000
,
1000
0000
0001
0100
0000
0010
0000
1000
,
0000
1000
0100
0000
0110
0000
0001
0100
,
0001
0000
0100
0001
0000
0010
0100
0000
,
1000
0100
0101
0001
,
0010
0000
1000
0001
0000
0100
0000
1000
,
0000
0010
1000
0000
0010
0000
0010
0100
,
0002
0000
0000
0200
0000
0000
0303
0000
,
1000
0000
1000
0001
0000
0010
0001
0000
,
0010
0000
1000
0000
0010
0100
0010
0000
,
1000
0000
0100
0001
0000
0010
0001
0000
,
0100
0000
0001
0000
0100
1000
0100
0000
,
0010
1000
1000
0000
0001
0000
0010
0100
,
0001
0000
0100
0000
0001
0010
0100
0000
,
1000
0100
0001
0000
0100
0010
1000
0000
,
1000
0000
0000
0020
0000
0000
2000
0000
0000
0000
0000
0000
3030
0000
0000
0000
,
0220
0330
1000
0010
1000
0100
0001
0001
,
0010
0000
0100
0000
1000
0000
0100
0000
0001
0000
1000
0000
0100
0010
0100
0000
,
0002
0100
0010
0013
,
0200
0001
1000
1300
,
0020
0001
1000
0130
,
2000
0000
0100
0000
0010
0010
3010
0000
,
0100
0000
1000
0100
0000
1000
0001
0000
,
0010
0000
0100
1000
0000
0100
0010
0000
,
0001
0000
0010
0001
0000
0010
1000
0000
,
0010
0000
0100
0010
1000
0001
1000
0000
,
0200
0000
0310
1000
0001
0001
0020
2030
,
3100
0000
1010
0001
0010
0100
0010
0001
,
0020
0000
1030
0100
1000
0001
2000
3000
,
0010
0001
0100
0010
0100
1000
2002
3003
,
0010
0000
1000
0000
0100
0010
0100
0000
,
0001
1000
0100
1000
0001
0010
0110
0000
,
1000
0000
0100
0001
0100
0000
1000
0000
1000
0000
0010
0000
0101
0000
0100
0000
,
0010
0000
0001
0000
0001
0000
1000
0200
0000
0000
1300
0000
2020
0000
3030
0000
,
0001
0000
0100
0000
0010
0000
1000
0010
,
0100
0000
1000
0000
0001
0000
0010
0100
,
0001
1000
0010
0100
,
0001
0010
0100
1000
0000
0000
1001
0000
,
0001
0000
0010
0000
0001
0010
0100
1000
,
0100
0000
0001
0000
0010
1000
0001
1000
,
0100
0000
0001
0100
0010
0000
0100
1000
,
0001
1000
0010
0000
0010
0000
0110
0000
,
1000
0000
0001
0000
1000
0000
0100
0010
,
0001
0000
0010
0000
0001
0000
1000
0010
,
0100
0000
0001
0000
0100
0000
1000
0010
,
0001
0000
0010
0000
1000
0001
1000
0000
,
0010
0000
0100
1000
0000
0001
1000
0000
,
0001
0000
0010
1000
0000
0100
0001
0000
,
0100
0000
0010
0100
0000
0001
0100
0000
,
0010
0100
0010
1000
0001
0000
0011
0000
,
0200
0000
2300
0000
3000
0002
0000
0023
,
0000
0032
0000
0203
0000
0001
0301
0000
,
2002
0000
0000
0000
,
3003
0000
0000
0000
;

//---------------dance-single - ----------------
#NOTES:
     dance-single:
     :
     Easy:
     5:
     0.307367,0.382296,0.073874,0.212387,0.000000,233.000000,225.000000,8.000000,23.000000,0.000000,0.000000,0.307367,0.382296,0.073874,0.212387,0.000000,233.000000,225.000000,8.000000,23.000000,0.000000,0.000000:
1000
0000
0010
0001
,
0000
1000
0001
0000
,
0010
0100
0001
0010
,
0000
1000
1000
0000
,
0200
0300
0010
1000
,
0010
0000
1000
0100
,
0001
0010
1000
0000
,
0010
0100
0100
0000
,
1001
0000
0010
0001
,
1000
0000
0001
0100
,
0001
0000
0010
1000
,
0010
0100
0010
0000
,
0002
0003
1000
0100
,
0010
0000
0001
1000
,
0010
0001
1000
0000
,
0010
0010
0200
0300
,
0000
0001
0010
0000
,
0001
0100
1000
0001
,
0000
0010
1000
0000
,
0001
1000
0001
0100
,
0000
0010
1000
0000
,
0010
0100
0001
1000
,
0000
0100
0001
0000
,
0010
0001
0100
0000
,
0020
0030
0020
0030
,
1000
0010
2000
3000
,
0002
0003
0002
0003
,
0010
0010
0200
0300
,
0100
0010
0200
0300
,
0010
0001
0020
0030
,
1000
0001
1000
0010
,
0002
0003
2002
3003
,
0100
0010
0100
1000
,
0010
0001
0100
0110
,
1000
0010
1000
0000
,
0010
0100
0010
0000
,
0001
0010
0001
0000
,
0100
0001
0100
0000
,
1000
0010
0100
0001
,
0100
0010
0100
0010
,
0001
0001
1000
1000
,
0100
0010
1000
0000
,
0020
0000
0230
0000
0301
0001
0001
0000
,
0020
0000
0032
0000
0103
1000
0100
0000
,
0020
0000
0230
0000
0301
0010
0001
0000
,
0001
0000
0010
0100
0010
0000
1001
0000
,
0200
0000
0300
0010
0001
0000
0001
0000
,
1000
0000
0010
1000
0010
0100
0001
0000
,
0100
0010
1000
0001
,
0010
0000
0001
1000
0010
1000
0100
0000
,
0100
0010
1000
0000
,
1000
0001
1000
0000
,
0100
1000
0001
0000
,
0010
1000
1000
0000
,
0001
0010
1000
0000
,
0010
0100
0001
0000
,
0010
0100
0010
0100
,
0100
0000
1001
0000
,
1000
0001
0010
0000
,
0100
0010
1000
0000
,
0010
1000
0001
0000
,
1000
0001
0010
0000
,
0100
0001
0100
0100
,
0001
0010
0001
0001
,
1000
0010
1000
0100
,
0010
0100
0100
0000
,
2002
3003
0000
0010
,
1000
1000
0100
0000
,
1001
0000
0000
0000
,
0110
0000
0000
0000
;

//---------------dance-single - ----------------
#NOTES:
     dance-single:
     :
     Beginner:
     4:
     0.213706,0.313963,0.055405,0.083108,0.000000,162.000000,156.000000,6.000000,9.000000,0.000000,0.000000,0.213706,0.313963,0.055405,0.083108,0.000000,162.000000,156.000000,6.000000,9.000000,0.000000,0.000000:
0100
0000
0000
0000
,
0001
0000
0001
0000
,
0010
0000
0000
0000
,
0100
0000
0100
0000
,
1000
0000
0000
0000
,
0010
0000
0010
0000
,
0001
0000
0000
0000
,
1000
0000
1000
0000
,
1001
0000
0000
0000
,
0001
0000
0010
0000
,
0001
0000
0000
0000
,
1000
0000
0100
0000
,
1000
0000
0000
0000
,
0010
0000
0100
0000
,
0010
0000
0000
0000
,
0100
0000
0110
0000
,
0000
0010
0010
0000
,
0100
0100
0000
1000
,
0000
0001
0001
0000
,
0100
0000
0001
0000
,
0000
1000
1000
0000
,
0010
0000
0001
0000
,
0000
0100
0100
0000
,
0010
0000
0100
0000
,
1000
0000
0001
0000
,
1000
0000
1000
0000
,
0100
0000
0001
0000
,
0100
0000
0100
0000
,
0010
0000
0001
0000
,
0010
0000
0010
0000
,
1000
0000
0010
0000
,
1000
1000
1000
0000
,
0200
0300
0002
0003
,
0020
0030
2000
3000
,
0100
0000
0001
0000
,
0100
0000
0100
0000
,
0001
0000
1000
0000
,
0001
0000
0001
0000
,
0100
0100
0100
0000
,
0001
0001
0001
0000
,
0010
0010
0010
0000
,
1000
1000
1000
0000
,
0200
0300
0010
0010
,
2000
3000
0001
0001
,
0020
0030
0100
0100
,
0002
0003
0100
0110
,
0010
0000
0000
0000
1000
0000
1000
1000
,
1000
0000
0000
0000
0001
0000
0001
0001
,
0001
0000
0000
0000
0100
0000
0100
0100
,
0100
0000
0001
1001
,
0010
0000
0010
0000
,
0100
0100
0100
0000
,
1000
0000
1000
0000
,
0001
0001
0001
0000
,
0100
0000
0100
0000
,
1000
1000
1000
0000
,
0010
0000
0010
0000
,
0001
0001
0001
0000
,
0100
0000
0010
0010
,
0010
0000
1000
1000
,
1000
0000
0001
0001
,
0001
0000
0110
0000
,
0100
0100
0100
0000
,
0001
0001
0001
0000
,
0010
0010
0010
0000
,
1000
1000
1000
0000
,
0200
0000
0300
0000
,
0010
0000
0010
0000
,
1001
0000
0000
0000
;
