#VERSION:0.83;
#TITLE:Rush!!;
#SUBTITLE:;
#ARTIST:kors k feat. Sunao Yoshikawa;
#TITLETRANSLIT:;
#SUBTITLETRANSLIT:;
#ARTISTTRANSLIT:;
#GENRE:;
#ORIGIN:;
#CREDIT:;
#BANNER:Rush!!.png;
#BACKGROUND:Rush!!-bg.png;
#PREVIEWVID:;
#JACKET:Rush!!-jacket.png;
#CDIMAGE:;
#DISCIMAGE:;
#LYRICSPATH:;
#CDTITLE:;
#MUSIC:Rush!!.ogg;
#OFFSET:-0.364775;
#SAMPLESTART:50.000000;
#SAMPLELENGTH:15.000000;
#SELECTABLE:YES;
#BPMS:0.000=210.000;
#STOPS:;
#DELAYS:;
#WARPS:;
#TIMESIGNATURES:0.000=4=4;
#TICKCOUNTS:0.000=4;
#COMBOS:0.000=1;
#SPEEDS:0.000=1.000=0.000=0;
#SCROLLS:0.000=1.000;
#FAKES:;
#LABELS:0.000=Song Start;
#BGCHANGES:;
#KEYSOUNDS:;
#ATTACKS:
;

//---------------dance-single - ----------------
#NOTEDATA:;
#CHARTNAME:;
#STEPSTYPE:dance-single;
#DESCRIPTION:;
#CHARTSTYLE:;
#DIFFICULTY:Hard;
#METER:13;
#RADARVALUES:0.662221,0.647233,0.261031,0.198023,0.009001,515.000000,486.000000,29.000000,22.000000,0.000000,0.000000,0.000000,0.000000,0.000000,0.662221,0.647233,0.261031,0.198023,0.009001,515.000000,486.000000,29.000000,22.000000,0.000000,0.000000,0.000000,0.000000,0.000000;
#CREDIT:;
#NOTES:
0000
0000
0000
0000
,
0000
0000
0000
0000
,
0000
0000
0000
0000
,
0000
0000
0000
0000
,
1000
0001
1000
0100
0000
0000
0010
1000
,
0010
0001
0000
0000
1000
0000
1001
0000
,
0010
0100
0010
0001
0000
0100
0000
0101
,
0000
1000
0010
0100
0001
0000
0110
0000
,
0200
0000
0301
0000
0010
0000
1000
0002
,
0000
0000
1000
0000
1003
0000
0010
0200
,
0000
0000
0001
0000
0310
0000
0001
0010
,
0000
0100
1000
0100
0010
0001
1000
0002
,
0000
0000
1003
0000
0100
0000
0010
2000
,
0000
0000
0001
0000
3010
0000
0010
0200
,
0000
0000
0010
0000
0301
0000
1000
0001
,
0000
0011
0000
0101
0000
1002
0000
0000
,
0013
0000
1000
0000
0010
0000
0001
0010
,
0000
1000
0000
0001
0000
0010
0100
0010
,
0000
0100
1000
0001
0000
0001
0000
0110
,
0000
0100
0001
0010
0000
1000
0000
1001
,
0000
0000
0010
0000
0100
0000
0001
1000
,
0000
0001
1000
0010
0000
0100
1000
0000
,
0001
0100
0001
0010
0000
0001
0010
0100
,
0000
0010
0100
0001
1000
0010
0001
0000
,
0101
0000
0001
0000
0100
1000
0001
1000
,
0000
0010
0001
0000
0100
0001
0010
0100
,
0000
1000
0100
0000
0001
1000
0001
0010
,
0000
0100
0010
0001
0000
0001
1000
0000
,
0001
0000
0100
0000
0001
0010
0001
1000
,
0000
0100
0001
0000
0100
0001
0100
0010
,
0000
1000
0010
0001
0010
0001
0000
1001
,
0000
0010
0100
1000
0100
0001
0010
0000
,
2000
0001
3010
0010
,
0200
0010
0302
1000
,
0023
0100
1030
1000
,
0200
0001
0302
1000
,
2003
0000
0100
0000
3010
0000
0100
0001
,
0100
0000
0010
1000
0000
0100
0000
0020
,
0000
0000
1000
0000
1030
0000
0001
0100
,
0010
0000
1000
0010
0000
0100
0000
0102
,
0000
0000
0103
0000
0100
0010
1000
0200
,
0000
0000
0001
0000
0301
0010
0001
1000
,
0010
0000
0100
1000
0000
1000
0010
0020
,
0000
0130
0011
0101
,
0100
0000
0010
0000
1000
0000
1000
0001
,
0000
0100
0010
0000
0001
0000
0001
0000
,
0100
0010
1000
0000
0100
1000
0010
1000
,
0000
0001
1000
0000
0001
1000
0001
0000
,
0100
0001
0010
0000
0001
1000
0001
0000
,
1000
0100
1000
0010
0000
0001
0010
0000
,
0100
0000
0100
1000
0000
0010
0000
1000
,
0000
0100
0010
0000
1000
0001
1000
0000
,
0100
0000
0110
0000
0001
0100
0010
0000
,
0001
0000
1001
0000
0001
1000
0010
0000
,
0100
0000
1100
0000
0001
0100
0010
0000
,
0001
0011
0010
1000
,
0100
0010
0001
0000
0100
0010
1000
0000
,
0001
0100
0010
0000
0001
1000
0010
0000
,
0100
0001
0100
0010
0001
0100
0010
1000
,
0000
0001
0010
0000
0010
0100
1000
0000
,
0001
0000
1000
0000
0100
0000
0100
1000
,
0000
0001
1000
0000
0100
0010
0100
0000
,
0001
0000
0101
0000
0010
1000
0100
1000
,
0000
0010
0010
0000
0001
0010
1000
0000
,
0100
0000
0011
0000
0100
0001
1000
0000
,
0010
0100
1000
0100
0000
1000
0001
0000
,
0100
1000
0001
0000
0010
0001
0100
0000
,
0001
0100
1000
0010
0001
0010
0100
0000
,
0100
0000
0010
0100
0010
0100
1000
0000
,
0001
0100
0010
0001
1000
0000
1010
0000
,
0100
0010
0100
0000
0001
0100
0001
0000
,
0100
0001
0010
0100
0010
0000
0011
0000
,
0001
0100
0001
0000
0010
0100
0010
0000
,
0100
1000
0100
0000
1000
0010
1000
0000
,
0001
0100
0001
0100
1000
0010
0100
1000
,
0000
0010
0001
1001
,
0200
0000
0010
0000
,
0001
0000
0000
0000
1300
0001
1000
0010
,
0100
0002
0000
0000
1000
0000
0000
0000
,
0103
1000
0100
0010
0100
0001
0010
1000
,
0020
0000
0100
0000
0100
0000
1030
0001
,
2000
0010
0010
0100
,
0001
0000
0010
0000
3001
0000
0010
0100
,
0010
0000
0000
0001
0000
0000
1000
0000
0100
0000
0000
1000
0000
0000
0010
0000
,
0100
0000
0101
0000
0010
1000
0010
1000
,
0000
0010
0100
0000
0001
0010
0001
1000
,
0000
0100
0010
0000
0010
1000
0010
0001
,
0000
0100
0001
0010
0000
0010
1000
0100
,
1000
0000
1001
0000
0010
1000
0100
1000
,
0000
1000
0010
0000
0001
0010
0100
1000
,
0000
0001
1000
0000
0100
0010
0100
0001
,
0000
1010
0000
0100
1000
0100
0010
0000
,
0001
0100
0001
0010
0000
0000
0100
0010
,
0100
0001
0000
0000
1100
0000
1001
0000
,
0100
0001
0100
0010
0000
1000
0000
1100
,
0000
0100
0001
0100
0010
1000
1000
1001
;

//---------------dance-single - ----------------
#NOTEDATA:;
#CHARTNAME:;
#STEPSTYPE:dance-single;
#DESCRIPTION:;
#CHARTSTYLE:;
#DIFFICULTY:Medium;
#METER:9;
#RADARVALUES:0.420478,0.517786,0.162019,0.567067,0.000000,327.000000,309.000000,18.000000,63.000000,0.000000,0.000000,0.000000,0.000000,0.000000,0.420478,0.517786,0.162019,0.567067,0.000000,327.000000,309.000000,18.000000,63.000000,0.000000,0.000000,0.000000,0.000000,0.000000;
#CREDIT:;
#NOTES:
0000
0000
0000
0000
,
0000
0000
0000
0000
,
0000
0000
0000
0000
,
0000
0000
0000
0000
,
1000
0000
1000
0100
0000
0000
0001
0000
,
0001
1000
0000
0000
1000
0000
0001
0000
,
0010
0000
0010
1000
0000
0010
0000
0002
,
0000
1000
0010
0003
,
0220
0000
0330
0000
0100
0000
0010
2000
,
0000
0000
0000
0000
3010
0000
0010
0200
,
0000
0000
0000
0000
0301
0000
0001
0020
,
0000
1000
1000
0030
,
2002
0000
3003
0000
1000
0000
1000
0002
,
0000
0000
0000
0000
0103
0000
0100
2000
,
0000
0000
0000
0000
3001
0000
0001
0020
,
0000
0032
0000
0203
0000
2300
0000
0000
,
3010
0000
1000
0000
,
0001
0100
1000
0000
,
0100
0010
1000
0010
,
1000
0100
0001
0000
,
0100
0000
0010
0000
1000
0000
0000
1000
,
0000
0010
0010
0000
,
0010
0000
0001
0000
0100
0000
0000
1000
,
0000
0100
0010
0000
,
2020
3030
0100
0010
,
0002
0003
0001
0010
,
0100
0001
1000
0010
,
2000
0000
0200
3300
,
0010
1000
0100
0000
,
0100
0010
1000
0000
,
0001
0010
0001
0100
,
0220
0330
2020
3030
,
0002
0000
1003
0010
,
0200
0000
2300
0000
,
3020
0000
1030
0100
,
0002
0000
0023
0000
,
0032
0000
0103
1000
,
0010
0000
0000
0001
0000
1000
0000
0020
,
0000
0000
0031
1000
,
0010
0100
0001
0000
,
1000
0000
0110
0000
,
0001
0010
1000
0000
,
0010
0001
1000
0010
,
0200
0300
2002
3003
,
0020
0030
0100
0010
,
0002
0003
1000
0010
,
2000
3000
0020
0030
,
0001
0001
0200
0300
,
0010
0100
0010
0100
,
1000
0010
0002
0003
,
0100
1000
0010
1000
,
0002
0003
1000
0010
,
2100
0000
3001
0010
,
0200
0000
0302
0000
,
0103
0001
1000
0001
,
0020
0000
2000
3030
,
0100
0001
0101
0000
,
0010
0100
0110
0000
,
0100
0001
0010
1000
,
0020
0030
2200
3300
,
1000
0000
0010
0000
1000
0000
0100
0010
,
0000
0010
0001
0000
0001
0000
1000
0000
,
0010
1000
0010
0000
0100
0000
0100
0001
,
0000
0001
0010
0000
0100
0010
0100
0000
,
2000
0000
3100
0000
0002
0000
0013
0020
,
0000
1000
0100
1030
,
1000
0010
1000
0000
0010
0000
0010
0002
,
0000
0000
0103
0000
0100
0001
0100
0000
,
0021
0000
0130
0010
,
1000
0010
1000
0000
,
1000
0000
0010
0000
0001
0000
0001
0100
,
0000
0100
0010
0000
0100
1000
0100
0000
,
0010
0001
0011
0000
,
1000
0001
1001
0000
,
0010
0000
1000
0000
0001
0000
0001
2000
,
0000
0010
0010
3001
,
0100
0000
1000
0000
,
0010
0000
0101
0000
,
1000
0000
0010
0000
,
0100
0000
1100
0000
,
0010
0001
0010
0000
,
0001
1000
0010
0000
,
0010
1000
0100
0010
,
0020
1030
2000
3001
,
0002
0000
0000
0000
0013
0000
0010
0200
,
0000
0000
0001
0000
0310
0000
0001
1000
,
0000
0000
0100
0000
0001
0000
0001
0010
,
0000
0010
1000
0000
0100
0000
1100
0000
,
1000
0000
0001
0000
0010
0000
0010
0001
,
0000
1000
0010
0000
1000
0000
0010
0000
,
0100
0000
0001
0000
0010
0000
0100
2000
,
0000
3002
0000
0023
0000
0230
0000
0000
,
0301
0000
0001
0010
0000
0000
0100
0000
,
0100
0001
0000
0000
1000
0000
0010
0000
,
1000
0000
1000
0010
0000
0001
0000
1001
,
0000
0000
0001
0000
1000
0000
1000
0010
;

//---------------dance-single - ----------------
#NOTEDATA:;
#CHARTNAME:;
#STEPSTYPE:dance-single;
#DESCRIPTION:;
#CHARTSTYLE:;
#DIFFICULTY:Easy;
#METER:5;
#RADARVALUES:0.307322,0.344741,0.063007,0.378045,0.000000,239.000000,232.000000,7.000000,42.000000,0.000000,0.000000,0.000000,0.000000,0.000000,0.307322,0.344741,0.063007,0.378045,0.000000,239.000000,232.000000,7.000000,42.000000,0.000000,0.000000,0.000000,0.000000,0.000000;
#CREDIT:;
#NOTES:
0000
0000
0000
0000
,
0000
0000
0000
0000
,
0000
0000
0000
0000
,
0000
0000
0000
0000
,
0100
0000
1000
0000
,
0100
0000
0010
0000
,
0001
0000
1000
0000
,
0020
0000
0000
0030
,
1000
0000
0001
0001
,
1000
0000
1000
1000
,
0010
0000
0100
0100
,
0010
0000
1000
0000
,
0100
0000
0001
0001
,
0010
0000
0010
0010
,
1000
0000
1000
1000
,
0010
0000
1001
0000
,
0200
0300
0001
0000
,
0001
0010
0001
0000
,
0010
0100
0010
0100
,
2000
3000
0002
0003
,
0020
0030
1000
0000
,
0100
0100
0001
0000
,
0010
0100
0010
1000
,
0200
0300
0002
0003
,
1000
0010
1000
0000
,
0001
0100
0001
0000
,
0010
0010
0001
0100
,
0010
0000
1000
0000
,
0100
0010
0001
0000
,
0010
1000
0100
0000
,
0001
0010
1000
0010
,
0100
0000
0110
0000
,
2000
0000
3000
0000
,
0002
0003
2000
3000
,
0020
0000
0030
0000
,
0002
0003
2000
3000
,
0200
0000
0300
0000
,
0020
0030
2000
3000
,
0100
0000
0001
0000
,
0010
0000
1001
0000
,
0100
0010
0100
0000
,
0001
0100
0001
0000
,
1000
0100
0001
0100
,
0010
0000
0010
0000
,
1000
0100
1000
0000
,
0010
1000
0010
0000
,
0002
0003
0200
0300
,
0020
0030
2000
3000
,
0100
0001
0010
0000
,
0010
0001
0100
0000
,
0010
1000
0100
1000
,
0001
0000
1001
0000
,
0020
0000
1030
0000
,
0200
0000
1300
0000
,
0002
0000
0023
0000
,
2030
0000
3100
0000
,
1000
0100
1000
0000
,
0010
0100
0010
0000
,
0001
0010
0001
0100
,
0020
0030
0220
0330
,
1000
0100
1000
0000
,
0010
0001
0010
0000
,
0200
0300
0002
0003
,
0020
0030
0002
0003
,
0010
0100
0001
0000
,
0010
1000
0100
0000
,
1000
0001
0100
0001
,
0010
0000
0100
0000
,
0020
0030
2000
3000
,
0100
0100
2000
3000
,
0010
1000
0010
0001
,
0200
0300
2002
3003
,
0100
0100
0001
0000
,
0010
0010
0001
0000
,
0010
0100
1000
0100
,
0001
0000
1001
0000
,
0200
0000
0000
0000
,
0301
0000
0010
0000
,
0020
0000
0000
0000
,
1030
0000
1000
0000
,
0002
0000
0000
0000
,
1003
0000
1000
0000
,
2000
0000
0000
0000
,
3010
0000
0001
0000
,
0010
0100
0010
0000
,
0001
0010
0001
0000
,
1000
0100
0001
0100
,
1000
0000
0010
0000
,
0001
1000
0001
0000
,
0010
0001
0010
0000
,
0100
0010
1000
0100
,
0001
0000
0010
0000
,
1000
0000
0001
0000
,
0100
0000
0010
0000
,
1000
0000
0100
0000
,
0001
0000
0010
0010
;

//---------------dance-single - ----------------
#NOTEDATA:;
#CHARTNAME:;
#STEPSTYPE:dance-single;
#DESCRIPTION:;
#CHARTSTYLE:;
#DIFFICULTY:Beginner;
#METER:3;
#RADARVALUES:0.149160,0.214900,0.036004,0.045005,0.000000,116.000000,112.000000,4.000000,5.000000,0.000000,0.000000,0.000000,0.000000,0.000000,0.149160,0.214900,0.036004,0.045005,0.000000,116.000000,112.000000,4.000000,5.000000,0.000000,0.000000,0.000000,0.000000,0.000000;
#CREDIT:;
#NOTES:
// measure 0
0000
0000
0000
0000
,  // measure 1
0000
0000
0000
0000
,  // measure 2
0000
0000
0000
0000
,  // measure 3
0000
0000
0000
0000
,  // measure 4
0100
0000
0000
0000
,  // measure 5
0010
0000
0000
0000
,  // measure 6
1000
0000
0000
0000
,  // measure 7
0001
0000
0000
0000
,  // measure 8
0100
0000
0100
0000
,  // measure 9
0100
0000
0000
0000
,  // measure 10
0001
0000
0001
0000
,  // measure 11
0001
0000
0000
0000
,  // measure 12
0010
0000
0010
0000
,  // measure 13
0010
0000
0000
0000
,  // measure 14
1000
0000
1000
0000
,  // measure 15
1000
0000
0000
0000
,  // measure 16
1001
0000
0000
0000
,  // measure 17
0001
0000
0000
0000
,  // measure 18
1000
0000
0000
0000
,  // measure 19
0001
0000
0000
0000
,  // measure 20
0100
0000
0000
0000
,  // measure 21
0010
0000
0000
0000
,  // measure 22
0100
0000
0000
0000
,  // measure 23
0010
0000
0000
0000
,  // measure 24
0001
0000
0001
0000
,  // measure 25
0001
0000
0000
0000
,  // measure 26
0100
0000
0100
0000
,  // measure 27
0100
0000
0000
0000
,  // measure 28
1000
0000
1000
0000
,  // measure 29
1000
0000
0000
0000
,  // measure 30
0010
0000
0010
0000
,  // measure 31
0010
0000
0000
0000
,  // measure 32
2000
0000
3000
0000
,  // measure 33
0001
0000
0001
0000
,  // measure 34
0002
0000
0003
0000
,  // measure 35
0010
0000
0010
0000
,  // measure 36
0020
0000
0030
0000
,  // measure 37
0100
0000
0100
0000
,  // measure 38
0200
0000
0300
0000
,  // measure 39
2000
0000
3000
0000
,  // measure 40
0010
0000
0000
0000
,  // measure 41
0100
0000
0000
0000
,  // measure 42
0010
0000
0000
0000
,  // measure 43
0110
0000
0000
0000
,  // measure 44
0001
0000
0000
0000
,  // measure 45
1000
0000
0000
0000
,  // measure 46
0001
0000
0001
0000
,  // measure 47
0001
0000
0000
0000
,  // measure 48
0100
0000
0000
0000
,  // measure 49
0010
0000
0000
0000
,  // measure 50
0100
0000
0100
0000
,  // measure 51
0100
0000
0000
0000
,  // measure 52
1000
0000
0000
0000
,  // measure 53
1000
0000
0000
0000
,  // measure 54
0001
0000
0000
0000
,  // measure 55
0001
0000
0000
0000
,  // measure 56
0100
0000
0000
0000
,  // measure 57
0100
0000
0000
0000
,  // measure 58
0010
0000
0000
0000
,  // measure 59
0010
0000
0000
0000
,  // measure 60
1000
0000
0000
0000
,  // measure 61
0001
0000
0000
0000
,  // measure 62
1000
0000
1000
0000
,  // measure 63
1000
0000
0000
0000
,  // measure 64
0010
0000
0000
0000
,  // measure 65
0100
0000
0000
0000
,  // measure 66
0010
0000
0010
0000
,  // measure 67
0010
0000
0000
0000
,  // measure 68
0001
0000
0000
0000
,  // measure 69
1000
0000
0000
0000
,  // measure 70
0001
0000
0001
0000
,  // measure 71
0001
0000
0000
0000
,  // measure 72
0100
0000
0000
0000
,  // measure 73
0010
0000
0000
0000
,  // measure 74
0100
0000
0100
0000
,  // measure 75
0100
0000
0000
0000
,  // measure 76
0110
0000
0000
0000
,  // measure 77
0000
0000
0000
0000
,  // measure 78
0010
0000
0000
0000
,  // measure 79
0000
0000
0000
0000
,  // measure 80
0001
0000
0000
0000
,  // measure 81
1000
0000
0000
0000
,  // measure 82
0010
0000
0000
0000
,  // measure 83
0100
0000
0000
0000
,  // measure 84
1000
0000
1000
0000
,  // measure 85
1000
0000
0000
0000
,  // measure 86
0001
0000
0001
0000
,  // measure 87
0001
0000
0000
0000
,  // measure 88
0100
0000
0100
0000
,  // measure 89
0100
0000
0000
0000
,  // measure 90
0010
0000
0010
0000
,  // measure 91
0010
0000
0000
0000
,  // measure 92
0001
0000
0000
0000
,  // measure 93
1000
0000
0000
0000
,  // measure 94
0001
0000
0000
0000
,  // measure 95
1000
0000
1001
0000
;
