#TITLE:Royal Judgement;
#SUBTITLE:;
#ARTIST:Kobaryo;
#TITLETRANSLIT:;
#SUBTITLETRANSLIT:;
#ARTISTTRANSLIT:;
#GENRE:;
#CREDIT:;
#MUSIC:Royal Judgement.ogg;
#BANNER:Royal Judgement.png;
#BACKGROUND:Royal Judgement-bg.png;
#CDTITLE:;
#SAMPLESTART:79.941;
#SAMPLELENGTH:15.001;
#SELECTABLE:YES;
#OFFSET:1.665;
#BPMS:0.000=99.992
,28.000=199.984
,170.000=99.992
,186.000=199.984
,218.000=99.992
,220.000=199.984
,286.000=99.992
,302.000=399.968
,303.000=199.984
;
#STOPS:39.750=0.600
,220.000=0.600
,302.000=0.150
;
#DISPLAYBPM:100.000:200.000;
#ORIGIN:;
#PREVIEWVID:;
#JACKET:Royal Judgement-jacket.png;
#CDIMAGE:;
#DISCIMAGE:;
#BGCHANGES:;
#FGCHANGES:;

//--------------- dance-single - ----------------
#NOTES:
     dance-single:
     :
     Beginner:
     4:
     0,0,0,0,0:
0000
0000
0000
0000
,
0000
0000
0000
0000
,
0000
0000
0000
0000
,
0000
0000
0000
0000
,
0000
0000
0000
0000
,
0001
0000
0001
0000
,
1000
0000
1000
0000
,
0010
0010
0010
0000
,
0100
0100
0100
0000
,
0001
0000
1000
0000
,
0000
0000
0001
0000
,
1000
0000
0001
0000
,
0001
0000
0010
0000
,
0100
0000
0010
0000
,
0010
0000
0100
0000
,
1000
0000
0100
0000
,
0100
0000
0010
0000
,
0001
0000
0010
0000
,
0010
0000
1000
1000
,
1000
0000
0001
0000
,
1000
0000
0001
0001
,
0001
0000
0100
0000
,
0001
0000
0100
0100
,
0100
0000
0010
0000
,
0100
0000
0010
0010
,
0010
0000
1000
0000
,
0010
0000
2000
0000
,
3000
0000
1000
0000
,
0001
0000
2000
0000
,
3000
0000
0010
0000
,
0100
0000
0020
0000
,
0030
0000
0100
0000
,
0001
0000
0200
0000
,
0300
0000
0001
0000
,
0010
0000
0001
0000
,
1000
0000
0001
0000
,
1001
0000
0010
0000
,
0100
0000
0010
0000
,
0110
0000
0100
0000
,
1000
0000
0100
0000
,
0110
0000
0001
0000
,
0010
0000
0001
0000
,
1001
0000
2000
0000
,
3000
0000
0002
0000
,
0003
0000
0020
0000
,
0030
0000
0200
0000
,
0300
0000
0001
0000
,
0001
0000
1000
0000
,
1000
0000
0001
0000
,
1000
0000
0001
0000
,
1000
0000
0010
0000
,
0010
0000
0100
0000
,
0100
0000
0010
0000
,
0100
0000
0010
0000
,
0100
0000
2002
0000
,
3003
0000
1000
1000
,
1000
0000
0001
0000
,
1000
0000
0001
0001
,
0001
0000
0010
0000
,
0001
0000
0010
0010
,
0010
0000
0100
0000
,
0010
0000
0100
0100
,
0100
0000
1000
0000
,
0100
0000
1000
1000
,
1000
0000
0001
0000
,
0010
0000
0001
0001
,
0001
0000
0100
0000
,
0010
0000
0100
0100
,
0100
0000
0010
0000
,
1000
0000
0010
0010
,
0010
0000
0100
0000
,
0001
0000
1000
0000
,
1000
0000
0001
0000
,
0001
0000
0010
0000
,
0010
0000
0100
0000
,
0100
0000
0010
0010
,
0010
0000
0100
0000
,
0010
0000
0100
0100
,
0100
0000
1000
0000
,
0100
0000
1000
1000
,
1000
0000
0001
0000
,
1000
0000
0001
0001
,
0001
0000
1000
0000
,
1001
0000
0000
0000
;

//--------------- dance-single - ----------------
#NOTES:
     dance-single:
     :
     Easy:
     7:
     0,0,0,0,0:
0000
0000
0000
0000
,
0000
0000
0000
0000
,
0000
0000
0000
0000
,
0000
0000
0000
0000
,
0000
0000
0000
0000
,
0100
0010
0000
0110
,
0100
0001
0000
0101
,
1000
0001
1000
0000
,
0010
0100
0010
0000
,
1000
1000
0001
0001
,
0000
0000
0010
0100
,
0010
0100
0001
0100
,
1000
0000
0010
0001
,
1000
0010
0100
0100
,
0010
0000
0100
0001
,
0100
0010
1000
0001
,
0100
0000
0001
0001
,
1000
1000
0010
0100
,
0010
0000
0100
1000
,
0100
0001
0100
0010
,
0001
0000
1000
0010
,
1000
0001
0100
0010
,
0001
0000
0100
0001
,
1000
0010
1000
0001
,
1000
0000
0001
0001
,
1000
1000
0010
0100
,
0010
0000
0200
0300
,
0100
0000
0010
0100
,
0010
0000
0002
0003
,
0001
0000
1000
0001
,
1000
0000
0020
0030
,
0010
0000
0010
1000
,
0010
0000
2000
3000
,
1000
0000
0001
0100
,
0001
0000
0010
0001
,
0100
0010
0001
0000
,
1001
0000
0100
0010
,
1000
0001
0100
0000
,
0110
0000
1000
0100
,
0010
0001
0010
0000
,
0011
0000
0001
0000
,
1000
0000
0010
0100
,
0001
0000
0200
0300
,
0200
0300
2000
3000
,
2000
3000
0002
0003
,
0002
0003
0020
0030
,
0020
0030
0100
0001
,
0100
0000
0010
1000
,
0010
0000
0100
1000
,
0100
0000
0001
0010
,
0001
0000
0100
0001
,
0100
0000
1000
0010
,
1000
0000
0001
0100
,
1000
0100
0010
0100
,
0001
0000
0200
0000
,
0300
0000
0010
0100
,
0010
0000
0100
0001
,
0100
0010
1000
0001
,
1000
0000
0010
1000
,
0010
0000
0100
0010
,
0100
0010
0100
0001
,
1000
0000
0001
0001
,
1000
1000
0001
0100
,
0010
0000
0100
0010
,
0100
0000
1000
0001
,
0100
0010
0100
0001
,
0010
0000
1000
0001
,
1000
0010
0100
0001
,
0100
0000
0010
0100
,
0010
0100
0001
0010
,
0001
0010
1000
0001
,
0100
0000
2000
0010
,
0000
3010
0200
0001
,
0000
0301
0020
0100
,
0000
0130
2000
0001
,
3001
0001
1000
0001
,
1000
0010
0100
0001
,
0100
0000
0010
0001
,
0010
0100
0001
1000
,
0010
0000
0100
0001
,
0100
0010
1000
0001
,
1000
0000
0010
0100
,
0001
0100
0010
0100
,
0001
1001
0000
0000
;

//--------------- dance-single - ----------------
#NOTES:
     dance-single:
     :
     Medium:
     10:
     0,0,0,0,0:
0000
0000
0000
0000
,
0000
0000
0000
0000
,
0000
0000
0000
0000
,
0000
0000
0000
0000
,
0000
0000
0000
0000
,
1000
0001
0100
0001
,
0100
0010
1000
0010
,
1000
0001
1000
0010
,
0100
0001
0100
0010
,
1000
0010
0001
0000
0100
0001
0010
0000
,
0000
1001
0100
0100
,
0010
0010
0100
0001
,
1000
0010
0001
0001
,
1000
1000
0100
0001
,
1000
0001
1000
0000
0010
0000
0010
0000
,
0001
0001
0010
1000
,
0001
1000
0010
0010
,
0100
0100
0001
1000
,
0001
1000
0001
0000
0100
0000
0010
0000
,
0100
0001
0100
0010
,
1000
0001
1000
0010
,
0100
0001
1000
0010
,
1000
0001
1000
0001
1000
0000
0010
0000
,
0100
0001
0100
0010
,
1000
0001
0100
0010
,
0100
0001
1000
1000
,
0001
0001
0200
0000
,
0310
0001
0010
0100
,
0001
1000
0020
0000
,
1030
0001
1000
0001
,
1000
1000
0002
0000
,
0103
0001
0100
0010
,
1000
0001
2000
0000
,
3001
0010
0001
0100
,
0001
0001
1000
0001
,
0100
0001
1000
0010
,
0100
0010
0100
0000
0001
0000
0010
0000
,
1000
0100
0010
0100
,
0001
0010
0001
0000
0100
0000
0001
0000
,
0100
0010
0100
0001
,
1000
0010
1000
0000
0001
0000
0100
0000
,
0001
1000
0010
1000
,
0001
0100
0010
0010
,
0010
0010
0100
0100
,
0100
0100
0001
0001
,
0001
0001
1000
1000
,
1000
1000
0001
0100
,
0001
1000
0010
0100
,
0001
0100
0010
1000
,
0100
0001
0010
0100
,
0001
0000
0100
0000
0010
0001
0010
0000
,
1000
0010
1000
0000
0001
0100
0001
0000
,
0100
0010
0100
0000
1000
0000
0001
0000
,
0100
0010
0100
0100
,
0001
0100
0010
0000
,
0000
0110
1000
0001
,
1000
0010
0100
0001
,
0100
0010
0001
0010
,
0001
0100
0010
1000
,
0001
0000
1000
0010
1000
0000
0010
0000
,
0100
0001
0100
0010
,
0100
0001
1000
1000
,
0001
0001
0100
0010
,
0100
0001
0100
0001
1000
0000
0010
0000
,
0100
0001
0100
0010
,
0100
0001
1000
0010
,
0100
1000
0001
0010
,
0100
0000
0001
0100
0001
0000
0100
0000
,
0010
0100
0001
1000
,
0010
0100
0001
0001
,
0100
0100
0010
0100
,
0010
1000
0010
1000
0001
0000
0100
0000
,
0010
1000
0100
1000
,
0001
0001
0010
0001
,
0100
0010
1000
0010
,
0100
1000
0010
1000
0100
0000
0001
0000
,
0100
0010
1000
0001
,
0100
0000
0010
0001
0010
0000
0100
0000
,
0001
1000
0010
0100
,
0001
0000
1000
0010
1000
0000
0001
0000
,
0100
0010
1000
0001
,
0100
0000
0001
1000
0001
0000
1000
0000
,
1000
0001
0100
0010
,
0100
0101
0000
0000
;

//--------------- dance-single - ----------------
#NOTES:
     dance-single:
     :
     Hard:
     14:
     0.555183,0.732274,0.25019,0.150114,0.095906,466,436,30,18,0,0,0,0,0,0.555183,0.732274,0.25019,0.150114,0.095906,466,436,30,18,0,0,0,0,0:
0000
0000
0000
0000
,
0000
0000
0000
0000
,
0000
0000
0000
0000
,
0000
0000
0000
0000
,
0000
0000
0000
0000
,
0100
1000
0001
0100
0000
0000
0010
0100
0000
0000
1000
0100
0000
0001
0100
0000
,
0010
0100
0010
1000
0000
0000
0001
0010
0000
0000
0100
0001
0000
0001
0010
0000
,
0100
0001
1000
0010
,
0100
0010
0100
0001
,
1000
0100
0010
0100
0001
0100
0010
1000
,
0000
1001
0010
0100
,
1000
0100
0001
1000
,
0010
0000
0100
0100
0100
0000
0010
0000
,
0100
0000
0001
0010
1000
1000
0001
0100
,
0100
0010
1000
0001
0100
0000
0010
0000
,
1000
0001
0100
0010
,
0100
0000
0001
0001
1100
0000
1100
0000
,
0101
0000
0101
0000
0100
0010
1000
0010
,
0100
0001
1000
0010
0100
1000
1001
0000
,
0100
0110
1000
0101
,
0100
0110
0100
1010
,
0100
0000
0101
0000
0010
0010
0100
1000
,
0010
0100
0010
0100
0001
0000
1100
0000
,
0010
0000
0101
0000
0010
0010
0100
0100
,
0001
0001
1000
1000
0010
0000
0100
0001
,
0000
0000
0100
0000
0010
0000
0000
0000
0100
0000
0000
1000
0000
0000
0001
0000
,
0100
0010
0100
0000
2000
0000
0000
0000
,
3001
0100
0001
1000
0010
1000
0001
0100
,
0010
0100
0001
0100
0020
0000
0000
0000
,
0130
0001
0100
0100
1000
0010
0001
0100
,
0010
0100
0001
0010
0002
0000
0000
0000
,
0013
1000
0001
0100
0010
0100
0001
1000
,
0010
0100
0001
1000
0200
0000
0000
0000
,
0310
0000
0000
1000
0000
0000
0010
0000
0000
0100
0000
0000
0001
0000
0010
0000
,
0100
0010
1000
0010
0100
0000
0001
1000
,
0000
1000
0010
0000
0100
0000
0001
0100
,
0100
0010
0001
0010
1000
0000
0100
0010
,
0000
0010
1000
0000
0100
0000
0010
1000
,
1000
0010
0100
0010
0100
0000
0001
0100
,
0000
0100
0001
0000
1000
0000
0010
0100
,
0100
0000
0010
0000
0001
0000
0000
0000
1000
0000
0000
0001
0000
0000
1000
0000
,
0000
0010
0000
0000
0100
0000
0100
0000
0010
0000
0000
0000
0010
0000
0000
0000
,
0001
1000
0100
0000
0020
0000
1000
0000
,
1000
1000
2030
0001
,
0001
0001
3200
0010
,
0010
0010
0302
0100
,
0100
0000
0000
0000
0103
0010
0100
0010
2000
0000
0000
0000
0001
0000
0000
0000
,
3001
0010
0001
1000
0100
0000
0010
0000
,
1000
0000
0010
0000
0100
0000
0100
0001
,
0000
0100
0010
1000
0001
0000
0001
0100
,
0000
1000
0100
0010
1000
0000
0100
0010
,
0001
0100
0000
0100
0001
0000
1000
0000
,
0010
0000
0100
0000
0001
0000
0001
0010
,
0000
0100
0001
0100
0010
0000
1000
0001
,
0000
1000
0010
0000
0200
0000
0000
0000
,
0300
0000
1001
0000
0010
0000
0100
1000
,
0001
1000
0000
0001
0200
0000
0320
0000
,
2030
0000
3002
0000
0103
0000
0100
0010
,
0000
1000
0100
1000
0100
0000
0100
0001
,
0000
0100
0001
0100
0010
0000
1000
0010
,
0100
0010
0000
0100
0002
0000
2003
0000
,
3020
0130
0101
0101
,
1100
0000
1100
0000
0010
0001
0010
0001
,
0100
1000
0010
0100
0010
0000
1001
0000
,
0100
1001
1000
1010
,
0100
0101
1000
0011
,
0010
0101
0010
0101
,
1000
0000
0110
0001
0001
0000
1010
0000
,
1000
0110
0100
0011
,
0010
0000
1001
0000
0100
0001
0100
1000
,
0010
0100
0001
0100
1000
0001
0001
1000
,
0001
0010
0100
1000
0100
0000
0001
0000
,
0000
0000
0100
0000
0010
0000
0000
0000
1000
0000
0000
0000
0100
0000
0000
1000
,
0000
0001
0000
1000
0100
0010
0010
0000
1000
0000
0000
0000
0100
0000
0000
0000
,
0000
0001
0100
0000
0010
0000
1000
0000
,
0001
0000
0001
1000
0000
0100
0010
0000
0100
0000
0000
0000
0010
0000
0100
0000
,
1000
0100
0000
1000
0100
0000
0001
0000
,
0100
0000
0010
1000
0100
0000
0100
0001
,
0000
0010
0001
0010
0001
0000
1000
1000
,
0000
0100
0010
0100
0010
0000
0100
0001
,
1000
0010
0000
0100
0010
0000
0100
0000
,
0001
0000
0100
0000
0010
0000
0010
1000
,
0000
1000
0001
0000
0100
0000
0010
0100
,
0000
0100
0001
0002
0000
0003
0000
0000
;

//--------------- dance-single - ----------------
#NOTES:
     dance-single:
     :
     Challenge:
     18:
     0.918554,1.322096,0.517059,0.266869,0.909023,771,709,62,32,0,0,0,0,0,0.918554,1.322096,0.517059,0.266869,0.909023,771,709,62,32,0,0,0,0,0:
0000
0000
0000
0000
,
0000
0000
0000
0000
,
0000
0000
0000
0000
,
0000
0000
0000
0000
,
0000
0000
0000
0000
0000
0000
0000
0000
0000
0000
0000
0000
0000
0000
0000
0000
0000
0000
0000
0000
0000
0000
1000
0001
0010
0000
0100
0000
0100
0000
0010
0000
,
0001
0100
0001
2000
0000
3000
0010
2000
0000
3000
0100
0010
0000
0001
0100
0000
,
0010
1000
0010
0200
0000
0300
0001
0200
0000
0300
0010
1000
0000
0001
1000
0000
,
0001
0100
0010
1000
0001
0000
0100
0010
,
0100
0000
0001
0100
0001
0010
0100
1000
,
0100
1000
0010
0100
0001
0010
0100
1000
0010
1000
0100
0010
0100
1000
0001
0010
,
0000
0000
0001
1000
1001
0000
0000
0000
0100
0000
0000
0000
0200
0000
0000
0000
,
0010
0000
0000
0000
0010
0300
0000
0000
1000
0000
0000
0000
1000
0000
0000
0000
,
0001
0000
0001
0001
0010
0000
0020
0000
,
0100
0000
0000
0000
0100
0030
0100
0000
0001
1000
0001
0000
0011
0000
0100
1000
,
0100
1000
0010
0000
0110
0000
0010
0000
1000
0000
0000
0000
2000
0000
0000
0000
,
0100
0000
0000
0000
0100
3000
0000
0000
0010
0000
0000
0000
0010
0000
0000
0000
,
0001
0000
0001
0001
0011
0000
0011
0000
,
0101
0000
0000
0000
0101
0000
0000
0000
1000
0001
1000
0000
0001
1000
0001
0000
,
0010
0100
0010
0100
0010
0001
1000
0000
0100
0000
0100
0000
0101
0000
0000
0000
,
0010
1100
1000
0101
,
0001
0110
0010
1001
,
1000
0000
0000
0000
0011
0000
0010
0000
0100
0001
0100
0000
1001
0000
0010
1000
,
0010
1000
0001
0000
0010
0100
1000
0010
0100
0000
0000
0000
1010
0000
0000
0000
,
0010
0000
0101
0000
0001
0001
1000
1000
,
0010
0000
0010
0000
0100
0001
0100
0000
0010
1000
0010
1000
0100
0000
1000
0001
,
1000
0001
0010
0000
0100
1000
0100
1000
0001
0000
1000
0100
0000
0001
0100
0000
,
0010
0100
0010
0000
1000
0000
1000
0000
0201
0000
0001
0000
0001
0000
0001
0000
,
1300
0000
0001
1000
0001
0000
0010
1000
0010
0000
0100
0010
0100
0000
0001
0100
,
0001
0000
0010
0001
0010
0000
0100
0000
2010
0000
0000
0000
0010
0000
0000
0000
,
3001
0000
0100
0010
0100
0001
1000
0100
1000
0000
0001
0100
0001
0000
0100
0010
,
0100
0000
0001
0100
0010
0000
0010
0000
1200
0000
1000
0000
1000
0000
1000
0000
,
0310
0000
0100
0001
0100
0000
0010
1000
0010
0000
1000
0001
1000
0000
0001
0010
,
0001
0000
0010
0100
0010
0000
0001
0000
0102
0000
0000
0000
0100
0000
0000
0000
,
1003
0000
0010
0100
0000
0010
1000
0000
0001
0100
0000
0001
0010
0000
0100
0010
,
0001
1000
0001
0000
0200
0000
0310
0000
1010
0000
0000
1000
0001
0000
1010
0000
,
0000
0000
1000
0000
1001
0000
0000
0000
0100
0000
0000
0000
1100
0000
0001
0100
,
0001
0100
0010
0000
1000
0000
0010
0000
0110
0000
0000
0100
0001
0000
0110
0000
,
0000
0100
0101
0000
0010
0000
0011
0001
,
1000
0010
1000
0000
0100
0000
0010
0000
1100
0000
0000
0100
0010
0000
1100
0000
,
0000
0000
0100
0000
0110
0000
0000
0000
0001
0000
0000
0000
0101
0000
0010
0001
,
0010
0001
1000
0000
0020
0030
0200
0300
0001
0000
0000
1001
0000
0000
1000
0000
,
0000
1010
0000
0000
0100
0000
0110
0000
0010
1000
0010
0000
1000
0001
1000
0100
,
0020
0000
0030
0000
1000
0001
1000
0001
0100
0010
0100
0002
0000
0003
1000
0002
,
0000
0003
0010
0100
0000
0010
0001
0000
1000
0100
1000
0020
0000
0030
0100
0020
,
0000
0030
1000
0001
0000
1000
0100
0000
0100
0010
0001
0020
0100
0030
1000
0200
,
1000
0300
0010
1000
0100
1000
0010
0000
0100
0010
0100
0002
1000
0003
0010
0200
,
0010
0000
0300
0000
1000
0000
0001
0100
0010
0000
1000
0000
1000
0000
0010
0000
0200
0000
0000
0000
0000
0000
0000
0000
0001
0000
0000
0000
0000
0000
0000
0000
,
0010
0001
0320
1000
,
0100
0001
0230
1000
,
0001
0001
2300
0010
,
0100
0000
0100
0000
3001
0010
0001
0100
,
0010
1000
0100
0010
0100
0001
1000
0010
,
1000
0000
0010
0000
0100
0000
0001
0000
1000
0100
1000
0100
1000
0010
1000
0010
,
0100
0010
0100
0010
0100
0001
0100
0001
0010
0000
0100
1000
0100
0000
0010
0000
,
0001
1000
0001
1000
0020
0000
0030
0000
0220
0000
0000
0000
0000
0000
0000
0000
,
0330
0000
1000
0001
1001
0000
0000
0000
1000
0000
0000
0000
0010
0000
1000
0010
,
0100
0010
0000
1000
0101
0000
0110
0000
,
1100
0000
0011
0000
0100
0000
0100
0010
,
0100
0001
0100
0010
1000
0001
0100
0010
1000
0000
0000
0000
1000
0000
0010
0000
,
0000
0000
1000
0100
0010
0100
1000
0001
0100
0000
0000
0000
0001
0000
0100
0001
,
0010
0100
0000
1000
1001
0000
0011
0000
,
0101
0000
1010
0000
0100
0000
0100
0001
,
1000
0001
0100
0010
0100
0001
1000
0000
0010
0100
0010
0000
1000
0010
1000
0000
,
0001
0100
0010
0100
0010
1000
0001
0000
0100
0000
0000
0000
0010
0000
0100
0010
,
1000
0010
0000
0100
0101
0000
1100
0000
,
0011
0000
1001
0000
0100
0000
0100
0001
,
1000
0001
0010
0100
0010
0001
0100
0010
1000
0000
0000
0000
1000
0000
0010
0000
,
0000
0000
0100
0001
0010
0100
1000
0001
0010
0000
0000
0000
0100
0000
1000
0100
,
1000
0010
0100
0001
1100
0000
0110
0000
,
0101
0000
0000
0000
1010
0000
0000
0000
0100
0000
0010
0000
0100
0000
1000
0010
,
1000
0000
0001
0000
0100
0010
1000
0010
0100
0001
0010
0000
0100
1000
0010
0000
,
1000
0000
0001
0000
0100
0000
0010
0000
1000
0000
0100
0000
0010
0000
0001
0000
0011
0000
0000
0000
0100
0000
0010
0100
0001
0000
0100
0000
0000
0000
0010
0000
,
1000
0000
0100
0000
0010
0000
0100
0000
1000
0000
0001
0000
0010
0000
0001
0000
0100
0000
0000
0000
0100
0000
0010
0000
0000
0000
0001
1000
0010
1000
0100
0010
,
0001
0000
1000
0000
0001
0000
0010
0000
0000
0000
0100
1000
0010
0100
0010
1000
0100
0000
0000
0000
0010
0000
0001
1000
0001
0000
0010
0000
0000
0000
0100
0000
,
1000
0000
0100
0000
0001
0000
0100
0000
1000
0000
0010
0000
0100
0000
0010
0000
1000
0000
0000
0000
1000
0000
0001
0000
0000
0000
0100
0001
0010
0001
0100
0010
,
1000
0000
0010
1000
0100
0000
0010
0000
0100
0010
0001
0100
0010
1000
0001
0100
1000
0000
0000
0000
0000
0000
0000
0000
1100
0000
0000
0000
0100
0000
0010
0000
,
0100
1000
0001
0100
0011
0000
1001
0000
,
0110
0000
1010
1000
0010
0100
0010
1000
,
0001
1000
0010
0100
0010
1000
0001
0100
0001
0000
1000
0000
0001
0000
0010
0000
,
0100
0000
0010
0001
1000
0001
0010
0100
1000
0000
0010
0000
0100
0000
0010
1000
,
0010
0000
1000
0000
0001
0000
0100
0000
0001
1000
0001
0010
0100
1000
0010
0100
,
0001
0100
0010
1000
0010
0100
0001
1000
1100
0000
0000
0000
0100
0000
0101
0000
,
0000
0000
0100
0010
0100
0010
1000
0100
0001
0000
1000
0001
0100
0000
0100
0000
,
0010
1000
0010
0000
2002
0000
0000
3003
0000
0000
0000
0000
0000
0000
0000
0000
;
