#VERSION:0.83;
#TITLE:Reflection Into the EDEN;
#SUBTITLE:;
#ARTIST:Nekomata Master;
#TITLETRANSLIT:;
#SUBTITLETRANSLIT:;
#ARTISTTRANSLIT:;
#GENRE:beatmania IIDX 12 HAPPY SKY;
#ORIGIN:;
#CREDIT:;
#BANNER:Reflection into the EDEN.png;
#BACKGROUND:Reflection into the EDEN-bg.png;
#PREVIEWVID:;
#JACKET:;
#CDIMAGE:;
#DISCIMAGE:;
#LYRICSPATH:;
#CDTITLE:;
#MUSIC:Reflection Into the EDEN.ogg;
#OFFSET:-0.284753;
#SAMPLESTART:79.375000;
#SAMPLELENGTH:17.454552;
#SELECTABLE:YES;
#BPMS:0.000=110.000;
#STOPS:64.000=1.636,
65.000=1.636,
134.000=2.182;
#DELAYS:;
#WARPS:;
#TIMESIGNATURES:0.000=4=4;
#TICKCOUNTS:0.000=4;
#COMBOS:0.000=1;
#SPEEDS:0.000=1.000=0.000=0;
#SCROLLS:0.000=1.000;
#FAKES:;
#LABELS:0.000=Song Start;
#BGCHANGES:0.000=Reflection into the EDEN.avi=1.000=0=0=0=StretchNoLoop====,
99999=-nosongbg-=1.000=0=0=0 // don't automatically add -songbackground-
;
#KEYSOUNDS:;
#ATTACKS:
;

//---------------dance-single - ----------------
#NOTEDATA:;
#CHARTNAME:;
#STEPSTYPE:dance-single;
#DESCRIPTION:;
#CHARTSTYLE:;
#DIFFICULTY:Challenge;
#METER:15;
#RADARVALUES:0.563988,0.808544,0.304776,0.248074,0.868259,557.000000,514.000000,43.000000,35.000000,0.000000,0.000000,0.000000,0.000000,0.000000,0.563988,0.808544,0.304776,0.248074,0.868259,557.000000,514.000000,43.000000,35.000000,0.000000,0.000000,0.000000,0.000000,0.000000;
#CREDIT:;
#NOTES:
0000
0000
0000
0000
,
0000
0000
0000
0000
,
0000
0000
0000
0000
,
0000
0000
0000
0000
,
0000
2002
0000
0000
0000
0000
0000
0000
0000
0000
0000
0000
0000
0003
0000
0000
,
0000
0020
0000
0000
0000
3000
0000
0000
0000
0200
0000
0000
0000
0030
0000
0000
,
0000
0002
0000
0000
0000
0000
0000
0000
0000
0000
0000
0000
0303
0000
0000
0000
,
0010
0000
0000
0000
0010
0000
0000
0000
0010
0000
0000
1000
0010
1000
0010
0000
,
0100
0000
0001
0000
0001
1000
0000
0010
0000
1000
0000
0000
1000
0001
0000
0001
,
0100
0000
0010
0000
0100
0010
0000
1000
0001
1000
0000
1000
0010
0000
0100
0000
,
1000
0010
0000
0001
0010
0000
0100
0000
0000
0100
0000
0100
1000
0010
0000
0010
,
0100
1000
0000
1000
0001
0000
0100
0000
1000
0001
1000
0100
0010
0001
0100
0000
,
0010
1000
0000
1000
0100
0000
0100
0001
0000
0001
0000
0010
1000
0100
0000
1000
,
0001
0000
0001
0000
0100
0010
0000
1000
0000
0100
0000
1000
0010
0001
0000
0010
,
0100
0001
0000
0100
0100
0000
0010
1000
0000
0010
0000
0100
0010
0001
0010
0000
,
1100
0000
1100
0000
0001
0010
0000
0001
0000
0100
0000
0010
0100
0010
1000
0000
,
2002
3003
0000
0000
0000
0000
0000
0000
0000
0000
0000
0000
0000
0000
0000
0000
0220
0330
0000
0000
0000
0000
0000
0000
0000
0000
0000
0000
0000
0000
0000
0000
2100
0000
0000
0000
0000
0000
0000
0000
0000
0000
0000
0000
0000
0000
0000
0000
0100
0000
0000
0000
0100
0000
0000
0000
0100
0000
0000
0000
0000
0000
0000
0000
,
0010
0000
0010
0000
0010
0000
0000
0000
3001
0000
0001
0000
0001
0000
0000
0000
1020
0000
1000
0000
1000
0000
0000
0000
0100
0000
0100
0000
0130
0000
0001
1000
,
0001
0000
0000
0000
0010
0000
0000
0000
0001
0000
0000
0000
0100
0000
0000
0000
0000
0000
1001
0000
0000
0000
0000
0000
0100
0000
0000
0000
0000
0000
0010
0000
0000
0100
0000
0000
0010
0000
0000
0100
0000
0000
0000
0000
0000
0001
0000
0000
,
0000
1000
0000
0010
1000
0000
0010
0000
1000
0000
0001
0010
0001
1000
0000
0001
,
0000
0010
0000
0010
0100
0000
0001
0000
1010
0000
0100
1000
0010
0100
0000
0010
,
0011
0000
1000
0010
0100
0010
0000
0001
1001
0000
0010
0100
0010
0100
0000
0010
,
0110
0000
0100
1000
0100
0010
0000
0001
0010
0100
0010
1000
0000
0100
0000
0010
,
0100
0010
0000
0100
0001
0000
0001
0010
1000
0010
0000
0100
0000
1000
0000
1000
,
0001
0100
0000
0010
0001
0000
0100
0000
1000
0010
0000
0100
0000
0001
0000
0100
,
1000
0010
0000
0001
0100
0010
0000
0001
0010
0000
0001
1000
0010
0100
0000
0010
,
1000
0000
0100
0010
0100
1000
0001
0000
2100
0000
0001
0000
0000
0001
3000
0010
,
0002
1000
0000
1000
0100
0000
1003
0000
1020
0000
0100
0000
0000
0100
0030
0001
,
0200
0010
0000
0010
1000
0000
0310
0000
2001
0000
0001
0000
0000
0100
0000
0100
,
3000
0000
0010
0000
0000
0000
0000
0000
1100
0000
0000
0000
0000
0000
0010
0100
0010
0000
0000
0000
0000
0000
0000
0000
0011
0000
0000
0000
0000
0000
0000
0000
,
0101
0000
0000
0000
0001
0000
0000
0000
0100
0000
0000
0000
1010
0000
0000
0000
0001
0000
0000
0000
1000
0000
0000
0000
1100
0000
0000
0000
0000
0000
0010
0000
0000
0000
0000
0000
0100
0000
0000
0010
0000
0000
0000
0000
0000
0010
0000
0000
,
1001
0001
0000
0010
0100
0000
0010
0000
0101
0000
0001
0000
0100
0001
0000
0001
,
0110
0010
0000
0010
1000
0000
0001
0000
1001
0000
0001
0000
0100
1000
0000
0010
,
1010
0000
0000
0010
0000
0000
0100
0001
0010
0001
0100
1000
1001
0000
0000
0000
0000
0000
0110
0000
0000
0010
0000
0000
,
1020
0000
0000
0000
1000
1000
0000
1000
0000
0100
0100
0000
0032
0000
1000
0000
,
2003
0100
0000
0100
0000
0010
0000
0010
3200
0000
0000
0001
0001
0000
0001
0000
,
2300
0010
0000
0010
0000
0000
0010
0000
0100
0100
0000
0000
3002
0000
0100
0000
,
0203
0000
0010
0000
0320
0000
0100
0000
0230
0000
1000
0000
1300
0100
1000
0000
,
0001
0000
0000
0000
0000
0000
0000
0000
0000
0000
0000
0000
0000
0000
0000
0000
0000
0000
0000
0000
0000
0000
0000
0000
0010
0000
0000
0000
0000
0000
0000
0000
0000
0000
0000
0000
0000
0000
0000
0000
0000
0000
0000
0000
0000
0000
0000
0000
0100
0000
0000
0000
0000
0000
0000
0000
0000
0000
0000
0000
0010
0000
0000
0000
0000
0000
0000
0000
0000
0000
0000
0000
0000
0000
0000
0000
0000
0000
0000
0000
0000
0000
0000
0000
0010
0000
0000
0000
0000
0000
0001
0000
0000
0000
0000
0000
0010
0000
0000
0000
0000
0000
0000
0000
0000
0000
0000
0000
1000
0000
0000
0000
0000
0000
0000
0000
0000
0000
0000
0000
0100
0000
0000
0000
0000
0000
0000
0000
0000
0000
0000
0000
0001
0000
0000
0000
0000
0000
0000
0000
0000
0000
0000
0000
0010
0000
0000
0000
0000
0000
0000
0000
0000
0000
0000
0000
0000
0000
0000
0000
1000
0000
0000
0000
0000
0000
0000
0000
0000
0000
0000
0000
0000
0000
0000
0000
1000
0000
0000
0000
0000
0000
0000
0000
0000
0000
0000
0000
0000
0000
0000
0000
,
0100
0000
0010
0000
0100
0010
0000
0001
0000
0010
0000
0100
0010
0000
0010
0000
,
1000
0100
1000
0010
0100
0000
0100
0001
0000
0001
0000
0010
0100
0010
1000
0000
,
0010
1000
0000
1000
0100
0001
0000
0001
0010
0000
0010
0000
0100
1000
0100
0000
,
0010
0000
1000
0000
0010
0000
0100
0001
0010
0001
0010
0000
0110
0000
0100
0000
,
1000
0001
1000
0010
0000
0100
0000
0010
0010
0100
1000
0000
0101
0000
0010
0000
,
0100
1000
0100
0000
0010
1000
0000
0010
0001
0100
1000
0000
1010
0000
0010
0000
,
0100
1000
0100
1000
0001
0010
0000
0100
0000
0010
0100
0000
1100
0000
0010
0000
,
0100
0000
0100
0011
0000
0101
0000
1001
0000
1010
0000
1000
1100
0000
0110
0000
,
0001
0000
0010
0000
1000
0000
0010
1000
0010
0100
0001
0010
1000
0100
0001
0000
,
0010
0000
0100
0010
0100
0000
0100
0001
0000
0010
0000
0010
1000
0000
0100
0000
,
1000
0010
0001
0000
1000
0100
0000
0010
0000
1000
0100
0010
0001
1000
0001
0000
,
1000
0100
1000
0100
0010
0100
0010
0001
0100
1000
0010
0010
0100
0000
0000
0000
,
0001
0010
0001
0100
0010
0100
1000
0100
1000
0010
1000
0010
0100
0010
1000
0010
0100
0001
0010
0000
0000
0000
0000
0000
,
1000
0100
1000
0000
0010
0100
0010
0000
0001
0100
0001
0000
0010
0001
0010
0000
1000
0100
0001
0000
0001
0010
0100
0000
0100
0000
0000
0000
0000
0000
0000
0000
,
1000
0000
0000
0010
0000
0000
1000
0000
0000
0100
0000
0000
0010
0000
0000
0001
0000
0000
0100
0000
0000
0010
0000
0000
1000
0000
0000
0001
0000
0000
0100
0000
0000
0010
0000
0000
0100
0000
0000
0000
0001
0000
0000
0000
0100
0000
0000
0000
,
0220
0000
0000
0330
,
0022
0000
0000
0033
,
2200
0000
0000
3300
,
0202
0303
2002
0000
,
0000
0000
3003
0000
;

//---------------dance-single - ----------------
#NOTEDATA:;
#CHARTNAME:;
#STEPSTYPE:dance-single;
#DESCRIPTION:;
#CHARTSTYLE:;
#DIFFICULTY:Hard;
#METER:10;
#RADARVALUES:0.262250,0.331710,0.127581,0.524499,0.074422,259.000000,241.000000,18.000000,74.000000,0.000000,0.000000,0.000000,0.000000,0.000000,0.262250,0.331710,0.127581,0.524499,0.074422,259.000000,241.000000,18.000000,74.000000,0.000000,0.000000,0.000000,0.000000,0.000000;
#CREDIT:;
#NOTES:
0000
0000
0000
0000
,
0000
0000
0000
0000
,
0000
0000
0000
0000
,
0000
0000
0000
0000
,
0000
0002
0000
0000
0000
0000
0000
0000
0000
0000
0000
0000
0000
0000
0000
0000
,
0000
0203
0000
0000
0000
0000
0000
0000
0000
2000
0000
0000
0000
0000
0000
3000
,
0000
0020
0000
0000
0000
0000
0000
0000
0000
0000
0000
0000
0000
0300
0000
0000
,
1030
1000
1000
1001
,
0200
1000
1000
0302
,
0023
1000
0032
0100
,
2003
0010
0010
3200
,
0320
0001
1000
0001
,
2030
0100
0100
3002
,
0023
0001
2030
0001
,
3200
0010
1000
0302
,
2003
0000
0001
0000
0010
0010
3010
0000
,
0110
1001
0120
0100
,
1000
0100
1000
0031
,
1000
0001
1000
1001
0000
0000
0100
0000
0000
0001
0000
0000
,
0100
0010
0001
0000
1000
0000
0010
0000
,
1000
0000
0001
0000
0100
0000
0000
0000
0200
0000
0000
2000
0000
0000
3300
0000
,
0020
0000
0000
2000
0000
0000
3030
0000
0002
0000
0000
2000
0000
0000
3003
0000
,
0200
0000
0000
0010
0000
0000
0301
0000
0001
0000
0010
0000
0001
0000
0010
0000
,
0100
1000
0001
0000
0100
0001
0100
0010
,
0100
1000
0001
0000
1000
0100
2000
0000
,
3010
0100
0020
0000
1030
0001
2000
0000
,
3001
0000
0010
0000
0002
0000
0000
0000
0023
0000
1000
0000
0000
0100
0000
2000
,
0000
0000
0000
0000
0000
0000
3030
0000
0002
0000
0100
0000
0000
1000
0000
0200
,
0000
0000
0000
0000
0000
0000
0303
0000
2000
0000
0100
0000
0000
0100
0000
0002
,
0000
0003
0010
3000
0001
0000
0011
0000
,
0101
0000
0000
0000
1001
0000
0000
0000
0200
0000
0010
0000
0000
0001
0000
0020
,
0000
0000
0000
0000
0000
0000
0330
0000
0002
0000
1000
0000
0000
1000
0000
0020
,
0000
0000
0000
0000
0000
0000
0033
0000
2000
0000
0100
0000
0000
0100
0000
0000
,
3001
1000
0110
1100
,
2001
0001
0010
3002
,
0023
0100
0230
0001
,
0302
0010
0100
2003
,
3200
2300
0020
3030
,
0200
1000
1000
0302
,
2003
0010
3020
0001
,
2030
0100
0010
3002
,
0203
0001
0310
0110
,
0010
1000
0100
0010
0100
1000
0001
0000
,
0001
0001
0010
0100
0010
0100
1000
0000
,
0100
1000
0100
0000
0010
1000
0010
0000
,
0001
1000
0001
0010
0100
0010
0100
0000
,
2000
0000
3002
0000
1003
0001
2001
0000
,
3010
0001
0010
0100
0010
1000
0001
0000
,
0100
1000
1000
0000
0010
1000
1000
0000
,
0001
0010
0100
0010
1000
0100
0001
0000
,
2000
0000
0100
0000
0100
0010
3100
0000
,
0002
0000
0010
0100
0010
1000
0103
0000
,
0200
0010
0001
1000
0001
1000
0310
0000
,
0020
0000
1000
0000
0100
0100
1030
0000
,
2002
0000
0000
3003
,
0220
0000
0000
0330
,
2200
0000
0000
3300
,
2020
3030
2002
0000
,
0000
0000
3003
0000
;

//---------------dance-single - ----------------
#NOTEDATA:;
#CHARTNAME:;
#STEPSTYPE:dance-single;
#DESCRIPTION:;
#CHARTSTYLE:;
#DIFFICULTY:Medium;
#METER:6;
#RADARVALUES:0.210610,0.269515,0.170108,0.453621,0.000000,208.000000,184.000000,24.000000,64.000000,0.000000,0.000000,0.000000,0.000000,0.000000,0.210610,0.269515,0.170108,0.453621,0.000000,208.000000,184.000000,24.000000,64.000000,0.000000,0.000000,0.000000,0.000000,0.000000;
#CREDIT:;
#NOTES:
0000
0000
0000
0000
,
0000
0000
0000
0000
,
0000
0000
0000
0000
,
0000
0000
0000
0000
,
0000
0000
0000
0000
,
0000
0000
0000
0000
,
0000
0000
0000
0000
,
0010
0010
0100
0001
,
0220
0330
0010
0001
,
0022
0033
2020
3030
,
2002
0003
3001
0200
,
2300
3200
0302
0013
,
2200
3300
0010
0100
,
2200
3300
0202
0303
,
0220
0030
0310
0002
,
0023
1000
0100
0130
,
2000
3002
0023
0000
,
0000
0000
0200
0000
,
0000
0330
0010
1000
,
1010
0000
0100
0001
0100
0000
0001
0000
,
0101
0000
1000
0010
2000
0000
3100
0000
,
2000
3010
2000
0001
,
3001
0110
1000
0100
,
1000
0000
0100
0001
0010
0000
0100
0000
,
0010
0000
0100
0001
1000
0000
0001
0000
,
0010
0000
0001
0000
0010
0000
0100
1000
,
0010
1001
0020
0100
,
1000
1030
0002
1000
,
0010
0013
2000
0100
,
3010
0001
0010
1000
,
0100
0010
0200
0010
,
0001
0301
0002
0100
,
1000
1003
0020
0100
,
1030
0100
1001
0010
,
2200
3300
0100
0001
,
0220
0330
0022
0033
,
2020
3030
0100
1000
,
0100
0001
0022
0033
,
0220
0330
1000
0001
,
2002
3003
2020
3030
,
2200
3300
0010
0001
,
0100
0001
2020
3030
,
0010
0000
0100
0000
1000
0000
1000
0100
,
0001
0000
0100
0010
0100
0000
1000
0000
,
1000
0000
0001
0010
0100
0000
0001
1000
,
0010
0000
1000
0100
0010
0100
0001
0000
,
1000
0001
0100
0110
,
0001
0000
0010
1000
0100
0000
0100
0000
,
0001
0010
0100
0000
0100
0001
1000
0000
,
0100
0000
0100
0001
0010
0000
0100
0000
,
2000
0010
0001
3001
,
0002
0010
0100
0103
,
0200
1000
0010
0310
,
0020
1000
0001
1030
,
2000
0000
0000
3000
,
0020
0000
0000
0030
,
0200
0000
0000
0300
,
0002
0000
2000
0000
,
0000
0000
3003
0000
;

//---------------dance-single - ----------------
#NOTEDATA:;
#CHARTNAME:;
#STEPSTYPE:dance-single;
#DESCRIPTION:;
#CHARTSTYLE:;
#DIFFICULTY:Easy;
#METER:3;
#RADARVALUES:0.137706,0.183397,0.056703,0.198459,0.000000,136.000000,128.000000,8.000000,28.000000,0.000000,0.000000,0.000000,0.000000,0.000000,0.137706,0.183397,0.056703,0.198459,0.000000,136.000000,128.000000,8.000000,28.000000,0.000000,0.000000,0.000000,0.000000,0.000000;
#CREDIT:;
#NOTES:
0000
0000
0000
0000
,
0000
0000
0000
0000
,
0000
0000
0000
0000
,
0000
0000
0000
0000
,
0000
0000
0000
0000
,
0000
0000
0000
0000
,
0000
0000
0000
0000
,
0000
0000
0000
0000
,
0020
0000
0030
0100
,
2000
3000
0002
0003
,
0200
0000
0300
0010
,
1000
0100
2000
3000
,
0010
0000
0001
0100
,
0002
0003
0020
0030
,
0200
0300
1000
0010
,
2000
0000
0000
3000
,
0100
0010
0100
0000
,
0001
0000
1000
1000
,
0010
0000
1001
0000
,
0100
0100
0001
0000
,
0010
0010
1000
0000
,
0010
0000
1000
0000
,
0110
0000
0001
0000
,
1000
1000
0010
0000
,
0100
0100
1000
0000
,
0010
0000
0100
0000
,
1001
0000
0020
0030
,
0100
1000
0200
0300
,
0001
0001
0020
0030
,
1000
0100
0001
0100
,
2000
3000
0002
0003
,
0010
0010
2000
3000
,
0100
0010
0200
0300
,
0001
1000
0010
0000
,
1001
0000
0010
0010
,
1000
0000
0100
0100
,
0010
0000
0001
0001
,
1000
0010
0001
0000
,
0110
0000
1000
0100
,
0010
0000
0100
0001
,
1000
0000
0010
0001
,
0010
1000
0100
0000
,
0002
0003
0010
0010
,
0200
0300
0020
0030
,
2000
3000
0001
0010
,
0100
0001
0100
0000
,
0020
0030
0100
0100
,
0002
0003
1000
1000
,
0020
0030
2000
3000
,
0100
1000
0001
0000
,
2002
0000
0000
3003
,
0220
0000
0000
0330
,
0100
1000
0100
0100
,
0010
0001
0010
0001
,
0100
0000
0000
0000
,
1000
0000
0000
0000
,
0001
0000
0000
0000
,
0010
0000
1001
0000
;

//---------------dance-single - ----------------
#NOTEDATA:;
#CHARTNAME:;
#STEPSTYPE:dance-single;
#DESCRIPTION:;
#CHARTSTYLE:;
#DIFFICULTY:Beginner;
#METER:1;
#RADARVALUES:0.095179,0.142642,0.021263,0.063790,0.000000,94.000000,91.000000,3.000000,9.000000,0.000000,0.000000,0.000000,0.000000,0.000000,0.095179,0.142642,0.021263,0.063790,0.000000,94.000000,91.000000,3.000000,9.000000,0.000000,0.000000,0.000000,0.000000,0.000000;
#CREDIT:;
#NOTES:
// measure 0
0000
0000
0000
0000
,  // measure 1
0000
0000
0000
0000
,  // measure 2
0000
0000
0000
0000
,  // measure 3
0000
0000
0000
0000
,  // measure 4
0000
0000
0000
0000
,  // measure 5
0000
0000
0000
0000
,  // measure 6
0000
0000
0000
0000
,  // measure 7
0000
0000
0000
0000
,  // measure 8
1000
0000
0000
0000
,  // measure 9
0001
0000
0000
0000
,  // measure 10
1000
0000
0000
0000
,  // measure 11
0001
0000
0000
0000
,  // measure 12
0010
0000
0000
0000
,  // measure 13
0100
0000
0000
0000
,  // measure 14
0010
0000
0000
0000
,  // measure 15
0100
0000
0000
0000
,  // measure 16
1001
0000
1001
0000
,  // measure 17
0000
0000
0000
0000
,  // measure 18
0100
0100
0100
0000
,  // measure 19
0010
0000
0100
0000
,  // measure 20
0010
0000
1000
0000
,  // measure 21
0001
0000
1000
0000
,  // measure 22
0001
0000
0100
0000
,  // measure 23
1000
0000
0100
0000
,  // measure 24
1000
0000
0001
0000
,  // measure 25
0010
0000
0001
0000
,  // measure 26
0010
0000
1000
1000
,  // measure 27
1000
0000
0100
0100
,  // measure 28
0100
0000
1000
0000
,  // measure 29
0010
0000
0100
0000
,  // measure 30
0010
0000
0001
0001
,  // measure 31
0001
0000
0010
0010
,  // measure 32
0010
0000
0100
0000
,  // measure 33
0001
0000
1001
0000
,  // measure 34
0020
0000
0030
0000
,  // measure 35
0100
0000
0010
0000
,  // measure 36
0200
0000
0300
0000
,  // measure 37
0001
0000
1000
0000
,  // measure 38
0002
0000
0003
0000
,  // measure 39
1000
0000
0010
0000
,  // measure 40
2000
0000
3000
0000
,  // measure 41
0002
0000
0003
0000
,  // measure 42
0100
0000
0010
0000
,  // measure 43
0100
0000
0001
0000
,  // measure 44
1000
0000
0001
0000
,  // measure 45
0100
0000
1000
0000
,  // measure 46
0100
0100
0100
0000
,  // measure 47
1000
0000
0010
0000
,  // measure 48
1000
0000
0001
0000
,  // measure 49
0010
0000
0100
0000
,  // measure 50
0010
0010
0010
0000
,  // measure 51
0100
0100
0100
0000
,  // measure 52
1000
1000
1000
0000
,  // measure 53
0001
0001
0001
0000
,  // measure 54
2000
0000
3000
0000
,  // measure 55
0200
0000
0300
0000
,  // measure 56
0002
0000
0003
0000
,  // measure 57
0020
0000
0030
0000
;
