#TITLE:Raikun;
#SUBTITLE:;
#ARTIST:PON;
#TITLETRANSLIT:;
#SUBTITLETRANSLIT:;
#ARTISTTRANSLIT:;
#GENRE:;
#CREDIT:;
#BANNER:Raikun.png;
#BACKGROUND:Raikun-bg.png;
#LYRICSPATH:;
#CDTITLE:;
#MUSIC:Raikun.mp3;
#OFFSET:-0.405057;
#SAMPLESTART:57.710999;
#SAMPLELENGTH:15.000000;
#SELECTABLE:YES;
#BPMS:0.000000=181.000000
;
#STOPS:
;
#BGCHANGES:;
#KEYSOUNDS:;
#ATTACKS:;

//---------------dance-single - ----------------
#NOTES:
     dance-single:
     :
     Hard:
     12:
     0.642344,0.787743,0.285185,0.560863,0.342222,473.000000,443.000000,30.000000,59.000000,0.000000,0.000000,0.642344,0.787743,0.285185,0.560863,0.342222,473.000000,443.000000,30.000000,59.000000,0.000000,0.000000:
0100
1000
0001
0020
0000
0000
1030
0001
0010
0200
0000
0000
,
0310
0001
0010
0001
0000
0000
1100
0000
0000
0101
0000
0000
,
0001
0100
0010
1000
0000
1000
0100
0010
1000
0001
0000
0001
,
0100
0010
0100
0010
1000
0100
0010
1000
0001
0010
0000
0000
,
1001
2002
3003
0220
,
0330
0000
0000
0100
1000
0100
1000
0000
0000
1010
0000
0000
,
2020
3030
0202
0303
,
0001
0000
0010
0000
0001
0000
0010
0000
0000
0000
0000
0000
0200
0000
0000
0010
0000
0000
0000
0000
0000
0010
0000
0000
,
2300
0000
0001
0000
0000
0000
3001
0010
0002
0000
0100
0000
0000
0000
0100
0000
,
0003
0100
0010
1000
0001
0000
1001
0000
,
0010
1010
2200
0300
,
0020
0000
3030
0000
0100
0001
0010
0001
,
1000
1000
1000
0010
0001
0010
0100
1000
,
0001
0001
0001
0010
0100
1000
0100
0001
,
0010
0010
0010
0100
0010
0001
0010
1000
,
0010
0000
0000
0100
0000
0000
0110
0000
0000
0000
0000
0000
0010
0000
1000
0000
0100
0000
0002
0000
0000
0000
0000
0000
,
0003
0000
0010
0100
0010
1000
0100
0001
0010
0200
0000
0000
,
0300
0022
0000
0033
1000
0000
0010
0100
,
0000
0010
0000
0001
0100
0000
0001
0010
,
0000
1000
0000
0010
1000
0000
0100
0010
,
0000
1000
0000
0200
1000
0000
0010
0000
,
0001
0000
0310
0000
0001
0000
1000
0001
,
0000
0100
0100
1000
0001
0000
0010
1000
,
0000
0001
0000
0010
0100
0000
0010
0001
,
0000
1000
0000
0002
0100
0000
1000
0000
,
0010
0000
1003
0000
0010
1000
0010
0100
,
0000
0001
1000
0000
0100
0010
0100
0001
,
0000
0001
0010
0000
1000
0001
0010
0001
,
0000
0100
0010
2000
0010
0000
0001
0000
,
0100
0000
3001
0000
0010
0000
0001
0010
,
0000
1000
0001
0100
0001
0000
1000
0010
,
0000
0100
1000
0100
0010
0000
1000
0001
,
0000
0100
0000
0020
0100
0000
0000
1000
,
0000
0000
0001
0000
0030
1010
0000
0000
,
0011
0000
0000
0000
0100
0000
0000
0000
0001
0000
0000
0010
0000
0000
0001
0000
,
1000
1000
0000
0101
0000
0010
0001
1000
,
0200
0000
0000
0000
1300
0000
0000
0000
0010
0000
0000
1000
0000
0000
0010
0000
,
0100
0010
0000
1001
0000
0001
1000
0010
,
0002
0010
0013
0000
0100
0010
0100
1000
,
0001
0001
0000
0011
0000
0010
1000
0100
,
2000
0000
0001
0000
3000
0000
0000
0000
0100
0000
0000
0001
0000
0000
0010
0000
,
1000
0100
0000
2001
0000
0001
3010
0001
,
0010
0000
0000
0100
0000
0000
0010
0000
0000
0100
0000
0000
1000
0000
0100
0000
1000
0000
0100
0000
0000
0000
0000
0000
,
0110
0000
0000
0000
0010
0000
0001
0000
0010
0000
0000
1000
0000
0000
0100
0000
,
1000
0000
0000
0010
0000
0000
0100
0000
0020
0000
0000
0000
0030
0000
0001
0000
,
0100
0000
1000
0000
0010
0000
1000
0000
0001
0000
0000
0010
0000
0000
0100
0000
,
0001
0000
0000
1000
0000
0000
0010
0000
0200
0000
0000
0000
0310
0000
0000
0000
,
0010
0000
0001
0000
1000
0000
0010
0000
1000
0000
0000
0010
0000
0000
0100
0000
,
0001
0000
0000
0010
0000
0000
0100
0000
0010
0000
0000
1000
0000
0000
0001
0000
,
0100
0000
0000
0001
0000
0000
0010
0000
2000
0000
0000
0000
3001
0000
0000
0000
,
0020
0032
0203
0001
,
0310
0000
0010
0000
0100
0000
0010
0000
1000
0000
0000
0001
0000
0000
0010
0000
,
0100
0000
0000
1000
0000
0000
0010
0000
0001
0000
0000
0000
0100
0000
0010
0000
,
1000
0000
0010
0000
0001
0000
0100
0000
0010
0000
0000
1000
0000
0000
0100
0000
,
0001
0000
0000
1000
0000
0000
0010
0000
0100
0000
1000
0000
0001
0000
1000
0000
,
0000
0000
0010
0000
0001
0000
0100
0000
0010
0000
0000
1000
0100
0000
1000
0000
,
0001
0000
0000
0010
0100
0000
0010
0000
0001
0000
0000
1000
0001
0000
1000
0000
,
0100
0000
0000
0010
0100
0000
0010
0000
2000
0000
0000
0000
3001
0000
0000
0000
,
0012
0203
0320
2030
,
3002
0000
0000
0203
0000
0000
0310
0000
0000
0010
0000
0001
,
1000
0000
0000
1000
0000
0010
0100
0000
0000
0100
0000
1000
,
0001
0000
0000
0001
0000
0010
0100
1000
0010
0001
0000
0000
,
0010
0001
1000
0100
0000
0000
0010
1000
0010
0100
0001
0010
,
1000
0100
0001
0000
0000
0000
0022
0000
0000
0033
0000
0000
,
0100
0000
1000
0000
0010
0000
0100
0000
0001
0000
0010
0001
0010
0000
0200
0000
,
0000
1300
0010
1000
0001
0001
0100
0100
,
0010
0010
1000
1000
0001
0100
0010
0100
,
0000
1000
0002
0000
1003
0000
1010
0000
,
0100
0000
0001
0000
0100
0000
0010
0000
0000
1000
0000
0000
0010
0000
0000
0001
0000
0000
0001
0000
0000
0010
0000
0000
,
0200
0000
0310
0000
1000
0100
1000
1000
,
0010
0100
0010
0010
2000
0000
3002
0000
,
0203
0310
1100
2200
,
3300
0000
0000
2020
0000
0000
3030
0000
0000
0100
0001
0100
,
0001
0011
0022
0033
,
0202
0000
0000
0303
0000
0000
1000
0010
1000
0010
0000
0000
,
2002
0000
0000
0000
3003
0000
0000
0000
0000
0000
0000
0000
;

//---------------dance-single - ----------------
#NOTES:
     dance-single:
     :
     Medium:
     9:
     0.448147,0.465742,0.171111,0.446789,0.009506,330.000000,312.000000,18.000000,47.000000,0.000000,0.000000,0.448147,0.465742,0.171111,0.446789,0.009506,330.000000,312.000000,18.000000,47.000000,0.000000,0.000000:
2000
0000
3002
0000
,
0203
0000
0310
0110
,
0001
0001
0100
0100
,
1000
0010
0100
0001
,
0200
2000
3300
0022
,
0033
1000
1000
0020
,
0200
0330
0202
0303
,
0001
0001
0020
1000
,
2030
0000
0100
3000
0200
0000
0001
0000
,
0301
0000
0010
0001
0010
0000
0100
0000
,
1000
0010
2000
3001
,
2000
3010
0002
0100
,
0203
0010
0320
1000
,
1030
0100
1000
0000
0001
0000
0100
0000
,
0001
0000
0010
0000
0100
0000
0100
0010
,
0100
1001
0001
0002
,
0003
0000
1000
0001
0000
0000
0100
0000
0000
0200
0000
0000
,
0300
0000
0110
0000
0000
0000
1000
0000
0000
0010
0000
0000
,
0100
0000
0001
0100
0001
0000
1000
0000
,
0010
0000
0100
0010
0100
0000
0001
0000
,
1000
0000
0010
1000
0010
0000
1000
0000
,
0100
1100
0010
0100
,
0001
0000
1000
0001
1000
0000
0100
0000
,
1000
0000
0010
0100
0010
0000
0001
0000
,
1000
0000
0100
0001
0100
0000
1000
0000
,
0010
1010
0001
0100
,
0010
0000
1000
0100
1000
0000
0001
0000
,
0010
0000
0100
0010
0100
0000
1000
0000
,
0001
0000
0100
1000
0100
0000
0001
0000
,
1000
1001
0100
0010
,
1000
0000
0001
0100
0001
0000
0010
0000
,
1000
0000
0010
1000
0010
0000
0100
0000
,
1000
0000
0001
1000
0002
0000
0000
2003
,
0000
0000
3020
0000
0000
0230
0000
0000
,
0310
1001
1000
0001
,
0100
0100
0000
1100
0000
1000
0010
0000
,
0020
0130
0001
0100
,
1000
1000
0000
1010
0000
0000
0010
0000
,
0100
0001
0100
0000
0010
0000
1000
0000
,
0001
0001
0000
1001
0000
0000
1000
0000
,
0200
0001
0301
0000
1000
0000
0010
0000
,
1000
0001
0000
0002
0000
0000
0100
0000
,
0010
0000
0100
0000
1003
0010
1000
0000
,
1100
0000
0100
0010
0100
0000
0001
0000
,
0010
0000
1000
0100
1000
0000
1000
0000
,
0001
0100
0001
0000
0100
0000
0010
0000
,
1000
0010
0100
0100
,
0001
0010
0001
0000
1000
0000
1000
0000
,
0010
0010
0100
0100
,
0001
0001
2000
3000
,
0010
0100
0020
1000
,
1030
0000
0001
1000
0010
0000
0100
0000
,
0010
0000
1000
0100
1000
0000
0001
0000
,
1000
0000
0001
0010
0001
0000
0100
0000
,
0001
0000
0010
0100
0010
0000
1000
0000
,
0010
0000
1000
0100
0010
0000
0010
0000
,
0100
0100
1000
1000
,
0001
0001
2002
3003
,
0100
0001
0010
1000
,
0100
0001
0200
0000
,
0302
0000
0023
0000
,
2030
0000
3100
0100
,
1000
1000
0010
0100
,
0001
0101
0200
0000
,
0301
0000
0001
0000
1000
0000
0010
1000
,
0000
1000
0010
0000
0001
0000
0100
0000
,
1000
0000
0100
0000
0010
0000
1000
0001
,
0000
1000
0100
0000
0001
0000
0100
0000
,
0001
0010
0100
0000
0010
0000
1000
0000
,
0010
1000
0100
0000
0001
0000
0001
0000
,
1000
1000
0010
0100
,
0001
1000
0020
0002
,
0033
2020
3030
0100
,
0100
2000
0200
3300
,
0202
0303
0010
0010
,
2002
0000
0000
3003
0000
0000
0000
0000
;

//---------------dance-single - ----------------
#NOTES:
     dance-single:
     :
     Easy:
     5:
     0.297407,0.320833,0.161605,0.275679,0.000000,219.000000,202.000000,17.000000,29.000000,0.000000,0.000000,0.297407,0.320833,0.161605,0.275679,0.000000,219.000000,202.000000,17.000000,29.000000,0.000000,0.000000:
0020
0000
2030
0000
,
3002
0000
0203
0000
,
0302
0000
2003
0000
,
3200
0000
0320
0000
,
0031
0001
0000
1001
,
0000
0100
1000
0100
,
0100
0000
0110
0000
,
0010
0001
0020
0000
,
0032
0000
2003
0000
,
3000
0100
0010
0010
,
0100
0010
1000
0000
,
1001
0000
0100
1000
,
0100
0000
0010
0001
,
0010
0000
1000
0100
,
0001
0100
1000
0000
,
0110
0000
1000
2000
,
3000
0001
0100
0200
,
0300
0110
0010
0000
,
1000
0010
1000
0000
,
0001
1000
0001
0000
,
0010
0100
0010
0000
,
1001
0000
1000
0000
,
0010
0001
0010
0000
,
0100
0010
0100
0000
,
1000
0100
1000
0000
,
0110
0000
0001
0010
,
0001
0000
1000
0010
,
1000
0000
0100
1000
,
0100
0000
0010
0001
,
0010
0000
1000
0001
,
1000
0000
0010
0100
,
0010
0000
0100
0001
,
0100
0000
2000
3000
,
0002
0003
2002
3003
,
0220
0330
0100
0010
,
0100
0000
0010
0010
,
1000
0000
0001
0010
,
0001
0000
1000
1000
,
0001
0000
0100
1000
,
0100
0000
0010
0010
,
0100
0000
0001
0100
,
0010
0000
0200
0000
,
0010
0000
0010
0300
,
1001
0000
1000
0000
,
0010
1000
0010
0000
,
0001
0100
0001
0000
,
0010
0001
0010
0000
,
0100
0100
1000
0100
,
1000
0000
0001
0010
,
0001
0000
1000
0000
,
0001
0000
0020
0000
,
0030
0000
0100
0001
,
0100
0000
1000
0010
,
1000
0000
0100
1000
,
0100
0000
0001
0010
,
0001
0000
1000
0000
,
0010
0000
0100
0000
,
0001
0000
0110
0000
,
0100
0010
1000
0001
,
1000
0000
0002
0000
,
0023
0000
0230
0000
,
2300
0000
3200
0000
,
0320
0000
2030
0000
,
3002
0003
0110
0000
,
0010
0000
0100
0001
,
0100
0000
0001
0001
,
1000
1000
0010
0000
,
1001
0000
1000
0100
,
1000
0000
0010
0100
,
0010
0000
0001
0010
,
0001
0000
1000
0000
,
1001
0000
0010
0010
,
0000
0110
0000
1000
,
0001
1000
1000
0000
,
1001
0000
0100
0100
,
0110
0000
0000
0000
;

//---------------dance-single - ----------------
#NOTES:
     dance-single:
     :
     Beginner:
     4:
     0.218642,0.285185,0.085555,0.228148,0.000000,161.000000,152.000000,9.000000,24.000000,0.000000,0.000000,0.218642,0.285185,0.085555,0.228148,0.000000,161.000000,152.000000,9.000000,24.000000,0.000000,0.000000:
// measure 0
2000
0000
3000
0000
,  // measure 1
0002
0000
0003
0000
,  // measure 2
0020
0000
0030
0000
,  // measure 3
0200
0000
0300
0000
,  // measure 4
0001
0001
0000
0001
,  // measure 5
0000
0001
0000
0010
,  // measure 6
0010
0000
0010
0000
,  // measure 7
0010
0000
2000
0000
,  // measure 8
3000
0000
0002
0000
,  // measure 9
0003
0000
0020
0000
,  // measure 10
0030
0000
0200
0000
,  // measure 11
0300
0000
1000
0000
,  // measure 12
1000
0000
0010
0000
,  // measure 13
0010
0000
0100
0000
,  // measure 14
0100
0000
0001
0000
,  // measure 15
0001
0000
0020
0000
,  // measure 16
0030
0000
0200
0000
,  // measure 17
0300
0000
1000
0000
,  // measure 18
1000
0000
0001
0000
,  // measure 19
0001
0000
0010
0000
,  // measure 20
0010
0000
0100
0000
,  // measure 21
0110
0000
0010
0000
,  // measure 22
0010
0000
1000
0000
,  // measure 23
1000
0000
0100
0000
,  // measure 24
0100
0000
0001
0000
,  // measure 25
1001
0000
1000
1000
,  // measure 26
1000
0000
0010
0010
,  // measure 27
0010
0000
0100
0100
,  // measure 28
0100
0000
0010
0000
,  // measure 29
0110
0000
0001
0001
,  // measure 30
0001
0000
1000
1000
,  // measure 31
1000
0000
0010
0010
,  // measure 32
0010
0000
0001
0000
,  // measure 33
1001
0000
0100
0000
,  // measure 34
0110
0000
1000
0000
,  // measure 35
2000
3000
0100
0100
,  // measure 36
0100
0000
0001
0000
,  // measure 37
0002
0003
1000
1000
,  // measure 38
1000
0000
0100
0000
,  // measure 39
0200
0300
0010
0010
,  // measure 40
0010
0000
0001
0000
,  // measure 41
1000
0000
2002
0000
,  // measure 42
0000
0000
3003
0000
,  // measure 43
1001
0000
0010
0000
,  // measure 44
0010
0000
0020
0030
,  // measure 45
0100
0100
0100
0000
,  // measure 46
0100
0000
0200
0300
,  // measure 47
1000
1000
1000
0000
,  // measure 48
0001
0000
1000
0000
,  // measure 49
0001
0000
2000
0000
,  // measure 50
3000
0000
2002
0000
,  // measure 51
3003
0000
0010
0000
,  // measure 52
0010
0000
0100
0000
,  // measure 53
0100
0000
1000
0000
,  // measure 54
1000
0000
0001
0000
,  // measure 55
0001
0000
1000
1000
,  // measure 56
1000
0000
0001
0001
,  // measure 57
0001
0000
0100
0000
,  // measure 58
0100
0000
0010
0000
,  // measure 59
0010
0000
2000
0000
,  // measure 60
3000
0000
0002
0000
,  // measure 61
0003
0000
0020
0000
,  // measure 62
0030
0000
0200
0000
,  // measure 63
0300
0000
0001
0000
,  // measure 64
1000
0000
0001
0000
,  // measure 65
1000
0000
0010
0000
,  // measure 66
0100
0000
0010
0000
,  // measure 67
0100
0000
0001
0001
,  // measure 68
0001
0000
1000
1000
,  // measure 69
1000
0000
0010
0010
,  // measure 70
0010
0000
0100
0100
,  // measure 71
0100
0000
1000
1000
,  // measure 72
0000
1000
0000
1000
,  // measure 73
0000
0100
0100
0000
,  // measure 74
0100
0000
0100
0000
,  // measure 75
1001
0000
0000
0000
;
