#TITLE:Purple storm;
#SUBTITLE:;
#ARTIST:Trick Trap;
#TITLETRANSLIT:;
#SUBTITLETRANSLIT:;
#ARTISTTRANSLIT:;
#GENRE:;
#CREDIT:;
#BANNER:Purple storm.png;
#BACKGROUND:Purple storm-bg.png;
#LYRICSPATH:;
#CDTITLE:;
#MUSIC:Purple storm.ogg;
#OFFSET:0.690757;
#SAMPLESTART:40.298000;
#SAMPLELENGTH:15.000000;
#SELECTABLE:YES;
#BPMS:0.000000=240.000000
;
#STOPS:
;
#BGCHANGES:4.000=Purple storm.avi=1.000=0=0=0=StretchNoLoop====,
408.500=Purple storm-bg.png=1.000=0=0=1=====,
99999=-nosongbg-=1.000=0=0=0 // don't automatically add -songbackground-
;
#KEYSOUNDS:;
#ATTACKS:;

//---------------dance-single - ----------------
#NOTES:
     dance-single:
     :
     Hard:
     14:
     0.721765,0.813684,0.496799,0.562414,0.000000,539.000000,486.000000,53.000000,60.000000,0.000000,0.000000,0.721765,0.813684,0.496799,0.562414,0.000000,539.000000,486.000000,53.000000,60.000000,0.000000,0.000000:
0000
0000
0000
0000
,
0010
0000
1000
0100
1000
0000
0001
0010
,
0011
0000
0101
0000
0100
0000
0001
1000
,
0001
0000
0010
1000
1010
0000
1100
0000
,
0020
0000
0000
2030
0000
0000
3200
0000
,
0000
2300
0000
0000
3002
0000
0000
0023
,
0000
0000
0230
0000
0000
0302
0000
0000
,
1003
0000
1000
0100
1000
0100
0010
0100
,
0010
0001
0010
0001
0200
0000
0000
0000
,
0000
0002
0000
0300
,
2000
0000
0003
0020
,
0000
0000
3000
0000
1030
0000
0100
1000
,
0000
0100
1000
0000
0001
1000
0000
0001
,
0100
0000
1000
0100
0000
1000
0010
0000
,
0100
0010
0100
0000
0001
0000
0100
1000
,
0000
0001
0010
0000
0100
0010
0000
0100
,
0001
0000
1000
0100
0000
0001
0010
0000
,
0010
1000
0010
0000
0100
1000
0100
0001
,
0000
0001
1000
0100
0001
0010
0000
0010
,
0001
1000
0001
0100
0000
0100
1000
0000
,
0010
0001
1000
0000
0100
0001
0010
0001
,
0010
0000
0001
0010
1000
0010
1000
0000
,
0100
0010
1000
0100
0001
0010
2000
0000
,
0001
3001
1000
1001
,
0010
0100
0010
0000
1010
0000
0100
1000
,
0100
0000
1100
0000
0001
0100
1000
0000
,
0011
0100
1000
0001
,
0101
0010
1000
1100
,
0001
1010
1001
0011
,
0101
0000
1100
0000
0200
0000
0300
0001
,
0010
0100
0001
0100
1000
0010
0000
0100
,
1000
0000
0100
0001
0000
0010
1000
0000
,
1000
0100
1000
0000
0100
0010
1000
0001
,
0100
0000
1000
0010
0100
1000
0001
0000
,
1000
0000
1000
0010
0000
0010
0001
0000
,
1000
0000
0101
0000
0010
0000
0001
1000
,
0001
0000
0100
0001
0101
0000
1100
0000
,
0001
0000
0010
0100
0010
0000
0001
0010
,
0110
0000
0101
0000
0100
0000
0001
0100
,
0001
0000
1000
0010
0110
0000
1100
0000
,
0010
0000
0001
0100
1000
0000
1001
0000
,
0010
0000
1000
0000
0021
0000
0000
2000
,
0030
0000
0200
3000
0000
0020
0300
0000
,
1030
0100
1000
0102
,
0000
2000
0003
0000
0020
3000
0000
0002
,
0030
0103
1000
0010
,
1200
0000
0000
0020
0300
0000
0032
0000
,
0000
0023
0000
0000
2000
0030
0000
0200
,
3000
0000
0020
0300
0000
2030
0000
0000
,
3100
0000
0000
0101
0000
0000
0011
0000
,
0000
1001
0000
0000
0120
0000
0000
2000
,
0030
0000
0002
3000
0000
0020
0003
0000
,
0130
1000
0001
2010
,
0000
0020
3000
0000
2000
0030
0000
0002
,
3000
1003
0100
0010
,
0012
0000
0000
1000
0003
0000
1020
0000
,
0000
0001
0030
0000
0100
0000
0010
0000
,
1010
2000
0000
0010
,
0000
0010
3000
0010
,
0001
0100
1100
0101
,
1000
0000
0100
0000
1000
0000
0010
0100
,
0001
0000
0100
0000
0010
0000
0100
0010
,
1000
0000
1001
0000
0011
0000
0100
1000
,
0010
1000
0100
0000
0001
0010
1000
0100
,
1000
0000
0001
0100
1000
0100
0010
0000
,
0011
0000
1100
0000
0010
0001
1000
0100
,
0000
0100
0010
0001
1000
0001
0000
0001
,
0010
0100
0010
0001
0100
0000
1010
0000
,
0110
0000
0022
0000
0033
0000
0100
1000
,
0010
0100
0010
0100
0001
0010
1000
0001
,
0010
0100
1000
0001
1000
0100
0001
0010
,
0001
1000
0200
0000
0000
0000
0000
0000
,
0010
0000
0010
0000
0310
0000
1000
0100
,
1000
0100
0000
0000
0010
0100
0010
0100
,
0000
0000
0100
1000
0100
0010
0001
1000
,
0010
0000
1000
0001
0100
0000
1000
0100
,
0010
0001
0010
0001
0100
0010
1000
0001
,
1000
0001
0010
1000
0100
0001
0100
1000
,
0010
0000
1001
0000
1100
0000
0001
0010
,
0100
0010
0001
0000
0100
1000
0100
0010
,
0100
0000
1000
0010
0100
0010
0001
0100
,
1000
0000
1000
0010
1000
0000
0100
0001
,
0100
1000
0000
1000
0010
0100
0010
0001
,
0000
0001
1000
0100
0010
0100
1000
0010
,
0001
0010
1000
0100
0001
0000
0200
0000
,
0000
0020
0300
0000
2000
0030
0000
0002
,
3000
0103
1000
0010
,
0200
0000
0000
0002
0300
0000
2000
0003
,
0000
0002
3000
0000
0013
0000
1000
0000
,
0100
0000
0020
0000
0000
0200
0030
0000
,
0020
0300
0000
2000
0030
0000
0002
3000
,
0000
0020
0003
0000
0230
0000
0000
2000
,
0300
0000
3001
0000
0000
0110
0000
0000
,
1010
0000
0000
1001
0000
0000
0010
0000
,
0100
1000
0000
1000
0001
0000
1000
0010
,
0000
0010
0001
0000
0011
0000
1100
0000
,
0100
0001
0100
0010
0000
0010
1000
0001
,
1000
0100
0000
0100
1000
0000
0110
0000
,
0101
0000
0010
0100
1000
0001
0010
0000
,
0001
0100
0010
0001
0100
0000
1000
0010
,
0100
1000
0001
0100
0010
0100
0001
0100
,
1000
0000
1000
0010
0100
0001
0100
0010
,
0000
1001
0000
0000
0000
0000
0000
0000
;

//---------------dance-single - ----------------
#NOTES:
     dance-single:
     :
     Medium:
     10:
     0.503494,0.576474,0.299954,0.449931,0.000000,376.000000,344.000000,32.000000,48.000000,0.000000,0.000000,0.503494,0.576474,0.299954,0.449931,0.000000,376.000000,344.000000,32.000000,48.000000,0.000000,0.000000:
0000
0000
0000
0000
,
2000
0100
3200
1300
,
0001
1000
0002
0013
,
0020
0130
0010
1000
,
0010
0000
0000
0100
0000
0000
1000
0000
,
0000
0110
0000
0000
0001
0000
0000
0010
,
0000
0000
1000
0000
0000
1001
0000
0000
,
1000
0001
0010
0001
,
0010
0100
2000
0000
,
3000
0002
0000
0003
,
0200
0000
0300
2002
,
0000
3003
0200
0000
,
0301
0002
0000
1003
,
2000
0000
3100
0020
,
0000
0130
0001
1000
,
0001
0010
0100
0010
,
0001
0100
1000
2000
,
0000
3000
0020
1000
,
0130
0200
0001
1300
,
2000
0001
3010
0020
,
0001
0031
0010
0001
,
1000
0100
0010
0001
,
0010
1000
0100
0202
,
0000
0303
0200
0000
,
1300
2000
0000
3001
,
0002
0010
1003
0020
,
0100
0130
0001
0000
,
0011
0010
0000
0110
,
0100
0000
1010
1000
,
0001
0100
2000
0000
,
3010
0001
0100
0010
,
0100
1000
1000
0020
,
0000
0000
0030
0000
1000
0000
1000
0010
,
0000
0010
0100
0000
0100
0001
0000
0001
,
0200
0000
0300
0001
,
0010
1000
0020
0001
,
2030
0100
3010
0001
,
0002
1000
0023
0001
,
0130
0001
2000
0001
,
3020
1000
0130
1000
,
0010
0000
1000
0001
1000
0000
0200
0000
,
0001
0000
0310
0000
0010
0000
0000
0110
,
0000
0000
1000
0000
0000
1010
0000
0000
,
0100
1000
0100
0001
,
0000
0101
0000
0000
0010
0000
0000
0011
,
0000
1000
0010
0100
,
1000
0000
0000
1010
0000
0000
0001
0000
,
0000
0101
0000
0000
0100
0000
0000
1001
,
0000
0000
0010
0000
0000
0110
0000
0000
,
0010
0000
0000
0100
0000
0100
1000
0000
,
1000
0001
0000
0000
0100
0000
0000
0100
,
0000
0000
0001
0000
0000
0001
0000
0000
,
1000
0001
1000
0001
,
0000
0010
0000
0000
0100
0000
0000
0001
,
0000
1000
0010
0100
,
0001
0000
0000
1000
0000
0000
0010
0000
,
0000
0001
0000
0000
0002
0000
2003
0000
,
3020
0130
0000
1000
,
0000
0010
0000
1001
,
0000
1000
0001
0001
,
0010
0000
1000
0000
,
0001
0000
1100
0000
,
0010
1000
1000
0100
,
0000
0100
1000
0010
,
0000
0100
0001
0100
,
0010
0010
1000
0100
,
0001
1000
0100
0000
,
1000
0001
0010
1000
,
1000
0020
0000
0031
,
1000
0010
1000
0100
,
0001
1000
0001
0010
,
1000
0002
0000
0000
,
0000
0000
0003
1000
,
0000
0001
0000
0001
0010
0000
0000
0100
,
0000
0100
0001
0000
0000
1000
0000
1000
,
0010
1000
0001
0010
,
1000
0001
0000
0001
0010
0000
1000
0010
,
0000
0010
0100
0000
1000
0001
0000
1000
,
0010
0100
1000
0110
,
0100
1000
0000
0000
0011
0000
0010
0100
,
0000
0000
1001
0000
0100
0001
0000
0001
,
0010
1000
0100
1010
,
1000
0100
0011
0100
,
0001
1100
0010
0001
,
0110
0200
0302
1003
,
0000
0110
0000
0000
0100
0000
0000
1001
,
0000
0010
0100
0001
,
0010
0000
0000
0101
0000
0000
1000
0000
,
0000
0011
0000
0000
0010
0000
0100
0000
,
1000
0000
0010
0000
0000
1100
0000
0000
,
0010
0000
0000
0110
0000
0000
0001
0000
,
0000
1010
0000
0000
1000
0000
0000
0101
,
0000
0000
1000
0000
0000
0010
0000
0010
,
0100
0000
0100
0001
0000
0000
0010
0000
,
1000
0100
0001
1000
,
0010
0002
0100
1000
,
0013
1000
0001
0100
,
1000
0100
0020
0001
,
1000
0130
0001
0100
,
0100
0010
0001
2000
,
3020
0230
0310
0001
,
1000
0000
0001
0000
0010
0000
0100
2000
,
0000
0002
0000
0000
3003
0000
0000
0000
;

//---------------dance-single - ----------------
#NOTES:
     dance-single:
     :
     Easy:
     7:
     0.370925,0.430774,0.103109,0.234339,0.000000,277.000000,266.000000,11.000000,25.000000,0.000000,0.000000,0.370925,0.430774,0.103109,0.234339,0.000000,277.000000,266.000000,11.000000,25.000000,0.000000,0.000000:
0000
0000
0000
0000
,
0010
0000
0100
0000
,
1000
1000
0001
0000
,
1000
0000
0100
0100
,
0001
0000
1000
0000
,
0100
0000
0010
0000
,
0100
0000
1000
0000
,
0002
0000
0013
1000
,
0100
0000
0200
0000
,
0300
0020
0000
0030
,
0002
0000
0003
2000
,
0000
3000
1000
0000
,
0100
1000
0000
0010
,
0001
0000
1000
0001
,
0000
0001
1000
0000
,
1000
0100
0000
0100
,
0010
0000
0010
0002
,
0000
0003
0010
0000
,
1000
0010
0000
0100
,
0001
0000
0010
0200
,
0000
0300
1000
0010
,
0100
0010
0001
1000
,
0200
0000
0300
2002
,
0000
3003
0100
0000
,
0010
1000
0000
0100
,
1000
0000
0001
0010
,
0000
0100
0010
0000
,
1000
0010
0000
0010
,
0001
0000
0001
0100
,
1000
0010
0001
0000
,
0001
0010
0000
0010
,
0100
0000
0100
1000
,
0000
1000
0100
0001
,
0100
0010
1000
0100
,
0002
0000
0003
0220
,
0000
0330
0020
0000
,
2030
0000
3010
0010
,
0002
0000
0203
0000
,
1300
1000
2000
0000
,
3020
0000
0130
0100
,
0020
0000
1030
0010
,
0001
0100
1000
0000
,
0001
0000
1001
0000
,
0100
0010
0001
0100
,
0000
0010
0000
0110
,
0000
0100
1000
0010
,
0001
0000
0001
1000
,
0000
1000
0100
0000
,
0100
0010
0000
0010
,
1000
0000
0000
0100
0000
0000
0010
0000
,
0000
1000
0000
0000
0001
0000
0000
0000
,
0100
0000
0101
0000
,
1000
0010
0001
0001
,
0000
0010
0000
0011
,
0000
0100
0010
1000
,
0100
0000
1000
0000
,
1100
0000
0010
0010
,
0010
0100
0000
0010
,
0000
1000
0000
0001
,
0000
0001
1000
0010
,
0001
0000
1000
0000
,
0010
0000
1000
0000
,
0100
0010
1000
1000
,
0000
0010
0000
0100
,
0000
1000
0000
1000
,
0010
0100
0001
0000
,
0100
0000
0010
0000
,
0100
0000
0010
0010
,
0001
2000
0000
3010
,
0100
0001
0010
1000
,
0100
0001
1000
0010
,
0100
0010
0000
0000
,
0000
0000
0000
0010
,
0000
0010
1000
0000
,
1000
0100
0000
0100
,
1000
0000
1000
0010
,
0000
0001
1000
0000
,
0010
0100
0000
1000
,
0010
0000
0100
0010
,
0000
0100
0000
0000
0010
0000
0000
1001
,
0000
0000
1000
0000
0000
0010
0000
0000
,
0100
0000
0000
0110
0000
0000
2000
0000
,
0000
3010
0002
0000
,
0103
0020
0000
0031
,
0100
0010
1000
0100
,
0000
0010
0000
0110
,
0000
1000
0100
0010
,
0001
0000
0010
0000
,
1001
0000
1000
0010
,
1000
0100
0000
0001
,
0100
0000
1000
0010
,
0000
1000
0100
0000
,
0100
0000
0001
0000
0000
0010
0000
0000
,
1000
0000
0000
0001
0000
0000
1000
0000
,
0000
0001
0010
0000
,
0001
0010
1000
0010
,
0100
0000
1000
0100
,
0000
0010
0100
1000
,
0010
0001
0000
1000
,
0010
0000
0001
0100
,
0010
0100
0010
0000
,
0100
0000
0010
0002
,
0000
0003
0000
0000
0000
0000
0000
0000
;

//---------------dance-single - ----------------
#NOTES:
     dance-single:
     :
     Beginner:
     3:
     0.176759,0.239319,0.065615,0.103109,0.000000,132.000000,125.000000,7.000000,11.000000,0.000000,0.000000,0.176759,0.239319,0.065615,0.103109,0.000000,132.000000,125.000000,7.000000,11.000000,0.000000,0.000000:
// measure 0
0000
0000
0000
0000
,  // measure 1
0010
0000
0000
0000
,  // measure 2
0000
0000
0100
0000
,  // measure 3
0000
0000
0000
0000
,  // measure 4
0001
0000
0000
0001
,  // measure 5
0000
0000
1000
0000
,  // measure 6
0000
1000
0000
0000
,  // measure 7
0010
0000
0010
0000
,  // measure 8
0010
0000
0220
0000
,  // measure 9
0000
0330
0000
0000
,  // measure 10
2002
0000
0000
3003
,  // measure 11
0000
0000
0100
0000
,  // measure 12
0000
0100
0000
0000
,  // measure 13
0010
0000
0000
0010
,  // measure 14
0000
0000
0001
0000
,  // measure 15
0000
0001
0000
0000
,  // measure 16
1000
0000
0000
1000
,  // measure 17
0000
0000
0010
0000
,  // measure 18
0000
0100
0000
0000
,  // measure 19
0010
0000
0000
0100
,  // measure 20
0000
0000
1000
0000
,  // measure 21
0000
0001
0000
0000
,  // measure 22
2000
0000
0000
3000
,  // measure 23
0000
0000
0001
0000
,  // measure 24
0000
0001
0000
0000
,  // measure 25
0100
0000
0000
0100
,  // measure 26
0000
0000
0010
0000
,  // measure 27
0000
0010
0000
0000
,  // measure 28
1000
0000
0000
1000
,  // measure 29
0000
0000
0010
0000
,  // measure 30
0000
0001
0000
0000
,  // measure 31
0010
0000
0000
1000
,  // measure 32
0000
0000
0100
0000
,  // measure 33
0000
1000
0000
0000
,  // measure 34
0001
0000
0000
1001
,  // measure 35
0000
0000
0100
0000
,  // measure 36
0000
0000
0010
0000
,  // measure 37
0010
0000
0000
0000
,  // measure 38
1000
0000
1000
0000
,  // measure 39
0000
0000
0001
0000
,  // measure 40
0001
0000
0000
0110
,  // measure 41
0000
0000
0010
0000
,  // measure 42
0000
0010
0000
0000
,  // measure 43
0010
0000
0000
0100
,  // measure 44
0000
0000
0100
0000
,  // measure 45
0000
0100
0000
0000
,  // measure 46
1000
0000
0000
1000
,  // measure 47
0000
0000
0001
0000
,  // measure 48
0000
0001
0000
0000
,  // measure 49
1000
0000
0000
0001
,  // measure 50
0000
0000
0100
0000
,  // measure 51
0000
0100
0000
0000
,  // measure 52
0100
0000
0000
0010
,  // measure 53
0000
0000
0010
0000
,  // measure 54
0000
0010
0000
0000
,  // measure 55
1000
0000
0000
0001
,  // measure 56
0000
0000
1001
0000
,  // measure 57
0000
0200
0000
0000
,  // measure 58
0000
0000
0000
0300
,  // measure 59
0000
0010
0000
0000
,  // measure 60
0020
0000
0000
0000
,  // measure 61
0000
0000
0030
0000
,  // measure 62
1000
0000
0000
2000
,  // measure 63
0000
0000
0000
0000
,  // measure 64
0000
3000
0000
0001
,  // measure 65
0000
0000
0002
0000
,  // measure 66
0000
0000
0000
0000
,  // measure 67
0003
0000
0100
0000
,  // measure 68
0000
0100
0000
0000
,  // measure 69
0010
0000
0000
0001
,  // measure 70
0000
0000
1000
0000
,  // measure 71
0000
2002
0000
0000
,  // measure 72
3003
0000
0000
0010
,  // measure 73
0000
0000
0010
0000
,  // measure 74
0000
0100
0000
0000
,  // measure 75
0100
0000
0000
0001
,  // measure 76
0000
0000
0001
0000
,  // measure 77
0000
1000
0000
0000
,  // measure 78
1000
0000
0000
0010
,  // measure 79
0000
0000
1000
0000
,  // measure 80
0000
0010
0000
0000
,  // measure 81
0001
0000
0000
0100
,  // measure 82
0000
0000
0001
0000
,  // measure 83
0000
0100
0000
0000
,  // measure 84
1000
0000
0000
0100
,  // measure 85
0000
0000
0100
0000
,  // measure 86
0000
0100
0000
0000
,  // measure 87
0001
0000
0000
0001
,  // measure 88
0000
0000
0001
0000
,  // measure 89
0000
1000
0000
0000
,  // measure 90
1000
0000
0000
1000
,  // measure 91
0000
0000
0001
0000
,  // measure 92
0000
0010
0000
0000
,  // measure 93
0100
0000
0000
0010
,  // measure 94
0000
0000
0010
0000
,  // measure 95
0000
0010
0000
0000
,  // measure 96
0100
0000
0000
0100
,  // measure 97
0000
0000
0100
0000
,  // measure 98
0000
0001
0000
0000
,  // measure 99
1000
0000
0000
0001
,  // measure 100
0000
0000
0010
0000
,  // measure 101
1000
0000
0100
0000
,  // measure 102
0000
0110
0000
0000
0000
0000
0000
0000
;
