#TITLE:Pure Evil;
#SUBTITLE:(Kobaryo FTN-Remix);
#ARTIST:Kobaryo;
#TITLETRANSLIT:;
#SUBTITLETRANSLIT:;
#ARTISTTRANSLIT:;
#GENRE:;
#CREDIT:;
#BANNER:Pure Evil (Kobaryo FTN-Remix).png;
#BACKGROUND:Pure Evil (Kobaryo FTN-Remix)-bg.png;
#LYRICSPATH:;
#CDTITLE:;
#MUSIC:Pure Evil (Kobaryo FTN-Remix).ogg;
#OFFSET:-0.607000;
#SAMPLESTART:19.638000;
#SAMPLELENGTH:15.000000;
#SELECTABLE:YES;
#BPMS:0.000000=95.000000
,16.000000=190.000000
,44.000000=380.000000
,58.000000=190.000000
,59.000000=380.000000
,89.000000=190.000000
,90.000000=380.000000
,119.000000=190.000000
,120.000000=380.000000
,127.000000=190.000000
,128.000000=380.000000
,129.000000=190.000000
,130.000000=380.000000
,230.000000=47.500000
,234.000000=95.000000
,242.000000=190.000000
,302.000000=380.000000
,422.000000=190.000000
,426.000000=380.000000
;
#STOPS:43.750000=1.263000,
105.750000=0.158000,
301.750000=1.263000
;
#BGCHANGES:;
#KEYSOUNDS:;
#ATTACKS:;

//---------------dance-single - ----------------
#NOTES:
     dance-single:
     :
     Beginner:
     6:
     0.302860,0.484792,0.017306,0.069225,0.000000,245.000000,243.000000,2.000000,8.000000,0.000000,0.000000,0.302860,0.484792,0.017306,0.069225,0.000000,245.000000,243.000000,2.000000,8.000000,0.000000,0.000000:
// measure 0
0000
0000
0000
0000
,  // measure 1
0000
0000
0000
0000
,  // measure 2
0000
0000
0000
0000
,  // measure 3
0000
0000
0000
0000
,  // measure 4
0200
0300
0000
0000
,  // measure 5
0000
0000
0000
0000
,  // measure 6
0200
0300
0000
0000
,  // measure 7
0000
0000
0010
0010
,  // measure 8
1000
1000
0001
0001
,  // measure 9
1000
1000
0001
0001
,  // measure 10
0100
0010
0100
0010
,  // measure 11
1000
0000
1000
0000
,  // measure 12
0001
0000
0001
0000
,  // measure 13
1000
0000
0001
0000
,  // measure 14
1000
0000
0001
0010
,  // measure 15
0000
0010
0000
0100
,  // measure 16
0000
0100
0000
0010
,  // measure 17
0000
0100
0000
0010
,  // measure 18
0000
0100
0000
0001
,  // measure 19
0000
0001
0000
1000
,  // measure 20
0000
1000
0000
0001
,  // measure 21
0000
1000
0000
0001
,  // measure 22
0000
1000
0100
0000
,  // measure 23
0100
0000
0010
0000
,  // measure 24
0010
0000
0100
0000
,  // measure 25
0010
0000
0100
0000
,  // measure 26
0010
0000
0000
1000
,  // measure 27
0000
0001
0000
1000
,  // measure 28
0000
0010
0000
0100
,  // measure 29
0000
0010
0000
0100
,  // measure 30
0001
0000
1000
0000
,  // measure 31
0001
0000
0100
0010
,  // measure 32
0000
1000
0001
0000
,  // measure 33
1000
0000
0010
0000
,  // measure 34
0100
0000
0010
0000
,  // measure 35
0100
0000
0001
0000
,  // measure 36
0100
0000
0001
0000
,  // measure 37
0100
0000
1000
0000
,  // measure 38
0010
0000
1000
0000
,  // measure 39
0010
0000
0100
0000
,  // measure 40
0010
0000
0100
0000
,  // measure 41
0010
0000
1000
0000
,  // measure 42
1000
0000
0001
0000
,  // measure 43
0001
0000
1000
0000
,  // measure 44
1000
0000
0001
0000
,  // measure 45
1000
0000
0010
0000
,  // measure 46
0010
0000
0100
0000
,  // measure 47
0010
0000
0100
0000
,  // measure 48
0100
0000
0010
0000
,  // measure 49
0100
0000
0001
0000
,  // measure 50
0010
0000
0001
0000
,  // measure 51
0100
0000
1000
0000
,  // measure 52
0010
0000
1000
0000
,  // measure 53
0100
0000
0010
0000
,  // measure 54
0100
0000
0010
0000
,  // measure 55
0001
0000
1000
0000
,  // measure 56
0001
0000
0100
0000
,  // measure 57
0010
0000
2002
3003
,  // measure 58
0000
0000
0000
0000
,  // measure 59
0000
0000
0000
0000
,  // measure 60
0000
0000
0100
0000
,  // measure 61
0100
0000
0010
0000
,  // measure 62
0010
0000
0100
0000
,  // measure 63
0010
0000
0100
0000
,  // measure 64
0010
0000
1000
0000
,  // measure 65
1000
0000
0001
0000
,  // measure 66
0001
0000
1000
0000
,  // measure 67
0001
0000
1000
0000
,  // measure 68
0001
0000
0100
0100
,  // measure 69
0100
0000
0010
0010
,  // measure 70
0010
0000
1000
1000
,  // measure 71
1000
0000
0001
0001
,  // measure 72
0001
0000
1000
1000
,  // measure 73
0001
0001
0100
0100
,  // measure 74
0010
0010
1000
0001
,  // measure 75
0100
0010
0100
0000
,  // measure 76
0100
0000
0010
0000
,  // measure 77
0010
0000
0100
0000
,  // measure 78
0010
0000
1000
0000
,  // measure 79
0100
0000
0001
0000
,  // measure 80
0001
0000
1000
0000
,  // measure 81
1000
0000
0010
0000
,  // measure 82
0100
0000
0001
0000
,  // measure 83
1000
0000
0010
0000
,  // measure 84
0010
0000
1000
0000
,  // measure 85
1000
0000
0001
0000
,  // measure 86
0100
0000
0010
0000
,  // measure 87
0100
0000
0001
0000
,  // measure 88
0001
0000
0100
0000
,  // measure 89
0100
0000
0020
0000
,  // measure 90
0000
0000
0000
0000
,  // measure 91
0030
0000
0100
0000
,  // measure 92
0100
0000
0010
0000
,  // measure 93
0010
0000
0100
0000
,  // measure 94
1000
0000
0001
0000
,  // measure 95
0010
0000
1000
0000
,  // measure 96
1000
0000
0001
0000
,  // measure 97
0001
0000
0010
0000
,  // measure 98
0100
0000
0001
0000
,  // measure 99
0100
0000
0010
0000
,  // measure 100
1000
0000
0100
0000
,  // measure 101
0010
0000
0100
0000
,  // measure 102
0001
0000
0010
0000
,  // measure 103
0100
0000
0001
0000
,  // measure 104
1000
0000
0100
0000
,  // measure 105
0010
0000
0200
0000
,  // measure 106
0000
0300
0010
0000
,  // measure 107
0010
0000
0100
0000
,  // measure 108
0010
0000
1000
0000
,  // measure 109
1000
0000
0001
0000
,  // measure 110
1000
0000
0100
0000
,  // measure 111
0100
0000
0001
0000
,  // measure 112
0100
0000
0010
0000
,  // measure 113
0010
0000
1000
0000
,  // measure 114
0010
0000
0001
0000
,  // measure 115
0100
0000
1000
0000
,  // measure 116
0100
0000
0010
0000
,  // measure 117
0001
0000
0100
0000
,  // measure 118
1000
0000
0100
0000
,  // measure 119
0010
0000
0100
0000
,  // measure 120
0001
0000
1000
0000
,  // measure 121
0010
0000
0100
0000
,  // measure 122
0001
0000
0220
0000
,  // measure 123
0000
0000
0000
0000
,  // measure 124
0000
0000
0330
0000
;

//---------------dance-single - ----------------
#NOTES:
     dance-single:
     :
     Easy:
     8:
     0.494465,0.592524,0.346126,0.276900,0.000000,400.000000,360.000000,40.000000,32.000000,0.000000,0.000000,0.494465,0.592524,0.346126,0.276900,0.000000,400.000000,360.000000,40.000000,32.000000,0.000000,0.000000:
0000
0000
0000
0000
,
0000
0000
0000
0000
,
0000
0000
0000
0000
,
0000
0000
0000
0000
,
1001
0000
0010
0000
,
0100
1000
0100
0000
,
0110
0000
0001
0010
,
1000
0100
0100
0000
,
1000
0001
1000
0000
,
0010
0001
0010
0000
,
0100
1000
0010
0001
,
0100
0000
0100
0000
,
0010
0000
0010
0000
,
1000
0000
0100
0001
,
0100
0000
0011
1000
,
0000
0100
0000
1000
,
0000
0010
0001
0010
,
0100
0010
0000
1000
,
0000
1002
0000
0013
,
0000
0100
1000
0010
,
0000
0010
0001
0100
,
0000
0010
1000
1000
,
0000
1010
0001
0010
,
0001
0000
0100
0001
,
0100
0000
0010
1000
,
0100
0010
0100
0000
,
0220
0330
0000
1100
,
0000
0010
0001
0001
,
0000
0100
0010
0010
,
0000
0001
1000
2000
,
3010
0000
0010
0001
,
0100
1000
0001
1000
,
0000
0011
1100
0000
,
1001
0000
0010
0100
,
0001
0000
1000
0100
,
0010
0000
0001
0100
,
0010
0000
0100
0001
,
1000
0000
0010
1000
,
0001
1000
0100
0010
,
0001
0000
1000
0100
,
1000
0001
0100
0100
,
0100
0000
1000
0000
,
1001
0000
0010
0001
,
0010
1000
0100
0000
,
0110
0000
1000
0001
,
1000
0010
0100
0000
,
0101
0000
1000
0100
,
0010
0001
0010
0000
,
1010
0000
0100
1000
,
0002
0003
1100
0000
,
0010
0100
1000
0100
,
0001
0000
0011
0000
,
1000
0001
1000
0100
,
0010
0000
0101
0000
,
0010
1000
0100
0001
,
0010
0000
1001
0001
,
1000
0010
0100
0010
,
0010
0000
0110
0000
,
0000
0000
2000
3000
,
2002
3003
0020
0030
,
0022
0033
0101
0000
,
0010
0001
0010
1000
,
1000
0000
1010
0000
,
0001
0010
0100
0001
,
0001
0000
1001
0000
,
0010
0100
0110
0000
,
0010
0001
1100
0000
,
1000
0100
0101
0000
,
0001
0001
2000
0010
,
0100
3100
0002
0100
,
1000
1003
0020
1000
,
0001
0031
0200
1000
,
0010
0310
2200
3300
,
2002
3003
0202
0303
,
0022
0033
0010
0110
,
1000
1100
0001
0010
,
0001
0000
1000
0001
,
1000
0000
0010
0100
,
0010
1000
0001
0010
,
0010
0000
1000
0100
,
0010
0000
0010
1000
,
0100
0000
0100
0001
,
0100
0010
1000
0000
,
1001
0000
0100
0010
,
0001
0010
0100
0000
,
1000
0100
1000
0010
,
0001
0000
0010
0001
,
0010
1000
0100
0000
,
0001
0100
0010
1000
,
0001
0000
1000
1000
,
0001
1000
0100
0000
,
0110
0000
0001
0010
,
0001
0010
0100
1000
,
0001
0000
0010
0100
,
0001
0010
0100
1000
,
0010
0000
1000
0001
,
0010
1000
0100
0001
,
0010
0000
1000
0100
,
1000
0001
0010
0100
,
0010
0000
0100
1000
,
0010
0000
0010
0001
,
0100
0000
0100
0010
,
1000
0000
1000
0010
,
0100
0000
0001
0100
,
0010
0100
1000
0010
,
0100
0001
0020
0000
,
0000
0030
0100
0000
,
0110
0000
0100
1000
,
0001
0010
1000
0000
,
1010
0000
0100
1000
,
0010
0100
0001
0000
,
0011
0000
0100
0010
,
0100
1000
0001
0000
,
1001
0000
0010
1000
,
0100
0100
0020
0000
,
1030
0001
2000
0000
,
3001
0100
0002
0000
,
0103
0001
0200
0000
,
1300
0010
1000
0100
,
0200
0000
1300
0010
,
0020
0000
0031
1000
,
0010
0100
0010
1000
,
1000
0000
2002
0000
,
0000
0000
0000
0000
,
0000
0000
3003
0000
;

//---------------dance-single - ----------------
#NOTES:
     dance-single:
     :
     Medium:
     13:
     0.585941,0.861853,0.233635,0.510535,0.000000,474.000000,447.000000,27.000000,59.000000,0.000000,0.000000,0.585941,0.861853,0.233635,0.510535,0.000000,474.000000,447.000000,27.000000,59.000000,0.000000,0.000000:
0000
0000
0000
0000
,
0000
0000
0000
0000
,
0000
0000
0000
0000
,
0000
0000
0000
0000
,
0220
0000
0330
0000
1000
0100
1000
0000
,
0010
0000
0010
0001
0000
0001
0100
0000
,
2002
0000
3003
0000
0100
0010
0100
0000
,
0001
0000
0001
1000
0100
0010
0010
0000
,
2000
0000
3001
0010
0002
0000
0103
1000
,
0200
0000
0310
0001
0020
0000
1030
1000
,
0100
0010
0001
0010
1000
0100
1000
0000
,
0100
0200
0000
0300
,
0010
0000
0010
1000
,
0010
0000
0001
0100
,
1000
0100
0010
1000
,
2000
0000
3000
0001
,
0000
0001
0010
0100
,
0001
0100
1000
1000
,
0000
0110
0000
0010
,
0020
0000
0130
0100
,
0001
1000
0010
0100
,
0000
0100
0010
0001
,
0010
1000
0001
0002
,
0000
1003
0100
1000
,
0100
0010
0010
1000
,
0001
0010
0110
0000
,
2002
0000
0000
3003
0010
0000
0100
0000
,
0000
0100
0010
1000
,
0000
1000
0010
0001
,
0000
0001
0010
1000
,
1000
0010
0100
0000
,
1000
0001
0001
0110
,
0000
1001
0100
0100
,
0110
0000
1000
0010
,
1000
0000
0100
1000
,
0100
0000
0010
0100
,
0010
0000
0001
1000
,
1001
0000
1000
0001
,
1000
0100
0001
0100
,
0010
1000
0100
0000
,
1000
0000
0010
1000
,
0110
0000
0000
0000
0002
0000
0000
2003
,
0000
3002
0103
0010
,
0100
0000
0000
0000
0020
0000
0000
0230
,
0000
0320
1030
0001
,
1000
0000
0000
0000
0200
0000
0000
0302
,
0000
0203
0310
1000
,
0001
0000
0000
0000
0020
0000
0000
2030
,
0000
3020
0031
0100
,
1000
0000
0000
0000
0100
0000
0000
0100
,
0000
0100
0010
1000
,
0010
0000
0100
0000
0001
0000
0000
0001
,
0000
0001
0010
1000
,
0010
0000
0100
0000
1000
0000
0000
1000
,
0000
1000
0100
1000
,
0001
0000
0100
0000
0010
0000
0000
0010
,
0000
0010
0100
0100
,
0001
1000
1001
0010
,
0110
0000
1000
0000
0100
0100
0100
0000
,
1010
0010
1000
0000
0001
0001
0001
0000
,
0101
0100
0001
0000
1000
0000
0001
0000
,
0010
0010
0100
1000
,
0001
0001
0010
1000
,
0100
0100
0001
0010
,
1000
0000
1000
1000
0200
0000
1000
0000
,
0010
1000
0302
0100
,
0010
0100
0023
1000
,
0100
0001
0230
1000
,
0010
0010
0310
0000
1100
0000
0100
0010
,
1000
0001
1000
0000
0011
0000
1000
0001
,
0010
1000
0100
0000
0101
0000
0010
0100
,
0010
0001
0100
0000
1010
0000
0001
0100
,
0010
1000
1000
0000
2010
0000
3001
0000
,
0021
0130
0102
1003
,
1200
0000
0310
0000
0100
1000
0100
0010
,
1000
0001
0010
0010
1000
0000
0001
0000
,
0010
0100
1000
0100
,
0010
0000
0001
1000
,
0001
0010
1000
0100
,
1000
0000
0010
0100
,
0010
0001
0100
0001
,
0010
0000
0100
1000
,
0100
0001
0100
0001
,
0220
0330
1000
0001
,
0100
0010
1000
0001
,
0001
0000
0010
1000
,
0100
0010
0001
0100
,
0100
0000
0010
0001
,
0100
1000
0100
0010
,
0010
0000
0000
0000
0200
0000
0302
0003
,
0200
0320
2000
3030
,
2002
3003
1000
0001
,
0100
0010
1000
0010
,
0001
0000
0100
0001
,
0010
1000
0100
1000
,
0001
0000
0010
0100
,
0001
0010
1000
0100
,
0001
0000
1000
1000
,
0010
0010
0001
1000
,
2020
3030
0100
1000
,
0100
1000
0010
0001
,
0010
0001
0100
0010
,
0100
0010
0001
0100
,
0001
0100
1000
1000
,
0100
0100
0001
0001
,
0010
0010
0100
0001
,
0010
0000
1001
0000
0002
0000
0000
0203
,
0000
2300
0010
0001
,
0010
0000
3100
0000
0020
0000
0000
0032
,
0000
0203
0010
0001
,
0010
0000
1300
0000
0020
0000
0000
2030
,
0000
3002
1000
0100
,
1000
0000
0013
0000
0200
0000
0000
0302
,
0000
0023
1000
0100
,
0100
0031
0100
1000
,
0010
1000
0100
0001
,
1000
1000
0010
0100
,
0001
0100
1000
0001
,
0010
0010
0001
0100
,
1000
0100
0010
0100
,
0001
0001
0010
0100
,
0100
0010
1000
0001
,
1000
0100
0220
0000
,
0000
0000
0000
0000
,
0000
0000
0330
0000
;

//---------------dance-single - ----------------
#NOTES:
     dance-single:
     :
     Hard:
     17:
     0.843063,1.292779,0.718211,0.242288,0.220655,682.000000,599.000000,83.000000,28.000000,0.000000,0.000000,0.843063,1.292779,0.718211,0.242288,0.220655,682.000000,599.000000,83.000000,28.000000,0.000000,0.000000:
0000
0000
0000
0000
,
0000
0000
0000
0000
,
0000
0000
0000
0000
,
0000
0000
0000
0000
,
2100
0000
3001
0000
0000
0100
0010
0000
,
1000
0000
1001
0100
0000
0100
0001
0000
,
0120
0000
1030
0000
0000
0001
0100
0000
,
0010
0000
1000
0001
0011
0100
0100
0000
,
0001
1000
0010
1000
0100
0001
0010
0001
,
1000
0100
0001
0100
0010
1000
0001
0100
,
1000
1000
0010
0010
0001
0100
0100
1100
,
1001
1001
0010
0001
,
0010
1000
0100
0100
,
1000
0001
1000
0010
,
0100
0000
0001
0000
0220
0330
1100
0000
,
1100
0100
0001
0010
,
1000
0001
0001
0011
,
1000
0110
0100
0001
,
0000
1000
2002
0000
3003
0000
0110
0000
,
0110
1000
0001
0100
,
0010
1000
1000
0001
,
0010
0100
0010
1000
,
0001
0000
0202
0303
0011
0000
0011
0000
,
1000
0100
0001
0100
,
0010
0000
0010
0000
1000
0100
1000
0100
,
0001
0000
1001
0000
0010
1000
0010
0000
,
0001
0100
0001
0010
1000
0000
1100
0000
,
0100
0001
0010
1010
,
1000
0001
0100
0110
,
0010
0000
0001
0000
0001
0000
2010
0100
,
3010
0001
1001
0100
,
0010
0100
1100
1002
,
0013
0210
1300
0100
,
1100
0000
0001
0100
0001
0000
1000
0000
,
0100
0100
0001
0010
,
0001
0001
0100
0001
,
1000
1000
0010
0001
,
1001
1000
0100
0010
,
1000
0100
1000
0001
,
0010
0000
0001
0000
0100
0000
0010
1000
,
0010
0000
0101
0000
0100
0001
0100
0000
,
1000
0001
1000
0000
0010
0000
0000
0101
,
0000
0100
0100
0001
,
1000
0000
0010
0000
1000
0000
0000
1001
,
0000
0001
0010
1000
,
0100
0000
0001
0000
0010
0000
0000
1010
,
0000
1000
1000
0001
,
0100
0000
0001
0000
1000
0000
0000
1010
,
0000
0000
0100
0000
0001
1000
0001
0000
,
0100
0000
0110
0000
0010
0000
1000
0010
,
0000
1000
0010
0000
0100
0001
0100
0000
,
0010
0000
0011
0000
0100
0000
0010
0100
,
0000
0010
0100
0000
1000
0001
1000
0000
,
0100
0000
0101
0000
1000
0000
0001
0100
,
0000
1000
0100
0000
0010
0001
0010
0000
,
1100
0000
1100
0000
0001
0000
0010
1000
,
0000
0100
0001
0000
0010
1000
0100
1000
,
0001
0000
0001
0000
0100
0000
0000
0000
2002
0003
0000
0000
0020
0000
0000
0030
,
0100
0200
0000
0300
0002
0000
0000
0003
3100
0000
0100
0000
0001
0100
0001
0000
,
1100
0000
0010
0001
0000
0010
1000
0000
0010
0000
0010
0000
0100
1000
0100
0000
,
0011
0000
0001
1000
0000
0001
0100
0000
0110
0000
0000
0010
0000
0000
0001
0000
,
0000
0010
0000
0000
1000
0000
0001
0000
1000
0000
0000
0100
0000
0000
0010
0000
,
0000
0100
0000
0000
0001
0000
0001
0000
0011
0000
0000
1000
0000
0000
0100
0000
,
0000
1000
0000
0000
0010
0000
0100
0000
0010
0000
0000
0001
0000
0000
1000
0000
,
0000
0100
0000
0100
0001
0010
0001
0000
1020
0000
0000
0100
0000
0000
1000
0000
,
0000
0001
0000
0000
0130
0000
1000
0000
0201
0000
0000
0010
0000
0000
0001
0000
,
0000
0010
0000
0000
1300
0000
1000
0000
0012
0000
0000
1000
0000
0000
0100
0000
,
0000
1000
0000
0000
0013
0000
0010
0000
2100
0000
0000
0001
0000
0000
0100
0000
,
0000
0010
0000
0000
3001
0000
0001
0000
0100
0000
0100
0001
0000
0001
0010
0000
,
0010
1000
0000
1000
0001
0000
0101
0000
1000
0000
1000
0010
0000
0010
0100
0000
,
0100
0001
0000
0001
0010
0000
0110
0000
1000
0000
0001
1000
0000
0010
1000
0000
,
0100
0001
0000
0100
0010
0000
0011
0000
0100
0000
0001
0010
0000
1000
0001
0000
,
0100
1000
0000
0010
1000
0001
1000
0000
0120
0000
0000
1000
0030
0000
1000
0000
,
0201
0000
0000
0010
0300
0000
0010
0000
2100
0000
0000
0001
3000
0000
0001
0000
,
0012
0000
0000
1000
0003
0000
1000
0000
1100
0000
0100
0000
0101
0000
0001
0000
,
1000
0010
1000
0000
0010
0001
0010
1000
0001
0000
0000
0000
0001
0000
0000
0000
,
1000
1000
0010
1000
,
0100
0001
0010
0010
,
0100
0100
1000
0100
,
1100
1000
0010
0001
,
0010
1000
1000
0100
,
0010
0001
0001
0100
,
0010
1000
0110
0010
,
0001
1000
0001
0100
0010
0000
1000
0000
,
0010
0100
0100
0001
,
1000
0010
0010
1000
,
0100
0001
0001
1000
,
0010
1000
0100
0100
,
0001
0001
1000
0010
,
1000
0000
1000
0000
0010
0001
0010
0100
,
0000
0100
0010
0001
1000
0100
1000
0001
,
0022
0033
1000
0001
,
1000
1000
0010
0100
,
0010
0010
1000
0100
,
0001
0001
1000
0010
,
0100
0100
0001
0010
,
0001
0010
0010
1000
,
0100
0000
0001
0000
1000
0010
1000
0000
,
0100
0001
0100
0000
0010
1000
0010
0100
,
0001
0010
1000
0000
0100
0000
0101
0000
,
1000
0010
1000
1100
,
0001
0010
0001
1001
,
0100
1000
1000
0110
,
0001
0000
0100
0000
0001
0000
0001
0100
,
0010
0000
0010
1000
0100
0000
0100
0010
,
0001
0000
0010
0000
1000
0000
0000
0000
1000
0000
0000
0001
0000
0000
0100
0000
,
0000
0010
0000
0000
0100
0000
1000
0000
0101
0000
0000
0000
0000
0000
0011
0000
,
0000
1001
0100
0001
,
0010
0000
0001
0000
1010
0000
0000
1001
,
0000
1100
0010
1000
,
0010
0000
0010
0000
0101
0000
0000
0011
,
0000
0110
1000
0001
,
1000
0000
0100
0000
1010
0000
0000
0101
,
0000
0011
1000
0001
,
0010
1000
0010
0100
0001
0000
1000
0010
,
0000
1000
0100
0000
0010
0001
0010
0000
,
1100
0000
0101
0000
0010
0000
0100
0010
,
0000
1000
0100
0000
0010
0001
0010
0000
,
1010
0000
1100
0000
0100
0000
0001
1000
,
0001
0000
0010
0100
0010
0000
0100
0001
,
0100
0000
1000
0010
1000
0000
1001
0000
,
0100
0000
0110
0000
0001
1000
0100
0001
,
0010
1000
0100
0000
2002
0000
0000
0000
,
0000
0000
0000
0000
,
0000
0000
3003
0000
;

//---------------dance-single - ----------------
#NOTES:
     dance-single:
     :
     Challenge:
     20:
     1.213912,1.939169,1.315277,0.354779,0.402371,982.000000,830.000000,152.000000,41.000000,0.000000,0.000000,1.213912,1.939169,1.315277,0.354779,0.402371,982.000000,830.000000,152.000000,41.000000,0.000000,0.000000:
0000
0000
0000
0000
,
0000
0000
0000
0000
,
0000
0000
0000
0000
,
0000
0000
0000
0000
,
2001
0000
0000
0000
3010
0000
0100
0010
0100
0000
0001
0000
0110
0000
0000
0000
,
1000
0000
0100
0000
0100
0000
0001
0010
0001
0000
0100
0000
0011
0000
0000
0000
,
0210
0000
0000
0000
1300
0000
0010
0001
0010
0000
0100
0000
1010
0000
0000
0000
,
0010
0000
0001
0000
0001
0000
0100
0010
0100
0000
1000
0000
1100
0000
0100
1000
,
0100
0000
0010
0000
0001
0000
0001
0100
0010
0000
1000
0000
0100
0000
0100
0001
,
0010
0000
1000
0000
0010
0000
0010
1000
0100
0000
0001
0000
0010
0100
0010
0000
,
1010
0000
0100
0000
0101
0000
0010
0000
0011
0000
1000
0000
0001
0100
0001
0100
,
1001
0000
1001
0000
0010
0000
0001
0100
,
0010
0000
1000
0000
1000
0000
0100
1000
,
0010
0000
0001
0000
0001
0000
1000
0010
,
0001
0100
0001
0000
2002
3003
0110
0000
,
0110
0000
1000
0000
0100
0001
0010
0000
,
1000
0000
0010
0000
0100
0010
0001
0000
,
0100
0000
1000
0000
0010
0100
0020
1000
,
0030
1000
0200
0000
0301
0000
0011
0000
,
0011
0000
0100
0000
0010
1000
0001
0000
,
0100
0000
1000
0000
0010
0100
0001
0000
,
0100
0000
0001
0000
1000
0100
0010
0100
,
0001
0000
0220
0330
1010
0000
1010
0000
,
0100
0000
1000
0010
0100
0000
0001
0000
,
0010
0000
0100
1000
0100
1000
0001
0010
,
1000
0100
0010
0000
1001
0000
1000
0010
,
1000
0100
0001
0010
0011
0000
0101
0000
,
0010
0100
1000
0000
1010
0000
1100
0000
,
0100
0010
0001
0000
1001
0000
0011
0000
,
0010
1000
0100
0000
0010
0000
0012
0010
,
0103
0000
1010
0000
0011
0000
1000
0010
,
0100
0010
0100
0001
1000
0000
1010
0000
,
0001
0000
0101
0100
0110
0000
0001
0100
,
0001
0010
0100
0000
1000
0000
0011
0000
,
0110
0000
0100
0010
0100
0000
1100
0000
,
1001
0000
0001
0010
0001
0000
1010
0000
,
1100
0000
0010
0100
0001
0000
1100
0000
,
0011
0000
0001
0010
1000
0000
0100
0010
,
0100
0000
0001
0100
1000
0000
0001
0010
,
0001
0000
0100
0010
1000
0100
0001
0000
,
0100
0010
1000
0000
0010
0001
1000
0100
,
0010
0100
1000
0000
1001
0000
0010
1010
,
0000
0000
0110
0010
0001
0000
0010
0000
,
1010
0000
1000
0000
0101
0000
0010
0011
,
0000
0000
1010
0001
0100
0000
0010
0000
,
0011
0000
1000
0000
0101
0000
0010
0110
,
0000
0000
1000
0100
0001
0000
1100
0000
,
0011
0000
0110
0000
1010
0000
0100
1100
,
0000
0000
0010
1000
0001
0000
0011
0000
,
0110
0000
1100
0000
0002
0000
1003
0110
,
0001
0010
2000
0000
3100
0010
0100
0001
,
1000
0100
0001
0000
0020
0000
0130
1001
,
0010
0100
0002
0000
0013
0100
1000
0100
,
0010
1000
0010
0000
0200
0000
1300
0101
,
0010
0001
2000
0000
3100
0010
0001
0010
,
1000
0100
0001
0010
2000
0000
3010
0101
,
1000
0001
0200
0000
1300
0010
0001
0100
,
0010
0000
0000
0000
0100
0000
0000
0000
1000
0000
0001
0000
1000
0000
0001
0000
0200
0000
0300
0000
0010
0001
0010
0000
0110
0000
0010
0000
1000
0001
1000
0000
,
0020
0000
0130
0000
0100
1000
0001
0000
1001
0000
1000
0000
0010
0001
0001
0000
1000
0000
0100
0000
0010
0000
0000
0000
0010
0000
0001
0000
0100
0000
0000
0000
,
1100
0000
0010
1000
0010
0100
0100
0000
0001
0010
0100
0000
0100
1000
0010
0000
,
0011
0000
0100
1000
0100
0001
0001
0000
0020
0000
0000
0032
0000
0000
0023
0000
,
0000
2030
0000
3000
0110
0000
0101
0000
0002
0000
0000
0203
0000
0000
2300
0000
,
0000
3020
0000
0030
1001
0000
0110
0000
2010
0000
0000
3200
0000
0000
0320
0000
,
0000
0032
0000
0003
0011
0000
1100
0000
0002
0000
0000
0203
0000
0000
0320
0000
,
0000
2030
0000
3100
1000
0010
0100
0010
0101
0000
1000
0010
0000
0000
0100
0000
,
0001
0010
0000
0001
0100
0000
1100
0000
1001
0000
0100
1000
0000
0010
1000
0000
,
0100
0001
0100
0000
1000
0000
0110
0000
1010
0000
0100
0001
0000
0010
1000
0000
,
0010
0100
0010
0000
0001
0000
1100
0000
0101
0000
0010
1000
0000
1000
0100
0000
,
0001
0010
0001
0100
0001
0000
0110
0000
1001
0000
0010
1000
0010
0100
0001
0000
,
1000
0001
1000
0100
1000
0000
0101
0000
0011
0000
1000
0100
0010
0100
0001
0000
,
0100
1000
0010
0001
0010
0000
1100
0000
0110
0000
0001
0010
0100
0010
0001
0000
,
0100
1000
0001
1000
0100
0000
0011
0000
1010
0000
0010
0001
0100
0010
1000
0000
,
0001
0010
0001
1000
0010
0000
0110
0000
2010
0000
0010
0001
0000
0001
3100
0000
,
1200
0000
1000
0010
0000
0010
0301
0000
0021
0000
0001
0100
0000
0100
1030
0000
,
2010
0000
0010
0001
0000
0001
3100
0000
0110
0000
0110
0000
0011
0000
0011
0000
,
1000
0001
1000
0100
1000
0010
0001
0100
1010
0000
0000
0000
0010
0000
1000
0000
,
0010
0100
0001
0000
0100
1000
0100
0001
,
0010
0000
0011
0000
0110
0000
1000
0010
,
0100
0010
0001
0000
0100
1000
0010
0100
,
0010
1000
0001
0000
0110
0000
1000
0010
,
0100
1000
0010
0000
0100
0001
0100
0001
,
1000
0010
0100
0000
1100
0000
0010
0100
,
0010
0100
1000
0000
0001
1000
0001
0100
,
0010
0100
0001
0010
1001
0000
0010
0001
,
0100
0010
0100
0000
0001
0010
0100
0010
,
1000
0100
1000
0100
0101
0000
0010
0100
,
0001
0100
0010
0000
0100
0001
0100
1000
,
0010
0001
0010
0001
0101
0000
1000
0010
,
0001
0010
0100
0000
0001
0010
0100
0010
,
0001
1000
0100
0000
1000
0100
0010
0001
,
0100
0001
1000
0010
1000
0100
0010
0001
,
0010
1000
0001
0010
0110
0000
1000
1010
,
0000
1000
1100
0000
0100
0001
0100
1000
,
0001
1000
0001
0010
0011
0000
0100
1100
,
0000
1000
1001
0000
0001
0010
1000
0001
,
0100
0001
1000
0010
1010
0000
1000
1001
,
0000
0010
0110
0000
0010
1000
0001
0010
,
0100
1000
0100
0010
0011
0000
0100
0110
,
0000
1000
1001
0000
0001
0010
1000
0010
,
0001
0100
0100
0001
0011
1000
0100
1000
,
0000
0010
1010
0000
0100
1000
0100
0010
,
0100
1000
0001
0010
0110
1000
0100
0001
,
0000
0001
0101
0000
0010
1000
0001
0100
,
1000
0010
0001
1000
1001
0010
1000
0001
,
0000
1000
1100
0000
0010
0001
0100
1000
,
0100
0000
0010
0000
0001
0000
0010
0000
0100
1000
0010
0100
1000
0001
0100
0001
,
0010
1000
0100
1000
0100
0001
0010
1000
1010
0000
0000
0000
0010
0000
1100
0000
,
0000
0010
1001
0000
0100
0001
0010
0100
,
0010
0000
1001
0000
1010
0000
0001
0110
,
0000
0001
1010
0000
0010
1000
0100
0010
,
1000
0000
0101
0000
0011
0000
0100
1010
,
0000
1000
0101
0000
0100
1000
0100
0001
,
1000
0000
0011
0000
1001
0000
0100
0011
,
0000
0001
1100
0000
1000
0001
1000
0010
,
1000
0000
0011
0000
1000
0101
0000
0010
,
0101
0000
1000
0101
0010
0001
0010
1000
,
0100
0010
1000
0010
0001
0110
0000
1000
,
0110
0000
0001
0110
1000
0010
0001
0100
,
0001
0100
1000
0001
0100
1001
0000
0010
,
0101
0000
0010
1100
0001
0010
0001
1000
,
0100
0010
1000
0010
1000
0011
0000
0100
,
1010
0000
0001
1100
0010
1000
0100
1000
,
0001
0000
0010
0000
0100
0010
0100
0000
2200
0000
0000
0000
0000
0000
0000
0000
,
0000
0000
0000
0000
,
0000
0000
3300
0000
;
