#TITLE:Prism Heart;
#SUBTITLE:(RED CARD GENIUS Mix);
#ARTIST:Sana;
#TITLETRANSLIT:;
#SUBTITLETRANSLIT:;
#ARTISTTRANSLIT:;
#GENRE:;
#CREDIT:;
#BANNER:Prism Heart (RED CARD GENIUS Mix).png;
#BACKGROUND:Prism Heart (RED CARD GENIUS Mix)-bg.png;
#LYRICSPATH:;
#CDTITLE:;
#MUSIC:Prism Heart (RED CARD GENIUS mix).ogg;
#OFFSET:0.005183;
#SAMPLESTART:62.714550;
#SAMPLELENGTH:13.999996;
#SELECTABLE:YES;
#BPMS:0.000000=150.000000
;
#STOPS:254.750000=0.400000
;
#BGCHANGES:;
#KEYSOUNDS:;
#ATTACKS:;

//---------------dance-single - ----------------
#NOTES:
     dance-single:
     :
     Hard:
     12:
     0.503454,0.532960,0.165067,0.313627,0.000000,427.000000,407.000000,20.000000,38.000000,0.000000,0.000000,0.503454,0.532960,0.165067,0.313627,0.000000,427.000000,407.000000,20.000000,38.000000,0.000000,0.000000:
0000
0000
0000
0000
,
0000
0000
0000
0000
,
0000
0000
0000
0000
,
0000
0000
0000
0000
,
2000
0000
0010
0000
0000
0001
3010
0000
,
0200
0000
0001
0000
0000
1000
0301
0000
,
1000
0001
0010
0000
0010
0100
0001
0000
,
0020
0000
1000
0000
0100
0001
0130
0000
,
0110
1000
0100
0001
0100
0010
0010
1000
,
0001
1000
0010
0100
1000
1000
0001
1000
,
0000
0001
0010
1000
0001
1000
0010
0100
,
0010
0100
0010
1000
0001
0001
0010
0001
,
0000
1000
0010
0001
0100
0001
1000
0010
,
1000
0100
0001
0010
1000
1000
0001
0010
,
0000
1000
0100
1000
0001
0100
0010
0001
,
1000
0100
0010
0001
0100
1000
0010
0010
,
2000
0100
3100
0001
0010
0000
1100
0000
,
0100
0010
0001
0010
1000
0000
1000
0002
,
0000
0010
0013
0100
0010
2000
0000
0002
,
3000
0000
0010
0000
1000
0000
0103
0100
,
0001
0010
0001
0100
2000
0000
0001
0000
,
3010
0100
0001
0100
0010
0000
0100
0200
,
0000
1000
0301
1000
0010
0001
0000
0020
,
0000
0000
1000
0000
1000
0100
0031
0000
,
0100
1000
0100
0010
0001
0000
0001
0010
,
0000
0010
0001
1000
0010
1000
0100
0200
,
0000
0001
0301
0010
0001
1000
0000
0002
,
0000
0010
0000
0100
0000
1000
1003
0010
,
1000
0100
0100
0001
0010
0000
0100
1000
,
0000
0010
0010
0001
0100
0010
1000
0020
,
0000
0001
0031
1000
0010
1000
0000
2000
,
0000
0001
0000
0010
0000
0100
3010
0000
,
0101
0001
0010
0100
0010
0000
0100
1000
,
0100
0010
0001
1000
0000
1000
0010
0100
,
1010
0010
0100
0001
0100
0000
0100
1000
,
0010
0001
0010
0001
0000
1000
0000
0100
,
0110
0001
1000
0001
0010
0000
0010
1000
,
0100
1000
0100
0001
0010
0001
0000
0011
,
0000
0100
0000
1100
0000
0100
1000
0001
,
0000
0011
1010
0110
,
2000
0000
0010
0000
3001
0010
0100
0010
,
0200
0000
1000
0000
0301
0010
0001
1000
,
0020
0000
1000
0000
0130
1000
0100
0010
,
0001
1000
0000
1001
0000
0100
0100
0010
,
0100
0000
0002
0000
2003
0000
3010
0100
,
0000
0010
0000
1002
0000
0010
0013
0000
,
1100
0000
0101
0000
0010
0100
0001
0100
,
0000
1000
0010
0001
1000
0100
1000
0000
,
0020
0000
0001
0000
0130
0001
0010
0001
,
2000
0000
0100
0000
3010
0001
0010
1000
,
0002
0000
1000
0000
0103
0010
1000
0010
,
0100
0000
0001
0100
1000
0100
0010
0000
,
0101
0200
0320
0032
,
1003
0000
0100
1000
0000
0001
0000
0120
,
0000
0000
1030
0000
0001
1000
0100
0000
,
0100
0010
0001
0100
0010
1000
0100
0000
,
0202
0003
0020
0030
,
1000
0010
2000
3300
,
0220
0300
2000
3000
,
0001
1000
0002
0033
,
0100
0000
1000
0000
0001
0000
0001
0100
,
0010
0000
0001
0000
1000
0000
1000
0100
,
0010
0000
0100
0001
0010
0001
0100
0000
,
1000
1000
0001
0001
0010
0100
1001
0001
,
1000
0001
0010
1000
0100
1000
0001
0100
,
0010
0100
1000
0001
1000
0020
0000
0100
,
0130
0001
1000
0100
0010
0100
0001
1000
,
0010
1000
0001
0010
0100
2000
0000
0001
,
3001
0100
0010
0001
0010
1000
0001
1000
,
0010
0100
0001
0001
0010
0200
0000
1000
,
1300
0001
0010
0100
0010
0001
1000
1000
,
0010
0010
0001
0010
0100
0010
1010
0000
;

//---------------dance-single - ----------------
#NOTES:
     dance-single:
     :
     Medium:
     8:
     0.374938,0.419579,0.148560,0.346640,0.000000,318.000000,300.000000,18.000000,42.000000,0.000000,0.000000,0.374938,0.419579,0.148560,0.346640,0.000000,318.000000,300.000000,18.000000,42.000000,0.000000,0.000000:
0000
0000
0000
0000
,
0000
0000
0000
0000
,
0000
0000
0000
0000
,
0000
0000
0000
0000
,
2000
0010
3000
1001
,
0020
0100
0030
0101
,
0002
0013
0200
0301
,
0020
2030
3200
0302
,
0103
0000
0010
0000
1000
0010
1000
0000
,
0001
0000
0100
1000
0010
0000
0011
0000
,
1000
0000
0100
0000
0010
0001
0010
0000
,
0001
0000
0010
0001
1000
0000
1100
0000
,
0010
0000
1000
0000
0001
1000
0010
0000
,
0100
0000
1000
0100
0001
0000
0110
0000
,
0001
0000
1000
0000
0100
0010
0100
0000
,
0010
0100
1000
0100
0001
0000
0101
0000
,
0000
0010
1000
0000
2000
0000
0001
0000
,
3000
0001
0010
0000
0100
0000
0020
0100
,
0000
0030
0001
0000
0001
0000
0100
1000
,
0000
0010
1000
0000
0100
0000
0001
0000
,
0000
1000
0100
0000
0200
0000
0010
0000
,
0300
0001
1000
0000
0001
0000
0020
1000
,
0000
0030
0100
0000
0100
0000
0001
0010
,
0000
0100
0010
0000
0100
0000
1001
0000
,
0001
0000
0010
0000
0100
0010
0100
0000
,
0001
0000
1000
0010
0000
0100
1000
0000
,
0010
0100
0001
0100
,
1000
0010
0001
0100
,
0010
0000
1000
0010
0000
0010
0100
0000
,
0001
1000
0000
1000
0001
0000
0100
0000
,
0001
1000
0001
0010
,
1000
1000
0001
1000
,
0120
0000
0000
2000
0000
0000
3030
0100
,
2000
0000
3010
0200
0000
0000
0300
0000
,
0012
0000
0000
2000
0000
0000
3003
0010
,
0200
0000
0310
0002
0000
0000
0003
0000
,
1200
0000
0000
0002
0000
0000
0303
1000
,
0020
0000
0130
2000
0000
0000
0001
0000
,
3020
0031
0002
1003
,
2000
0100
0001
3010
,
0220
0000
0330
0000
1000
0000
1000
0100
,
0001
0000
0100
0010
0100
0000
0001
0000
,
0010
0100
0100
1000
,
1000
0010
0001
0010
,
0200
0000
1300
0000
0001
0000
1000
0010
,
0000
1000
0100
0000
0001
0100
0001
0000
,
0020
0000
0230
0000
0310
0000
0001
0100
,
0000
0100
0010
0000
0001
0000
1000
0000
,
2020
0000
3030
0000
0001
0000
0001
1000
,
0100
0000
0010
0001
0010
0000
1000
0000
,
0100
0001
0001
0100
,
0100
0010
1000
0100
,
0020
0031
0010
1000
,
0100
0000
1000
0100
0000
0100
0010
0000
,
0001
0100
0010
0001
,
0010
0000
1000
0010
1000
0000
0110
0000
,
2000
3000
0010
0001
,
1000
0010
0100
0010
,
0020
0030
0100
0001
,
1000
0010
1000
0001
,
0200
1300
0001
0010
,
2000
3100
1000
0001
,
0020
0000
0130
0001
2000
0000
3010
0001
,
0010
0100
1000
0000
1001
0000
0001
0000
,
0101
0000
1000
0010
1000
0000
0001
0000
,
0100
1000
0100
0010
1000
0000
0010
0000
,
1010
0000
0100
0001
0100
0000
1000
0001
,
1000
0100
0010
0000
0001
0000
0100
0000
,
0110
0000
0010
0000
1000
0100
1000
0000
,
0001
0100
0010
1000
0010
0000
0001
0000
,
1001
0000
1000
0000
0100
0000
1000
0100
,
1000
0001
0100
0010
0001
0000
0020
0000
,
0000
0000
0000
0000
0000
0030
0000
0000
;

//---------------dance-single - ----------------
#NOTES:
     dance-single:
     :
     Easy:
     4:
     0.245242,0.265551,0.033013,0.255854,0.000000,208.000000,204.000000,4.000000,31.000000,0.000000,0.000000,0.245242,0.265551,0.033013,0.255854,0.000000,208.000000,204.000000,4.000000,31.000000,0.000000,0.000000:
0000
0000
0000
0000
,
0000
0000
0000
0000
,
0000
0000
0000
0000
,
0000
0000
0000
0000
,
2000
0000
3000
0001
,
0020
0000
0030
0100
,
0002
0003
2000
3000
,
0010
0100
0020
0030
,
1000
0100
1000
0100
,
0010
0001
0010
0010
,
0000
0001
0100
1000
,
0100
0010
1000
1000
,
0000
0100
0001
0010
,
1000
0010
1000
1000
,
0000
0100
0001
0100
,
1000
0010
0001
0001
,
0000
1000
0001
2000
,
3000
0100
0010
0200
,
0300
0100
0010
0001
,
1000
0001
0002
0003
,
0000
0100
0001
0200
,
0300
0001
0001
0020
,
0030
1000
0010
0100
,
0001
0010
0020
0030
,
2000
3000
0100
1000
,
0100
0001
0100
0000
,
0020
0030
0001
0100
,
1000
0100
0010
0000
,
0002
0003
1000
1000
,
0010
1000
0001
0000
,
0200
0300
0001
0100
,
0010
0001
0100
0000
,
2002
3003
0010
0100
,
0100
0001
0010
0000
,
0220
0330
0100
1000
,
0100
0001
0001
0000
,
2002
3003
1000
0010
,
0001
0010
0010
0000
,
0200
0300
0002
0003
,
2000
3000
0010
0100
,
0200
0300
1000
0001
,
0002
0003
0010
1000
,
2000
3000
0100
0010
,
0100
0010
0020
0030
,
0001
0000
0010
0001
,
0100
0010
1000
0000
,
0001
0000
0100
0000
,
0010
0100
0100
0000
,
0002
0003
1000
0100
,
0001
0000
0001
0010
,
0100
0000
0100
1000
,
0010
1000
1000
0000
,
0002
0003
1000
0010
,
1000
0100
0001
0000
,
0200
0300
0010
0001
,
0010
0010
1000
0000
,
0100
0000
0001
0000
,
0010
0000
1000
0000
,
0100
0000
1000
0000
,
0010
0000
0100
0000
,
1001
0000
0010
0010
,
0001
0000
0100
0100
,
0010
0000
1000
0100
,
0001
0100
0010
0000
,
0010
0100
0001
0010
,
0001
1000
1000
0000
,
0001
1000
0010
1000
,
0100
1000
1000
0000
,
0100
0001
1000
0100
,
0010
0100
0100
0000
,
1000
0001
1000
0100
,
1000
0010
0010
0000
;

//---------------dance-single - ----------------
#NOTES:
     dance-single:
     :
     Beginner:
     2:
     0.113189,0.176415,0.024760,0.033013,0.000000,96.000000,93.000000,3.000000,4.000000,0.000000,0.000000,0.113189,0.176415,0.024760,0.033013,0.000000,96.000000,93.000000,3.000000,4.000000,0.000000,0.000000:
// measure 0
0000
0000
0000
0000
,  // measure 1
0000
0000
0000
0000
,  // measure 2
0000
0000
0000
0000
,  // measure 3
0000
0000
0000
0000
,  // measure 4
0010
0000
0000
0000
,  // measure 5
0010
0000
0000
0000
,  // measure 6
0100
0000
0000
0000
,  // measure 7
0100
0000
0000
0000
,  // measure 8
1000
0000
1000
0000
,  // measure 9
0001
0000
0001
0000
,  // measure 10
1000
0000
1000
0000
,  // measure 11
0001
0000
0001
0000
,  // measure 12
0100
0000
0100
0000
,  // measure 13
0010
0000
0010
0000
,  // measure 14
0100
0000
0100
0000
,  // measure 15
0010
0000
0010
0000
,  // measure 16
1001
0000
0000
0000
,  // measure 17
1000
0000
0000
0000
,  // measure 18
0001
0000
0000
0000
,  // measure 19
0001
0000
0000
0000
,  // measure 20
1000
0000
0000
0000
,  // measure 21
1000
0000
0000
0000
,  // measure 22
0001
0000
0000
0000
,  // measure 23
0001
0000
0000
0000
,  // measure 24
0110
0000
0000
0000
,  // measure 25
0010
0000
0000
0000
,  // measure 26
0100
0000
0000
0000
,  // measure 27
0100
0000
0000
0000
,  // measure 28
0010
0000
0000
0000
,  // measure 29
0010
0000
0000
0000
,  // measure 30
0100
0000
0000
0000
,  // measure 31
0100
0000
0000
0000
,  // measure 32
0002
0000
0000
0000
,  // measure 33
0003
0000
0000
0000
,  // measure 34
2000
0000
0000
0000
,  // measure 35
3000
0000
0000
0000
,  // measure 36
0020
0000
0000
0000
,  // measure 37
0030
0000
0000
0000
,  // measure 38
0200
0000
0000
0000
,  // measure 39
0300
0000
0000
0000
,  // measure 40
0010
0000
0010
0000
,  // measure 41
0010
0000
0010
0000
,  // measure 42
0100
0000
0100
0000
,  // measure 43
0100
0000
0100
0000
,  // measure 44
0010
0000
0010
0000
,  // measure 45
0010
0000
0010
0000
,  // measure 46
0100
0000
0100
0000
,  // measure 47
0100
0000
0100
0000
,  // measure 48
1000
0000
1000
0000
,  // measure 49
1000
0000
1000
0000
,  // measure 50
0001
0000
0001
0000
,  // measure 51
0001
0000
0001
0000
,  // measure 52
1000
0000
1000
0000
,  // measure 53
1000
0000
1000
0000
,  // measure 54
0001
0000
0001
0000
,  // measure 55
0001
0000
0001
0000
,  // measure 56
1001
0000
0000
0000
,  // measure 57
0000
0000
0000
0000
,  // measure 58
0000
0000
0000
0000
,  // measure 59
0000
0000
0000
0000
,  // measure 60
0100
0000
0000
0000
,  // measure 61
0100
0000
0000
0000
,  // measure 62
0010
0000
0000
0000
,  // measure 63
0010
0000
0000
1000
,  // measure 64
0000
0001
0000
1000
,  // measure 65
0000
0001
0000
1000
,  // measure 66
0000
0001
0000
1000
,  // measure 67
0000
0001
0000
0100
,  // measure 68
0000
0010
0000
0100
,  // measure 69
0000
0010
0000
0100
,  // measure 70
0000
0010
0000
0100
,  // measure 71
0000
0010
0000
0000
;
