#VERSION:0.83;
#TITLE:Predator's Crypto;
#SUBTITLE:;
#ARTIST:96;
#TITLETRANSLIT:;
#SUBTITLETRANSLIT:;
#ARTISTTRANSLIT:;
#GENRE:;
#ORIGIN:;
#CREDIT:;
#BANNER:Predator's Crypto.png;
#BACKGROUND:Predator's Crypto-bg.png;
#PREVIEWVID:;
#JACKET:Predator's Crypto-jacket.png;
#CDIMAGE:;
#DISCIMAGE:;
#LYRICSPATH:;
#CDTITLE:;
#MUSIC:Predator's Crypto.mp3;
#OFFSET:-0.269091;
#SAMPLESTART:84.982834;
#SAMPLELENGTH:14.117653;
#SELECTABLE:YES;
#BPMS:0.000=136.000;
#STOPS:126.750=0.441;
#DELAYS:;
#WARPS:;
#TIMESIGNATURES:0.000=4=4;
#TICKCOUNTS:0.000=4;
#COMBOS:0.000=1;
#SPEEDS:0.000=1.000=0.000=0;
#SCROLLS:0.000=1.000;
#FAKES:;
#LABELS:0.000=Song Start;
#BGCHANGES:;
#KEYSOUNDS:;
#ATTACKS:
;

//---------------dance-single - ----------------
#NOTEDATA:;
#CHARTNAME:;
#STEPSTYPE:dance-single;
#DESCRIPTION:;
#CHARTSTYLE:;
#DIFFICULTY:Hard;
#METER:15;
#RADARVALUES:0.626622,0.776196,0.476473,0.256922,0.609605,939.000000,837.000000,102.000000,55.000000,0.000000,0.000000,0.000000,0.000000,0.000000,0.626622,0.776196,0.476473,0.256922,0.609605,939.000000,837.000000,102.000000,55.000000,0.000000,0.000000,0.000000,0.000000,0.000000;
#CREDIT:;
#NOTES:
0000
0000
0000
0000
,
0000
0000
0000
0000
0000
0000
0001
0001
,
0110
0000
0000
0000
,
0000
0000
0000
0000
,
0100
0010
0000
0101
0000
0101
0000
0000
0000
0000
0000
0000
0000
0000
0000
0000
,
1000
0001
0000
1010
0000
1010
0000
2002
0000
0000
0000
0000
0000
0000
3003
0000
,
0000
0000
0000
0000
,
0010
0001
0010
0100
1000
0001
1000
0010
0100
1000
0001
0010
0200
0000
0000
0000
,
0301
0000
0000
1000
0000
0000
1020
0000
0000
0000
0100
0000
0030
0000
0001
0000
,
0100
0000
0000
0010
0000
0000
0101
0000
0000
0000
1000
0000
0010
0000
1000
0000
,
0100
0000
0000
1000
0000
0000
2001
0000
0000
0000
0010
0000
3000
0000
0010
0000
,
0001
0000
0000
0100
0000
0000
0011
0000
0000
0000
1000
0000
1001
0000
1000
0000
,
0010
0000
0000
0100
0000
0000
0210
0000
0000
0000
0001
0000
0300
0000
0001
0000
,
0010
0000
0000
0100
0000
0000
1100
0000
0000
0000
0010
0000
0001
0000
0010
0000
,
1000
0000
0000
0001
0000
0000
2010
0000
0000
0000
0100
0000
3000
0000
0100
0000
,
0001
0000
0000
1000
0000
0000
0110
0000
0000
0000
0100
0000
1100
0000
0100
0000
,
0010
0001
0010
0001
0000
0000
0100
0000
0010
0000
0100
0000
1000
0000
0001
0000
,
1000
0100
1000
0100
0000
0000
0010
0000
0001
0000
1000
0000
0010
0000
0010
0000
,
0001
1000
0001
1000
0000
0000
0100
0000
1000
0000
0100
0000
0010
0000
0001
0000
,
0010
0100
0010
0100
0000
0000
0001
0000
0001
0000
1000
0000
1010
0000
0010
0000
,
0100
1000
0100
1000
0000
0000
0010
0000
0001
0000
0010
0000
0100
0000
0010
0000
,
0001
0100
0001
0100
0000
0000
1000
0000
0010
0000
0010
0000
1000
0000
0100
0000
,
0010
1000
0010
1000
0000
0000
0001
0000
0100
0000
1000
0000
0010
0000
1000
0000
,
0200
0000
0000
0001
0000
0000
0010
0000
0310
0000
1000
0000
0110
0000
0001
0000
,
0100
0000
0000
1000
0000
1000
0100
0000
0010
0000
0000
0100
0000
0100
0010
0000
,
0001
0000
0000
1000
0000
1000
0001
0000
0010
0000
0000
0110
0000
0000
0100
0000
,
1000
0000
0000
0001
0000
0001
1000
0000
0100
0000
0000
0010
0000
0010
0100
0000
,
0010
0000
0000
1000
0000
1000
0010
0000
2000
0001
0001
0000
3200
0010
0010
0000
,
1300
0000
0000
0100
0000
0001
0100
0000
0010
0000
0000
1000
0000
0001
1000
0000
,
0100
0000
0000
0010
0000
0001
0010
0000
1000
0000
0000
1100
0000
0000
0100
0000
,
0001
0000
0000
1000
0000
0010
1000
0000
0100
0000
0000
0001
0000
0010
0001
0000
,
1000
0000
0000
0100
0000
0001
0100
0000
0010
0100
0010
0100
1000
0000
0000
0001
,
0000
0000
1000
0000
0020
0000
0000
0000
0100
0000
0000
0000
1000
0000
0000
1000
,
0030
0000
0100
0001
0100
0000
0000
0010
0000
0000
1000
0000
0001
0000
0000
1000
,
0010
0000
0200
0000
0000
0000
0000
0000
0001
0000
0000
0000
0010
0000
0000
0010
,
0300
0000
1000
0000
1000
0000
0001
0000
0101
0000
0100
0000
0010
0000
0000
1000
,
0000
0000
0001
0000
2000
0000
0000
0000
0010
0000
0000
0000
0001
0000
0000
0001
,
3000
0000
0010
0100
0020
0000
0000
0000
1030
0000
0001
0100
0002
0000
0000
0000
,
0010
0000
0000
0000
0013
0000
1000
0000
0100
0000
1000
0010
0200
0000
0000
0000
,
0001
0000
0000
0000
0001
0000
0300
0000
0011
0000
0000
0000
1000
0000
0010
1000
,
0000
0100
1000
0000
0010
0001
0000
0001
0010
0000
1000
0000
0100
0000
0001
0100
,
0000
1000
0100
0000
0001
0010
0000
0010
1000
0000
0001
0000
0100
0000
0000
1100
,
0000
0000
0010
0001
0010
0000
0000
0100
0010
0000
1000
0000
0001
0000
0000
0101
,
0000
0000
1000
0001
1000
0000
0000
0010
0100
0000
0110
0000
1000
0000
0001
0100
,
0000
0001
0010
0000
0100
1000
0000
0001
0010
0000
1010
0000
0100
0000
0001
1000
,
0000
0010
0100
0000
1000
0001
0000
0100
1000
0000
1001
0000
0001
0000
1000
0010
,
0000
0100
1000
0000
0001
0100
0000
1000
0010
0000
0011
0000
0100
0000
0010
0100
,
0000
0001
0100
0000
0001
0002
0000
0000
1003
2000
0000
0000
3010
0000
0000
0010
,
0000
0200
0000
0001
0300
0001
2000
0000
,
3200
0000
0000
0000
0320
0000
0000
0000
0032
0000
0000
0000
1003
0000
0000
1000
,
0000
0000
0002
0000
0000
0000
0100
0000
0003
0000
0100
1000
0100
0000
0000
0000
,
0110
0000
0000
0000
0011
0000
0000
0000
1010
0000
0000
0000
0100
0000
0000
0100
,
1000
0020
0000
1000
1030
0001
0200
0000
,
2300
0000
0000
0000
3020
0000
0000
0000
0032
0000
0000
0000
0013
0000
0000
0010
,
0100
0000
2000
0000
0000
0000
0010
0000
3010
0000
0001
0100
0001
0000
0000
0000
,
0110
0000
0000
0000
1000
0000
0000
0000
0101
0000
1000
0100
0010
0000
0000
0000
,
1000
0100
0010
0011
,
0100
0010
0001
2200
,
0000
0000
0000
0000
,
0000
0000
0000
0000
,
3300
0022
0000
0000
0000
0000
0000
0000
,
0000
0000
0000
0000
,
0000
0000
0000
0000
0033
0000
0100
0000
1000
0100
1000
0000
0001
0000
0000
0011
,
0000
0000
1000
0000
1001
0000
0100
0000
0000
1100
0000
0000
0010
0000
0010
0000
,
0001
0000
0000
1010
0000
0000
0001
0000
0101
0000
0100
0000
0000
0110
0000
0000
,
1000
0000
0001
0000
0000
1010
0000
0000
0010
0000
1100
0000
0100
0000
0000
1001
,
0000
0000
0100
0000
0100
0000
0010
0000
0000
1010
0000
0000
0001
0000
0011
0000
,
0010
0000
0000
0101
0000
0000
0010
0000
1000
0010
1000
0000
0011
0000
0000
1010
,
0000
0000
0100
0000
0001
0000
0110
0000
0000
1100
0000
0000
1000
0000
0001
0000
,
0101
0000
0000
1001
0000
0000
0010
0000
0100
0000
0011
0000
0000
1010
0000
0000
,
0100
0000
1100
0000
0000
0101
0000
0000
0011
0000
1001
0000
1010
0000
0000
0110
,
0000
0000
0101
0000
1100
0000
1010
0000
0000
1001
0000
0000
0101
0000
0011
0000
,
0110
0000
0000
1100
0000
0000
0010
1000
0010
0100
0001
0000
1000
0010
1000
0010
,
0000
0100
0000
1000
0001
1000
0001
0000
0010
0000
0100
0010
0100
0010
0000
1000
,
0000
0001
0100
0001
0100
0000
1000
0000
0010
0001
0010
0001
0000
1000
0000
0100
,
1000
0100
1000
0000
0010
0000
0001
0010
0001
0010
0000
0100
0000
1000
0010
1000
,
0010
0000
0100
0000
0001
0010
0001
0010
1000
0100
0000
1000
0001
1000
0001
0000
,
0010
0000
0100
1000
0100
1000
0000
0001
0010
0001
1000
0100
1000
0000
0010
0000
,
0100
0001
0100
0001
1000
0010
0000
0100
0001
1000
0001
0000
0010
0010
0000
1100
,
0000
0101
0000
1001
0000
0100
0010
0100
0010
0000
0011
0000
0100
0000
1000
0010
,
0000
1000
0002
1000
0000
1000
0000
0010
,
0003
0000
0010
0100
0020
0000
0000
1000
0000
0000
0100
0000
0130
0000
0001
0100
,
0001
0000
0200
0000
0000
0000
0001
0000
0301
1000
0000
1000
0010
0000
0100
0001
,
0100
0000
0010
0000
1000
0000
0100
1000
0000
0001
0010
0001
1000
0000
0010
0100
,
0000
0010
2000
0010
0000
0010
0000
0001
,
3000
0000
0001
0100
0002
0000
1000
0000
0003
0000
0100
0010
0200
0000
1000
0000
,
0000
0000
0010
0000
0000
0000
1000
0000
0301
0010
0000
0010
1000
0000
0100
0000
,
0100
0000
1000
0001
1000
0010
0100
0000
0101
0000
0001
0000
1000
0000
0000
1010
,
0000
0000
0200
0000
0000
0000
1000
0000
0001
0000
1000
0000
0310
0000
0000
1001
,
0000
0000
0002
0000
0000
0000
0100
0000
0100
0000
0100
0000
0013
0000
1000
0010
,
0000
2001
0000
0010
0100
0010
3001
0001
,
0100
0000
0100
0000
0010
0000
1000
0010
0100
0010
0001
0000
0100
0000
0000
1100
,
0000
0000
0020
0000
0000
0000
1000
0000
1030
0000
0001
0100
0002
0000
0000
1000
,
0000
0000
0013
0000
0020
0000
0000
0100
0000
0000
0130
0000
1000
0000
0000
0010
,
0000
0000
0210
0000
0000
0000
0001
0000
0000
0000
0301
0000
0010
0000
0000
1100
,
0000
0000
0001
0000
1001
0000
0000
0000
0110
0000
0000
0000
2100
0000
0000
0100
,
0000
0001
0000
0100
3000
0010
0210
0000
,
0001
0000
0000
0000
1000
0000
0000
0000
0310
0000
0000
0000
0012
0000
0000
0010
,
0000
1000
0000
0010
0000
1003
1100
0000
,
0101
0000
0000
0000
0011
0000
0000
0000
1001
0000
0000
0000
0100
0000
0000
0001
,
0100
0000
0010
0000
0000
0000
1000
0000
0001
0000
1000
0000
0010
0000
0000
0010
,
0100
0000
0000
0100
1000
0000
0000
1000
0001
0000
0000
0001
0010
0000
0000
1000
,
0010
0000
0100
0000
0100
0000
1000
0000
0001
0000
0010
0100
0010
0000
0000
0000
,
1000
0000
0000
0000
0011
0000
0000
0000
1010
0000
0100
0001
0200
0000
0000
0000
,
0320
0032
2003
3010
,
0110
0000
0000
0000
0101
0000
0000
0000
1001
0000
0000
0000
0010
0001
0100
0010
,
1000
0000
0000
0100
0000
0000
0010
0000
0000
0001
0000
0000
1000
0000
0000
0000
1000
0000
0000
0000
1000
0000
0000
0000
1001
0000
0000
0000
0000
0000
0000
0000
0000
0000
0000
0000
0001
0000
0000
0000
0000
0000
1000
0000
0000
0001
0000
0000
,
0000
1000
0010
0000
0100
0001
0100
0000
0010
0100
0010
0000
1000
0000
0100
0001
,
0000
0100
0010
0000
1000
0001
1000
0000
0100
1000
0100
0000
0010
0000
0001
0100
,
0000
0100
0001
0000
0010
1000
0010
0000
0100
1000
0100
0000
0010
0000
1000
0001
,
0000
0001
0010
0000
1000
0001
1000
0001
0010
1000
0100
0000
0001
0000
0100
0001
,
0000
0100
0010
0000
1000
0000
0001
0000
0011
0000
0010
0000
0100
0000
1000
0100
,
0000
1000
0001
0000
0010
0000
0100
0000
1100
0000
1000
0000
0010
0000
0010
0001
,
0000
0001
1000
0000
0010
0000
0100
0000
0011
0000
1000
0000
0100
0000
0100
0010
,
0000
0010
0001
0000
1000
0000
0010
1000
0100
1000
0001
0000
1000
0000
0010
1000
,
0000
0010
0100
0000
0001
0000
1000
0001
0000
1000
0010
0000
0100
0000
0010
0100
,
0000
0010
1000
0000
0011
0000
0000
1100
0000
0000
1001
0000
0001
0000
0100
0010
,
0000
0010
0001
0000
1000
0000
0010
1000
0000
1000
0001
0000
0100
0000
1000
0010
,
0000
0010
0001
0000
0100
0001
0100
0200
0000
0000
0000
0300
0000
0000
0000
0000
;

//---------------dance-single - ----------------
#NOTEDATA:;
#CHARTNAME:;
#STEPSTYPE:dance-single;
#DESCRIPTION:;
#CHARTSTYLE:;
#DIFFICULTY:Medium;
#METER:10;
#RADARVALUES:0.391055,0.470269,0.112111,0.214880,0.212544,586.000000,562.000000,24.000000,46.000000,0.000000,0.000000,0.000000,0.000000,0.000000,0.391055,0.470269,0.112111,0.214880,0.212544,586.000000,562.000000,24.000000,46.000000,0.000000,0.000000,0.000000,0.000000,0.000000;
#CREDIT:;
#NOTES:
0000
0000
0000
0000
,
0000
0000
0000
0000
,
1001
0000
0000
0000
,
0000
0000
0000
0000
,
0100
0000
0000
0001
0000
0001
0000
0000
0000
0000
0000
0000
0000
0000
0000
0000
,
0100
0000
0000
1000
0000
1000
0000
0200
0000
0000
0000
0000
0300
0000
0000
0000
,
0000
0000
0000
0000
,
1000
0100
0001
0100
0010
0100
0110
0000
,
0001
0000
0000
1000
0000
0000
0001
0000
0000
0000
0000
0000
0100
0000
0000
0000
,
0010
0000
0000
0100
0000
0000
0010
0000
0000
0000
0000
0000
0001
0000
0000
0000
,
0010
0000
0000
0001
0000
0000
0010
0000
0000
0000
0000
0000
1000
0000
0000
0000
,
0100
0000
0000
1000
0000
0000
0100
0000
0000
0000
0000
0000
0101
0000
0000
0000
,
1000
0000
0000
0001
0000
0000
0200
0000
0000
0000
0010
0000
0300
0000
0000
0000
,
0001
0000
0000
0100
0000
0000
0001
0000
0000
0000
1000
0000
0001
0000
0000
0000
,
0010
0000
0000
1000
0000
0000
0002
0000
0000
0000
0010
0000
0003
0000
0000
0000
,
0100
0000
0000
0010
0000
0000
0100
0000
0000
0000
0000
0000
1001
0000
0000
0000
,
0001
0000
0000
0001
0000
0000
0100
0000
1000
0000
0010
0000
1000
0000
0000
0000
,
0010
0000
0000
0010
0000
0000
0100
0000
0010
0000
0001
0000
0010
0000
0000
0000
,
0100
0000
0000
0100
0000
0000
1000
0000
0010
0000
0001
0000
0010
0000
0000
0000
,
1000
0000
0000
1000
0000
0000
0010
0000
0100
0000
1000
0000
0100
0000
0000
0000
,
0001
0000
0000
0001
0000
0000
0001
0000
0100
0000
0010
0000
0100
0000
0000
0000
,
1000
0000
0000
1000
0000
0000
1000
0000
0001
0000
0100
0000
0001
0000
0000
0000
,
0100
0000
0000
0100
0000
0000
0100
0000
0010
0000
0001
0000
0010
0000
0000
0000
,
0001
0000
0000
0010
0000
0000
1000
0000
0000
0010
0000
0000
0110
0000
0000
0000
,
0100
0000
0000
0001
0000
0000
0001
0000
0100
0000
0000
1000
0000
0000
1000
0000
,
0100
0000
0000
0001
0000
0000
0001
0000
0010
0000
0000
0100
0000
0000
1000
0000
,
0010
0000
0000
0100
0000
0000
0100
0000
0010
0000
0000
1000
0000
0000
1000
0000
,
0010
0000
0000
0100
0000
0000
0100
0000
0002
0000
1000
0000
2003
0000
0001
0000
,
3100
0000
0000
0001
0000
0000
0100
0000
0010
0000
0000
0100
0000
0000
0010
0000
,
1000
0000
0000
0010
0000
0000
1000
0000
0100
0000
0000
1000
0000
0000
0001
0000
,
1000
0000
0000
0001
0000
0000
1000
0000
0100
0000
0000
0001
0000
0000
0100
0000
,
0010
0000
0000
0100
0000
0000
0010
0000
0100
0000
0000
0101
0010
0000
0000
0000
,
1000
0001
2000
0000
0010
0000
3100
0000
,
0100
0000
0001
0010
0001
0000
0200
0000
,
1000
2300
0001
3001
,
0010
0100
1100
1000
,
0010
0100
0020
0000
0001
0000
1030
0000
,
1000
0000
0010
0000
0001
0100
0002
0000
,
1000
0000
0100
0000
1003
0010
0020
0000
,
1000
0000
0000
0000
1030
0000
0000
0000
0110
0000
0000
0000
0010
0000
0000
0001
,
0000
0000
0010
0000
0000
0100
0000
0000
0001
0000
0000
0000
1000
0000
0000
0100
,
0000
0000
0010
0000
0000
0100
0000
0000
1000
0000
0000
0000
0100
0000
0000
1000
,
0000
0000
1000
0000
0100
0000
0000
0000
0110
0000
0000
0000
1000
0000
0000
0001
,
0000
0000
0001
0000
0010
0000
0000
0000
0011
0000
0000
0000
0100
0000
0000
0010
,
0000
0000
0001
0000
0000
0100
0000
0000
1000
0000
0000
0000
0010
0000
0000
0100
,
0000
0000
0001
0000
0000
0010
0000
0000
0100
0000
0000
0000
0010
0000
0000
1000
,
0000
0000
0100
0000
0000
0001
0000
0000
0100
0000
0000
0000
0100
0000
0000
0010
,
0000
0010
1000
0000
1001
0000
1000
0000
,
1000
0001
0000
0001
0010
0000
0100
0000
,
0001
1000
0001
0010
,
0010
0100
0000
0100
1000
0000
0010
0000
,
1000
0100
1000
0010
,
0001
0010
0000
0100
0010
0000
0001
0000
,
1000
0100
1000
0001
,
1000
0100
0000
1000
0001
1000
0010
0000
,
0100
0010
1000
0200
,
0301
0002
1003
2000
,
3020
0230
0320
2000
,
0000
0000
0000
0000
,
3030
0000
0000
0000
,
0001
2002
0000
0000
0000
0000
0000
0000
,
0000
0000
0000
3003
0000
0000
0000
0000
,
0000
0000
0000
0000
0000
0000
0100
0000
0010
0000
0100
0000
1000
0000
0000
0001
,
0000
0000
1000
0000
0010
0000
1000
0000
0000
0100
0000
0000
0001
0000
0100
0000
,
0001
0000
0000
1000
0000
0000
0100
0000
1000
0000
0100
0000
0000
0010
0000
0000
,
1000
0000
0010
0000
0000
1000
0000
0000
0010
0000
0100
0000
0010
0000
0000
0001
,
0000
0000
0100
0000
0001
0000
0100
0000
0000
1000
0000
0000
0100
0000
0010
0000
,
0100
0000
0000
0010
0000
0000
0100
0000
0001
0000
1000
0000
0100
0000
0000
0100
,
0000
0000
0001
0000
1000
0000
0001
0000
0000
0001
0000
0000
0010
0000
1000
0000
,
0010
0000
0000
0010
0000
0000
1000
0000
0100
0000
1000
0000
0000
1000
0000
0000
,
0010
0000
0001
0000
0000
0011
0000
0000
0100
0000
0001
0000
1000
0000
0000
1001
,
0000
0000
1000
0000
0010
0000
0100
0000
0000
0110
0000
0000
0001
0000
0100
0000
,
1000
0000
0000
1100
0000
0000
0100
0000
0010
0000
0100
0000
0001
0000
0000
0000
,
1000
0000
0010
0100
1000
0100
0000
1000
,
0000
0010
0001
0100
0010
0000
0001
0000
,
0100
1000
0010
1000
0000
0001
0000
1000
,
0100
0010
0002
0000
0010
0000
0013
0100
,
0010
2000
0100
0000
3100
1000
0001
1000
,
0020
0000
0001
0000
0031
1000
0001
0200
,
0010
0000
0000
0000
0310
0000
0001
0000
1001
0000
0000
0000
0010
0000
0000
0100
,
0000
1000
0200
0000
0001
0000
0010
0000
,
0310
0000
1000
0000
0001
0000
0000
0100
0000
0000
0001
0000
0010
0000
0000
1000
,
0000
1002
0000
0000
0100
0000
0103
1000
,
0100
0000
1000
0000
0010
0000
0100
0000
0001
0000
0000
0000
0100
0000
0000
1000
,
0000
0010
2000
0000
0010
0000
0001
0000
,
3001
0010
0200
0000
0301
1000
0002
0000
,
0100
0000
0100
0000
1003
0010
0200
0000
,
1300
0000
0000
0000
1100
0000
0000
0000
1010
0000
0000
0000
0010
0000
0000
1000
,
0000
0000
0020
0000
0000
0000
0000
0000
0130
0000
0000
0000
1000
0000
0000
0001
,
0000
0000
2000
0000
0000
0000
0000
0000
3001
0000
0000
0000
1000
0000
0000
0100
,
0000
1001
0000
0000
0001
0000
0010
0000
,
1000
0000
0001
0000
0100
0000
0010
0000
0100
0000
0000
0000
0010
0000
0000
0100
,
0000
0020
0000
0000
0031
0000
0200
0000
,
1000
2300
0001
3001
,
0100
0000
0000
0000
0010
0000
0100
0000
0010
0000
0000
0000
1000
0000
0000
0100
,
0000
0010
0001
0000
1001
0000
0200
0000
,
0000
0020
0000
0000
0330
0000
1000
0000
,
0010
0001
0010
2000
,
0000
0002
0000
0000
3003
0000
0010
0000
,
0100
0010
1000
0100
,
0001
0100
0000
0100
0010
0000
1000
0000
,
0001
0000
0100
0001
0100
0000
0001
0000
,
0010
0001
0000
0100
0010
0100
1000
0000
,
0001
0100
0010
0002
,
0013
0020
0130
0200
,
2300
3200
0302
2000
,
0000
0000
0000
0000
0000
0000
0000
0000
3003
0000
0000
0000
1000
0000
0000
0001
,
0000
0000
0100
0000
0000
0000
0100
0000
0001
0000
0000
0000
0010
0000
0000
1000
,
0000
0000
0001
0000
0000
0000
0001
0000
0010
0000
0000
0000
0100
0000
0000
0010
,
0000
0000
1000
0000
0000
0000
1000
0000
0001
0000
0000
0000
0100
0000
0000
0001
,
0000
0000
0010
0000
0000
0000
0010
0000
1000
0000
0000
0000
0100
0000
0000
0100
,
0000
0000
0010
0000
1000
0000
0010
0000
0100
0000
0000
0000
0001
0000
0000
0001
,
0000
0000
0010
0000
1000
0000
0010
0000
0001
0000
0000
0000
1000
0000
0000
1000
,
0000
0000
0100
0000
0001
0000
1000
0000
0100
0000
0000
0000
0010
0000
0000
0010
,
0000
0000
1000
0000
0001
0000
1000
0000
1001
0000
0000
0000
1000
0000
0000
0100
,
0000
0000
0100
0000
0010
0000
0000
0100
0000
0000
0100
0000
0001
0000
0000
0100
,
0000
0000
0100
0000
0010
0000
0000
1000
0000
0000
0001
0000
0100
0000
0000
1000
,
0000
0000
1000
0000
0001
0000
0000
1000
0000
0000
1000
0000
0010
0000
0000
1000
,
0000
0000
1000
0000
0100
0000
0000
0110
0000
0000
0000
0000
0000
0000
0000
0000
;

//---------------dance-single - ----------------
#NOTEDATA:;
#CHARTNAME:;
#STEPSTYPE:dance-single;
#DESCRIPTION:;
#CHARTSTYLE:;
#DIFFICULTY:Easy;
#METER:6;
#RADARVALUES:0.262928,0.387485,0.135468,0.191523,0.000000,394.000000,365.000000,29.000000,41.000000,0.000000,0.000000,0.000000,0.000000,0.000000,0.262928,0.387485,0.135468,0.191523,0.000000,394.000000,365.000000,29.000000,41.000000,0.000000,0.000000,0.000000,0.000000,0.000000;
#CREDIT:;
#NOTES:
0000
0000
0000
0000
,
0000
0000
0000
0000
,
0000
0000
0000
0000
,
0000
0000
0000
0000
,
0100
0200
0300
0000
,
0001
0000
1000
0000
2002
0000
0000
3003
,
0000
0000
0000
0000
,
0010
0100
0010
0110
,
0001
1000
0001
0001
,
0100
0001
0100
0010
,
1000
0010
1000
1000
,
0010
0001
0100
1000
,
0010
1000
0010
0010
,
0100
0010
1000
0001
,
0100
0010
0100
0100
,
0010
0001
1000
0001
,
0020
0030
0100
0001
,
0200
0300
1000
0010
,
2000
3000
0001
0100
,
0002
0003
0010
0110
,
0100
1000
0200
0300
,
1000
0001
2000
3000
,
0010
0001
0020
0030
,
0001
0100
0002
0003
,
1000
0000
0001
0000
,
0100
0000
0010
0010
,
0001
0000
0100
0000
,
0010
0000
1000
1001
,
0001
0000
1000
0000
,
0100
0000
1000
1000
,
0001
0000
0100
0000
,
0010
0000
0110
1000
,
0001
0200
0000
0300
,
0000
0100
0010
0100
,
1000
0002
0000
0003
,
0000
0100
0000
0100
,
1000
0020
0000
0030
,
0000
0001
0100
2000
,
0000
3000
0010
0020
,
0000
0000
0030
0100
,
0001
0100
0100
1000
,
0100
1000
1000
0020
,
0030
0001
0101
0200
,
0300
1000
1010
0010
,
0001
0010
0010
0100
,
0001
0100
0100
1000
,
0010
1000
1000
0001
,
0100
2000
3000
0010
,
0000
1001
0000
1000
,
0100
0001
0010
1000
,
0000
0110
0000
0001
,
1000
0001
0010
0100
,
0000
0011
0000
0010
,
1000
0100
1000
0001
,
0000
1010
0000
2000
,
3000
0200
0300
0002
,
0003
0020
0030
1000
,
0100
0001
0010
0110
,
0000
0000
0000
0000
,
0000
0000
0000
0000
,
0000
1001
0000
0000
0000
0000
0000
0000
,
0000
0000
0000
0000
,
0000
0000
0000
0110
0000
0000
0010
0000
,
0100
0000
0010
0001
0000
1000
0000
0001
,
1000
0000
0100
0000
1000
0010
0000
1010
,
0000
0100
0000
0010
0000
0100
0001
0000
,
0100
0000
0001
0010
0000
1000
0000
0010
,
0001
0100
0101
0001
,
1000
0000
0010
0100
0000
0010
0000
0001
,
0100
0000
1000
0000
0010
0001
0000
1000
,
0000
0100
0000
1000
0000
1100
0100
0000
,
0001
0000
0101
0100
0000
1000
0000
1010
,
0010
0001
1001
0020
,
0100
0130
1000
0200
,
0001
0301
0010
0002
,
1000
1003
0010
2000
,
3001
0100
1000
0100
,
0100
0010
0001
0010
,
0010
1000
0001
0100
,
0010
0110
1001
0100
,
0010
0200
0000
0301
,
0001
1000
0010
0001
,
1000
0002
0000
0013
,
0100
0010
0100
1000
,
0100
2000
0000
3010
,
0010
0100
0001
0200
,
0000
1300
0010
2000
,
3000
0020
0030
1000
,
0001
1000
1000
0010
,
0100
0010
0010
0001
,
0010
0100
0010
0001
,
0100
1000
0100
0010
,
1000
0010
0010
1000
,
0100
1000
1000
0200
,
0300
0002
0003
0010
,
1000
2002
3003
0110
,
0000
0000
0000
0010
,
0000
1000
0000
1010
,
0000
0000
0000
0100
,
0000
0101
0000
0100
,
1000
0100
0100
0010
,
0001
1000
0100
0001
,
0100
0010
0010
2000
,
3000
0200
0300
0020
,
0030
0002
0003
1000
,
0100
0010
0001
0110
,
0000
0000
0000
0001
,
0100
1000
0100
0001
,
0010
1000
0010
0001
,
0100
0010
0100
0010
,
0001
0100
0001
1000
,
1000
0001
0010
0100
,
0100
1000
0010
0001
,
0001
1000
0100
0010
,
0010
0100
0110
1000
,
1000
0001
0001
0010
,
0010
0100
0010
0100
,
0100
0001
0001
0010
,
0010
1000
1001
0000
;

//---------------dance-single - ----------------
#NOTEDATA:;
#CHARTNAME:;
#STEPSTYPE:dance-single;
#DESCRIPTION:;
#CHARTSTYLE:;
#DIFFICULTY:Beginner;
#METER:3;
#RADARVALUES:0.154820,0.193334,0.042042,0.056056,0.000000,232.000000,223.000000,9.000000,12.000000,0.000000,0.000000,0.000000,0.000000,0.000000,0.154820,0.193334,0.042042,0.056056,0.000000,232.000000,223.000000,9.000000,12.000000,0.000000,0.000000,0.000000,0.000000,0.000000;
#CREDIT:;
#NOTES:
// measure 0
0000
0000
0000
0000
,  // measure 1
0000
0000
0000
0000
,  // measure 2
0000
0000
0000
0000
,  // measure 3
0000
0000
0000
0000
,  // measure 4
1000
1000
0000
0000
,  // measure 5
0001
0001
0002
0003
,  // measure 6
0000
0000
0000
0000
,  // measure 7
0200
0000
0000
0300
,  // measure 8
0010
0000
0010
0000
,  // measure 9
1000
0000
0010
0000
,  // measure 10
0100
0000
0100
0000
,  // measure 11
0010
0000
0100
0000
,  // measure 12
0001
0000
0001
0000
,  // measure 13
0100
0000
0001
0000
,  // measure 14
1000
0000
1000
0000
,  // measure 15
0001
0000
1000
0000
,  // measure 16
0001
0000
0001
0000
,  // measure 17
0010
0000
0010
0000
,  // measure 18
0100
0000
0100
0000
,  // measure 19
1000
0000
1000
0000
,  // measure 20
0100
0000
0010
0000
,  // measure 21
0001
0000
1000
0000
,  // measure 22
0001
0000
0010
0000
,  // measure 23
0100
0000
1000
0000
,  // measure 24
0010
0000
0100
0000
,  // measure 25
0010
0000
0100
0100
,  // measure 26
0100
0000
1000
0000
,  // measure 27
0100
0000
1000
1000
,  // measure 28
1000
0000
0001
0000
,  // measure 29
1000
0000
0001
0001
,  // measure 30
0001
0000
0010
0000
,  // measure 31
1000
0000
1001
0100
,  // measure 32
0000
0200
0000
0300
,  // measure 33
0000
0001
0000
0001
,  // measure 34
0000
0002
0000
0003
,  // measure 35
0000
0000
0000
1000
,  // measure 36
0000
2000
0000
3000
,  // measure 37
0000
0010
0000
0020
,  // measure 38
0000
0030
0000
2002
,  // measure 39
0000
3003
0000
0010
,  // measure 40
0000
0010
0000
1000
,  // measure 41
0000
0010
0000
0100
,  // measure 42
0100
0100
0000
0001
,  // measure 43
0001
0001
0000
1000
,  // measure 44
0000
1000
0000
0001
,  // measure 45
0000
0001
0000
0010
,  // measure 46
0000
0010
0000
0100
,  // measure 47
0000
0110
0000
1000
,  // measure 48
0000
1000
0000
0001
,  // measure 49
0001
0001
0000
0010
,  // measure 50
0000
0010
0000
0100
,  // measure 51
0000
0010
0000
0100
,  // measure 52
0000
0100
0000
1000
,  // measure 53
1000
1000
0000
0001
,  // measure 54
0000
1000
0000
0001
,  // measure 55
0000
0001
0000
0010
,  // measure 56
0000
0010
0000
0100
,  // measure 57
0000
0010
0000
0100
,  // measure 58
0000
0000
0000
0000
,  // measure 59
0000
0000
0000
0000
,  // measure 60
1001
0000
0000
0000
,  // measure 61
0000
0000
0000
0000
,  // measure 62
0000
0000
0000
0010
,  // measure 63
0000
0000
0000
0001
0000
0000
0000
0000
,  // measure 64
1000
0000
0000
0000
0000
0001
0000
0000
,  // measure 65
0000
0010
0000
0000
0000
0000
0100
0000
,  // measure 66
0000
0000
0000
1000
0000
0000
0000
0000
,  // measure 67
0001
0000
0010
0010
,  // measure 68
0000
0000
0000
0100
0000
0000
0000
0000
,  // measure 69
1000
0000
0000
0000
0000
0001
0000
0000
,  // measure 70
0000
1000
0000
0000
0000
0000
0001
0000
,  // measure 71
0000
0000
0000
0010
0000
0000
0000
0000
,  // measure 72
0100
0000
0000
1000
,  // measure 73
0000
1000
0000
0001
,  // measure 74
0000
0001
0000
0010
,  // measure 75
0000
0010
0000
0100
,  // measure 76
0000
0100
0100
0000
,  // measure 77
1000
1000
0000
0001
,  // measure 78
0001
0000
0010
0010
,  // measure 79
0000
1001
0000
0001
,  // measure 80
0000
0001
0000
0100
,  // measure 81
0000
1000
0000
0010
,  // measure 82
0000
0010
0000
0001
,  // measure 83
0000
0100
0000
1000
,  // measure 84
0000
1000
0000
0100
,  // measure 85
0000
0010
0000
0100
,  // measure 86
0000
0100
0000
0001
,  // measure 87
0000
0110
0000
1000
,  // measure 88
1000
1000
0000
0001
,  // measure 89
0000
1000
0000
0001
,  // measure 90
0001
0001
0000
0010
,  // measure 91
0000
0001
0000
0010
,  // measure 92
0010
0010
0000
0100
,  // measure 93
0000
0010
0000
0100
,  // measure 94
0100
0100
0000
1000
,  // measure 95
0000
1001
0000
0020
,  // measure 96
0000
0030
0000
0200
,  // measure 97
0000
0300
0000
2000
,  // measure 98
0000
3000
0000
0002
,  // measure 99
0000
0003
0000
0100
,  // measure 100
0000
1000
0000
0010
,  // measure 101
0000
1000
0000
0001
,  // measure 102
0000
1000
0000
0010
,  // measure 103
0000
0010
0000
0100
,  // measure 104
0000
0100
0000
0001
,  // measure 105
0000
1000
0000
1001
,  // measure 106
0000
0000
0000
0010
,  // measure 107
0000
0100
0000
0001
,  // measure 108
0000
0100
0000
1000
,  // measure 109
0000
0001
0000
0100
,  // measure 110
0000
0001
0000
1000
,  // measure 111
1000
1000
0000
0010
,  // measure 112
0010
0010
0000
0100
,  // measure 113
0100
0100
0000
0001
,  // measure 114
0001
0001
0000
1000
,  // measure 115
0000
1000
0000
0001
,  // measure 116
0000
0010
0000
0100
,  // measure 117
0000
0100
0000
0010
,  // measure 118
0000
0110
0000
0000
;
