#TITLE:Point of No Return;
#SUBTITLE:;
#ARTIST:kors k;
#TITLETRANSLIT:;
#SUBTITLETRANSLIT:;
#ARTISTTRANSLIT:;
#GENRE:;
#CREDIT:;
#BANNER:Point of No Return.png;
#BACKGROUND:Point of No Return-bg.jpg;
#LYRICSPATH:;
#CDTITLE:;
#MUSIC:Point of No Return.ogg;
#OFFSET:-0.020000;
#SAMPLESTART:61.230999;
#SAMPLELENGTH:13.241000;
#SELECTABLE:YES;
#BPMS:0.000000=145.000000
;
#STOPS:
;
#BGCHANGES:;
#KEYSOUNDS:;
#ATTACKS:;

//---------------dance-single - ----------------
#NOTES:
     dance-single:
     :
     Beginner:
     3:
     0.148120,0.232656,0.016859,0.008430,0.000000,123.000000,121.000000,2.000000,1.000000,0.000000,0.000000,0.148120,0.232656,0.016859,0.008430,0.000000,123.000000,121.000000,2.000000,1.000000,0.000000,0.000000:
// measure 0
0000
0000
0000
0000
,  // measure 1
0010
0000
0010
0000
,  // measure 2
0010
0000
0010
0000
,  // measure 3
1000
0000
1000
0000
,  // measure 4
1000
0000
1000
0000
,  // measure 5
0001
0000
0001
0000
,  // measure 6
0001
0000
0001
0000
,  // measure 7
0100
0000
0100
0000
,  // measure 8
0100
0000
0100
0000
,  // measure 9
0010
0000
0010
0000
,  // measure 10
0100
0000
0100
0000
,  // measure 11
0010
0000
0010
0000
,  // measure 12
0100
0000
0100
0000
,  // measure 13
1000
0000
1000
0000
,  // measure 14
0001
0000
0001
0000
,  // measure 15
1000
0000
1000
0000
,  // measure 16
0001
0000
0001
0000
,  // measure 17
1001
0000
0000
0000
,  // measure 18
0000
0000
0000
0000
,  // measure 19
0000
0000
0000
0000
,  // measure 20
0000
0000
0000
0000
,  // measure 21
0000
0000
0000
0000
,  // measure 22
0000
0000
0000
0000
,  // measure 23
0000
0000
0000
0000
,  // measure 24
0000
0000
0000
0000
,  // measure 25
0100
0000
0000
0000
,  // measure 26
0100
0000
0000
0000
,  // measure 27
0010
0000
0000
0000
,  // measure 28
0010
0000
0000
0000
,  // measure 29
0100
0000
0000
0000
,  // measure 30
0100
0000
0000
0000
,  // measure 31
1000
0000
0000
0000
,  // measure 32
1000
0000
0000
0000
,  // measure 33
0001
0000
0001
0000
,  // measure 34
1000
0000
1000
0000
,  // measure 35
0010
0000
0010
0000
,  // measure 36
0200
0000
0300
0000
,  // measure 37
0001
0000
1000
0000
,  // measure 38
0001
0000
0001
0000
,  // measure 39
1000
0000
0100
0000
,  // measure 40
1000
0000
1000
0000
,  // measure 41
0100
0000
0010
0000
,  // measure 42
0100
0000
0100
0000
,  // measure 43
0010
0000
0001
0000
,  // measure 44
0010
0000
0010
0000
,  // measure 45
1000
0000
0100
0000
,  // measure 46
1000
0000
0100
0000
,  // measure 47
0010
0000
0100
0000
,  // measure 48
0010
0000
0100
0000
,  // measure 49
0001
0000
0010
0000
,  // measure 50
0001
0000
0010
0000
,  // measure 51
0001
0000
1000
0000
,  // measure 52
0001
0000
1000
0000
,  // measure 53
0001
0000
0001
0000
,  // measure 54
0001
0000
0001
0000
,  // measure 55
1000
0000
1000
0000
,  // measure 56
1000
0000
1000
0000
,  // measure 57
0010
0000
0010
0000
,  // measure 58
0010
0000
0010
0000
,  // measure 59
0100
0000
0100
0000
,  // measure 60
0100
0000
0100
0000
,  // measure 61
0010
0010
0010
0000
,  // measure 62
0010
0010
0010
0000
,  // measure 63
1000
1000
1000
0000
,  // measure 64
1000
1000
1000
0000
,  // measure 65
0100
0100
0100
0000
,  // measure 66
0100
0100
0100
0000
,  // measure 67
0001
0001
0001
0000
,  // measure 68
0001
0001
0001
0000
,  // measure 69
1001
0000
0000
0000
;

//---------------dance-single - ----------------
#NOTES:
     dance-single:
     :
     Easy:
     5:
     0.240845,0.290820,0.033718,0.075866,0.000000,200.000000,196.000000,4.000000,9.000000,0.000000,0.000000,0.240845,0.290820,0.033718,0.075866,0.000000,200.000000,196.000000,4.000000,9.000000,0.000000,0.000000:
0000
0000
0000
0000
,
1000
1000
0001
0001
,
0100
0100
0001
0010
,
0001
0001
1000
1000
,
0010
0010
0100
0010
,
0100
0100
0001
0001
,
0010
0010
1000
0001
,
1000
1000
0100
0100
,
0002
0000
0003
1001
,
0100
0100
0010
0010
,
0100
0010
1000
0010
,
1000
1000
0001
0001
,
0100
0001
0100
0010
,
0100
1000
0100
0000
,
0001
0010
0001
0000
,
1000
0001
0100
0010
,
0200
0000
0000
0300
,
2002
0000
0000
0000
,
0000
0000
3003
0000
,
0200
0000
0000
0000
,
0000
0000
0300
0000
,
0020
0000
0000
0000
,
0000
0000
0030
0000
,
0002
0000
0000
0000
,
0000
0000
0003
0000
,
1000
0000
0001
0000
,
0010
0100
0010
0000
,
0001
0000
0100
0000
,
1000
0001
1000
0000
,
0010
0000
0100
0000
,
0010
1000
0010
0000
,
0001
0000
0100
0000
,
0001
0010
0001
0000
,
1000
0100
1000
0000
,
0100
0001
0100
0000
,
0010
0010
0100
0100
,
2002
0000
0000
3003
,
0010
0000
1000
0100
,
1000
0010
0001
0000
,
1000
0000
0001
0100
,
0001
0010
0100
0000
,
1000
0000
0010
0100
,
0010
0001
1000
0000
,
0100
0000
0001
0010
,
0001
0100
1000
0000
,
0010
0000
0100
1000
,
0100
0010
0001
0010
,
0100
0000
1000
0010
,
1000
0001
0100
0001
,
0010
0000
0001
1000
,
0001
0010
1000
0010
,
0100
0000
0010
0100
,
0010
1000
0001
0000
,
0100
1000
0100
0000
,
0010
1000
0010
0000
,
0001
0100
0001
0000
,
0010
0001
0010
0000
,
1000
0001
1000
0000
,
0001
0100
0001
0000
,
0010
1000
0010
0000
,
0100
0100
0100
0000
,
0010
1000
0010
0100
,
0010
1000
0001
0000
,
1000
0100
1000
0010
,
1000
0100
0001
0000
,
0100
0010
0100
0001
,
0100
1000
0010
0000
,
0001
0010
0001
0100
,
0001
1000
0010
0000
,
1001
0000
0000
0000
;

//---------------dance-single - ----------------
#NOTES:
     dance-single:
     :
     Medium:
     10:
     0.388964,0.465312,0.075866,0.185451,0.000000,323.000000,314.000000,9.000000,22.000000,0.000000,0.000000,0.388964,0.465312,0.075866,0.185451,0.000000,323.000000,314.000000,9.000000,22.000000,0.000000,0.000000:
0000
0000
0000
0000
,
0020
0130
0002
0103
,
2000
0000
3100
0000
0020
0000
0130
0010
,
2000
3001
0200
0301
,
0020
0000
0031
0000
2000
0000
3001
1000
,
0200
0310
2000
3010
,
0002
0000
0013
0000
0200
0000
0301
0100
,
0020
1030
0002
1003
,
0200
1000
0310
1001
,
1000
0000
1000
0010
0100
0000
0100
0001
,
0010
0000
0010
1000
0001
1000
0010
0100
,
0010
0000
0010
0001
0100
0000
0100
1000
,
0001
0000
0001
1000
0100
1000
0010
0100
,
0010
0000
1000
0000
1001
0000
0001
0010
,
0100
0000
1000
0000
1010
0000
0010
0100
,
0001
0000
0100
0000
0101
0000
0001
1000
,
0010
0000
0010
0000
1000
0001
1001
0000
,
0020
0000
0000
0000
,
0000
0000
0000
0000
,
2030
0000
0000
0000
,
0000
0000
0000
0000
,
3002
0000
0000
0000
,
0000
0000
0000
0000
,
0203
0000
0000
0000
,
0000
0000
0000
0300
,
0001
0010
0001
0000
1000
0000
0010
1000
,
0000
0100
0010
0000
1000
0000
0100
0000
,
0010
0001
0010
0000
0100
0000
0001
1000
,
0000
0001
0100
0000
1000
0000
0010
0000
,
0100
1000
0100
0000
0010
0000
0001
0100
,
0000
0001
0010
0000
1000
0000
0001
0000
,
0010
0100
0010
0000
1000
0000
0100
0010
,
0000
0100
1000
0000
0001
0100
0001
0000
,
1000
0100
1000
0000
0010
1000
0010
0000
,
0100
0001
0100
0000
0001
0010
0001
0000
,
0100
0010
1000
0010
0100
0001
1000
0010
,
0220
0000
0000
0330
,
1000
0001
0100
0000
0010
0000
0100
0001
,
0000
1000
0001
0000
0100
0000
0010
0000
,
1000
0010
0100
0000
1000
0000
0001
0010
,
0000
0100
0010
0000
1000
0010
1000
0000
,
0001
0100
0010
0000
1000
0000
0001
1000
,
0000
0010
1000
0000
0100
0000
0001
0000
,
1000
0100
0010
0000
0100
0000
0001
0100
,
0000
0010
0100
0000
0001
1000
0001
0000
,
0100
0010
1000
0000
0001
0000
1000
0010
,
0000
0010
0100
0000
0001
0000
1000
0000
,
0100
1000
0010
0000
0001
0000
0100
0001
,
0000
0001
0010
0000
0100
0010
0100
0000
,
1000
0001
0010
0000
0100
0000
0010
0100
,
0000
0100
0001
0000
1000
0000
0010
0000
,
0100
0001
1000
0000
0010
0000
0100
1000
,
0000
1000
0010
0000
0001
1000
0001
0000
,
0010
0000
0100
0000
0010
1000
0010
0000
,
0100
0000
0001
0000
0100
0010
0100
0000
,
0001
0000
1000
0000
0001
0100
0001
0000
,
1000
0000
0010
0000
1000
0001
1000
0010
,
0100
0000
0001
0000
0100
1000
0100
0000
,
0001
0000
0100
0000
0001
1000
0001
0000
,
0010
0000
1000
0000
0010
0100
0010
0000
,
2000
0100
3100
0110
,
1000
0001
0100
0000
0010
0000
0100
0000
,
0001
0010
1000
0000
0100
0000
1000
0000
,
0010
0100
1000
0000
0001
0000
1000
0000
,
0100
0001
1000
0000
0010
0000
1000
0010
,
1000
0001
0100
0000
0010
0000
0100
0000
,
0010
1000
0001
0000
0100
0000
0001
0000
,
0100
0010
0001
0000
1000
0000
0001
0000
,
1000
0100
1000
0001
0010
0000
1001
0000
,
0110
0000
0000
0000
;

//---------------dance-single - ----------------
#NOTES:
     dance-single:
     :
     Hard:
     14:
     0.574415,0.737587,0.109584,0.202310,0.526848,477.000000,464.000000,13.000000,24.000000,0.000000,0.000000,0.574415,0.737587,0.109584,0.202310,0.526848,477.000000,464.000000,13.000000,24.000000,0.000000,0.000000:
0000
0000
0000
0000
0000
0000
0000
0002
,
0000
0103
0000
0002
0000
0013
0000
0002
,
0000
0103
0000
0002
0000
1003
0100
0020
,
0000
0031
0000
0020
0000
1030
0000
0020
,
0000
0031
0000
0020
0000
0130
0001
2000
,
0000
3010
0000
2000
0000
3001
0000
2000
,
0000
3010
0000
2000
0000
3001
0010
0200
,
0000
1300
0000
0200
0000
0310
0000
0200
,
0000
1000
0000
0001
0000
1300
0010
0100
,
0001
0000
0100
0001
0010
0000
0100
0010
,
1000
0000
0001
1000
0001
0100
0010
0100
,
1000
0000
0001
1000
0010
0000
1000
0001
,
0100
0000
0010
1000
0010
0100
0001
0010
,
0100
0000
0000
0000
1000
0000
0000
1100
0000
0000
0100
0000
0010
0000
0001
0000
,
0100
0000
0000
0000
0001
0000
0000
1001
0000
0000
1000
0000
0010
0000
0100
0000
,
0010
0000
0000
0000
1000
0000
0000
1010
0000
0000
0001
0000
0100
0000
0010
0000
,
0100
0100
0010
1000
0010
0001
0100
0000
,
0210
0000
0000
0001
0000
0000
0000
0001
,
0000
0000
0000
0001
0000
0000
0000
0020
,
0000
0300
0000
0100
0000
0000
0000
0100
,
0000
0000
0000
0100
0000
0000
0000
2000
,
0000
0030
0000
0010
0000
0000
0000
0010
,
0000
0000
0000
0010
0000
0000
0000
0200
,
0000
3000
0000
1000
0000
0000
0000
1000
,
0000
0000
0000
2000
0000
0000
3300
0000
,
0010
0000
1000
0000
0100
0000
0000
1000
0000
0000
0001
0000
0000
0010
0000
0001
,
0000
0010
0000
0000
0100
0000
0000
0001
0000
0000
1000
0000
0010
0000
0100
0000
,
0010
0000
1000
0000
0001
0000
0000
0100
0000
0000
0010
0000
0000
1000
0000
0100
,
0000
1000
0000
0000
0001
0000
0000
0100
0000
0100
0010
0000
1000
0000
0010
0000
,
0100
0000
0001
0000
0010
0000
0000
1000
0000
0000
0001
0000
0000
0100
0000
0010
,
0000
0100
0000
0000
0001
0000
0000
1000
0000
0000
0010
0000
1000
0000
0001
0000
,
1000
0000
0100
0000
0010
0000
0000
1000
0000
0000
0010
0000
0000
0001
0000
0100
,
0000
0001
0000
0000
0010
0000
0000
1000
0000
0010
0100
0000
0010
0000
0001
0000
,
0000
1000
0100
0000
1000
0000
0010
0000
0000
0100
0001
0000
0100
0000
0010
0000
,
0000
0001
1000
0000
0001
0000
0100
0000
0000
0010
1000
0000
0010
0000
0001
0000
,
0000
1000
0100
0000
0000
0001
0100
0000
0000
1000
0010
0000
0000
0001
0010
0000
,
0110
0000
0100
0000
1000
0000
0010
0100
0000
0010
1000
0000
0002
0000
0003
0000
,
1001
0000
0100
0000
0001
0000
0100
0010
0000
0000
1000
0000
0000
0001
0000
1000
,
0000
0010
0000
0000
1000
0000
0000
0100
0000
0000
0001
0000
0010
0000
0001
0000
,
0110
0000
1000
0000
0001
0000
0010
0100
0000
0000
0001
0000
0000
1000
0000
0100
,
0000
1000
0000
0000
0010
0000
0000
0100
0000
0100
0001
0000
1000
0000
0001
0000
,
1010
0000
0100
0000
1000
0000
0001
0010
0000
0000
0100
0000
0000
1000
0000
0010
,
0000
0100
0000
0000
0010
0000
0000
1000
0000
0000
0001
0000
0100
0000
0010
0000
,
1100
0000
0010
0000
0001
0000
1000
0010
0000
0000
0100
0000
0000
0001
0000
1000
,
0000
0001
0000
0000
0010
0000
0000
0100
0000
0010
0002
0000
1000
0000
1003
0000
,
0101
0000
0010
0000
1000
0000
0100
1000
0000
0010
1000
0000
0100
0001
1000
0010
,
0000
0010
0000
0000
0100
0000
0000
0001
0000
0001
0000
0000
1000
0000
0010
0000
,
1001
0000
0100
0000
0010
0000
0100
0001
0000
0100
0010
0000
0001
1000
0010
0100
,
0000
0100
1000
0000
0001
0010
0100
1000
0000
0010
0001
0000
1000
0001
0100
0000
,
0011
0000
1000
0000
0001
0000
1000
0010
0000
0001
0100
0000
0010
1000
0001
0100
,
0000
0100
0000
0000
0010
0000
0000
1000
0000
1000
0000
0000
0001
0000
0100
0000
,
0010
0000
0100
0000
0001
0000
1000
0001
0000
0100
0001
0000
0010
0100
1000
0001
,
0000
0001
0010
0000
0100
1000
0001
0010
0000
0100
0010
0000
1000
0001
1000
0000
,
0001
0100
0001
1000
0010
0100
0010
0000
,
1000
0010
1000
0100
0001
0010
0001
0000
,
0100
0010
0100
1000
0001
0100
0001
0000
,
1000
0001
1000
0010
0100
0010
0001
0001
,
0100
0001
0100
0010
1000
0100
0001
0000
,
0010
0100
0010
1000
0001
0100
0010
0000
,
1000
0100
1000
0001
0010
0100
0010
0000
,
0001
0100
0010
1000
0010
1000
0001
0000
,
1000
0100
1000
0100
0000
0000
0010
0000
0000
0100
0000
0100
0010
0000
0001
0000
,
1000
0001
1000
0001
0100
0000
0100
0010
0000
1000
0000
1000
0001
0000
0010
0000
,
0100
0010
0100
0010
0000
0000
1000
0000
0000
0001
0000
0001
0100
0000
0010
0000
,
0100
0001
0100
0001
1000
0000
1000
0010
0000
0100
0000
0100
0001
0000
1000
0000
,
0010
1000
0001
0010
0000
0000
0100
0000
0000
0001
0000
0010
0001
0000
1000
0000
,
0100
0001
0010
0100
1000
0000
0100
1000
0000
0010
0000
0100
0010
0000
0001
0000
,
1000
0010
0100
1000
0000
0000
0100
0000
0000
0001
0000
1000
0001
0000
0010
0000
,
0100
1000
0010
0100
0001
0000
0010
0001
0000
0100
0000
0010
0100
0000
1000
0000
,
2020
0000
0000
0000
,
3030
0000
0000
0000
;
