#VERSION:0.83;
#TITLE:Playing With Fire;
#SUBTITLE:(Sota Fujimori Remix);
#ARTIST:Sota Fujimori;
#TITLETRANSLIT:;
#SUBTITLETRANSLIT:;
#ARTISTTRANSLIT:;
#GENRE:;
#CREDIT:;
#MUSIC:Playing With Fire (Sota Fujimori Remix).ogg;
#BANNER:Playing With Fire (Sota Fujimori Remix).png;
#BACKGROUND:Playing With Fire (Sota Fujimori Remix)-bg.png;
#CDTITLE:;
#SAMPLESTART:71.147;
#SAMPLELENGTH:14.999;
#SELECTABLE:YES;
#OFFSET:-0.042;
#BPMS:0.000=162.013
,128.000=81.007
,144.000=162.013
;
#STOPS:;
#SPEEDS:0.000=1.000=0.000=0;
#SCROLLS:0.000=1.000;
#TICKCOUNTS:0.000=4;
#TIMESIGNATURES:0.000=4=4;
#LABELS:0.000=Song Start;
#COMBOS:0.000=1;
#ORIGIN:;
#PREVIEWVID:;
#JACKET:Playing With Fire (Sota Fujimori Remix)-jacket.png;
#CDIMAGE:;
#DISCIMAGE:;
#BGCHANGES:;
#FGCHANGES:;

//--------------- dance-single - ----------------
#NOTEDATA:;
#STEPSTYPE:dance-single;
#DESCRIPTION:;
#DIFFICULTY:Beginner;
#METER:3;
#RADARVALUES:0,0,0,0,0;
#NOTES:
0000
0000
0000
0000
,
0000
0000
0000
0000
,
0000
0000
0000
0000
,
0000
0000
0000
0000
,
1000
0000
1000
0000
,
0001
0000
0001
0000
,
0100
0000
0100
0000
,
0220
0000
0330
0000
,
0001
0000
0001
0000
,
0002
0000
0003
0000
,
1000
0000
1000
0000
,
2000
0000
3000
0000
,
0100
0000
0100
0000
,
0200
0000
0300
0000
,
0010
0000
0010
0000
,
0020
0000
0030
0000
,
1000
0000
1000
0000
,
0001
0000
0001
0000
,
1000
0000
0001
0000
,
1000
0000
0001
0000
,
0010
0000
0010
0000
,
0100
0000
0100
0000
,
0010
0000
0100
0000
,
0010
0000
0100
0000
,
2000
0000
0000
0000
,
3000
0000
0000
0000
,
0002
0000
0000
0000
,
0003
0000
0000
0000
,
0020
0000
0000
0000
,
0030
0000
0000
0000
,
0200
0000
0000
0000
,
0300
0000
0000
0000
,
2000
0000
3000
0000
,
2000
0000
3000
0000
,
0002
0000
0003
0000
,
0002
0000
0003
0000
,
0100
0000
0000
0000
,
0100
0000
0000
0000
,
0010
0000
0000
0000
,
0010
0000
0000
0000
,
0001
0000
0001
0000
,
1000
0000
1000
0000
,
0001
0000
1000
0000
,
1001
0000
0000
0000
,
0010
0000
0100
0000
,
0010
0000
0100
0000
,
1000
0000
0001
0000
,
1000
0000
0001
0000
,
0100
0000
0010
0000
,
0100
0000
0010
0000
,
0001
0000
1000
0000
,
0001
0000
1000
0000
,
0010
0010
0010
0000
,
0100
0000
0010
0000
,
0100
0100
0100
0000
,
0010
0000
0100
0000
,
0001
0001
0001
0000
,
1000
0000
0001
0000
,
1000
1000
1000
0000
,
0001
0000
1000
0000
,
0010
0000
0100
0000
,
0010
0000
0100
0000
,
1000
0000
0001
0000
,
1000
0000
0001
0000
,
0100
0000
0010
0000
,
0100
0000
0010
0000
,
0001
0000
1000
0000
,
0001
0000
1000
0000
,
0010
0000
0100
0000
,
1001
0000
0000
0000
;

//--------------- dance-single - ----------------
#NOTEDATA:;
#STEPSTYPE:dance-single;
#DESCRIPTION:;
#DIFFICULTY:Easy;
#METER:6;
#RADARVALUES:0,0,0,0,0;
#NOTES:
0000
0000
0000
0000
,
0000
0000
0000
0000
,
0000
0000
0000
0000
,
0000
0000
0000
0000
,
1000
1000
0001
0001
,
1000
0001
1000
0001
,
0010
0100
0010
0100
,
0020
0000
0000
0030
,
0100
0010
1000
0100
,
0001
0100
1000
0000
,
0010
1000
0001
0010
,
0001
0100
1000
0000
,
0001
1000
0010
0100
,
0010
0100
1000
0000
,
0001
0000
1000
0001
,
0100
0000
0010
0110
,
0100
1000
0100
0000
,
0001
0100
0001
0000
,
0010
0001
0010
0100
,
0010
1000
0100
0000
,
1000
0001
1000
0000
,
0100
1000
0100
0000
,
0010
0100
0010
0001
,
0100
0010
1000
0000
,
0002
0000
0003
0000
,
0002
0000
0003
0000
,
2000
0000
3000
0000
,
2000
0000
3000
0000
,
0020
0000
0030
0000
,
0020
0000
0030
0000
,
0200
0000
0300
0000
,
0100
0001
0100
1000
,
0020
0030
2000
3000
,
0002
0003
2000
3000
,
0200
0300
0020
0030
,
2000
3000
0200
0300
,
1000
0000
0001
0000
,
1000
0000
0010
0000
,
0100
0000
0001
0000
,
0100
0000
0010
0000
,
0100
0001
0100
0000
,
0010
1000
0010
0000
,
1000
0100
0001
0010
,
0002
0000
0000
0003
,
0100
0010
0100
0001
,
0100
0010
1000
0000
,
1000
0100
0001
0100
,
1000
0010
0100
0000
,
0001
0010
0001
0100
,
0001
1000
0010
0000
,
1000
0001
1000
0100
,
0000
0010
0000
0110
,
1000
0100
0010
0100
,
0001
0010
0001
0000
,
1000
0001
1000
0010
,
0100
0001
0010
0000
,
0001
0010
0100
0010
,
0100
1000
0001
0000
,
1000
0100
1000
0001
,
0000
0010
0000
1001
,
1000
0001
0100
0010
,
0100
0001
0100
0000
,
1000
0001
0100
0010
,
0100
0001
0100
0000
,
0100
1000
0100
1000
,
0010
1000
0010
0000
,
0010
0000
0100
0010
,
0100
0000
0001
0000
,
1000
0000
0001
1000
,
1001
0000
0000
0000
;

//--------------- dance-single - ----------------
#NOTEDATA:;
#STEPSTYPE:dance-single;
#DESCRIPTION:;
#DIFFICULTY:Medium;
#METER:8;
#RADARVALUES:0,0,0,0,0;
#NOTES:
0000
0000
0000
0000
,
0000
0000
0000
0000
,
0000
0000
0000
0000
,
0000
0000
0000
0000
,
0100
0000
0001
0100
0001
0000
1000
0010
,
1000
0000
0100
0010
0100
0000
0001
0100
,
0001
1000
0010
0100
,
2002
0000
0000
3003
,
0100
0010
0100
0001
,
0100
0000
1000
0100
1000
0000
1010
0000
,
0100
0001
0100
0010
,
0001
0000
0010
0001
0010
0000
0110
0000
,
0100
1000
0100
0001
,
0100
0000
0010
1000
0010
0000
1100
0000
,
0002
0003
1000
0001
,
2000
3000
0010
0110
,
0100
1000
0100
0001
,
0100
0010
0100
0001
,
0010
1000
0001
1000
,
0001
0000
0100
0000
0010
0000
0001
1000
,
0001
1000
0100
0010
,
0100
1000
0100
0001
,
0100
0010
0100
0001
,
1000
0000
0010
0000
0100
0000
0010
0100
,
0020
0000
0000
0030
,
2000
0000
0000
3000
,
0002
0000
0000
0003
,
0200
0000
0000
0300
,
0020
0000
0000
0030
,
0200
0000
0000
0300
,
0020
0000
0000
0030
,
1000
0000
0001
0000
1000
0001
1000
0000
,
0220
0300
0200
0030
,
0002
0300
0200
0003
,
0002
0300
2000
0003
,
0020
3000
0200
0030
,
0301
0100
1000
0100
,
0010
0000
0100
0000
0010
0000
0001
0010
,
0001
1000
0001
0100
,
0010
0000
0100
0000
1000
0000
0001
1000
,
0001
0000
0010
0001
0010
0000
0100
0010
,
0100
0000
1000
0100
1000
0000
0100
0010
,
0100
0010
0100
0001
,
2002
0000
0000
3003
,
1000
0100
0001
0100
,
0010
0000
0100
0000
0001
0000
0010
0001
,
0010
0100
1000
0100
,
1000
0000
0010
0000
1000
0000
0001
1000
,
0001
0100
1000
0100
,
0010
0000
0100
0000
0010
0000
1000
0010
,
1000
0100
0010
0100
,
0001
0010
0100
1001
,
0100
0001
1000
0010
,
0100
0000
0010
0000
0100
0000
0001
0010
,
0001
0100
0001
1000
,
0010
0000
0100
0000
0001
0000
0100
0001
,
0100
0010
1000
0010
,
0100
0000
0010
0000
1000
0000
0001
0100
,
0001
0010
0100
0010
,
1000
0100
1000
1001
,
0010
0000
0100
0000
0010
0000
0100
0010
,
0100
0000
1000
0000
0100
0000
1000
0100
,
1000
0000
0001
0000
1000
0000
0001
1000
,
0001
0000
0010
0000
0001
0000
0010
0001
,
0010
0000
0100
0000
0010
0000
0100
0001
,
0100
0000
1000
0000
0100
0000
1000
0010
,
1000
0000
0100
0000
0010
0000
0001
0010
,
0001
1000
0010
0100
,
0220
0000
0000
0000
0330
0000
0000
0000
0100
0000
0100
0000
0000
0100
0000
0000
,
2002
0000
0000
0000
,
0000
0000
0000
0000
,
0000
0000
0000
0000
0000
0000
0000
0000
0000
0000
0000
3003
0000
0000
0000
0000
;

//--------------- dance-single - ----------------
#NOTEDATA:;
#STEPSTYPE:dance-single;
#DESCRIPTION:;
#DIFFICULTY:Hard;
#METER:13;
#RADARVALUES:0.511031,0.634757,0.17709,0.221362,0.314335,404,384,20,25,0,0,0,0,0,0.511031,0.634757,0.17709,0.221362,0.314335,404,384,20,25,0,0,0,0,0;
#CHARTNAME:;
#CHARTSTYLE:;
#CREDIT:;
#NOTES:
0000
0000
0000
0000
,
0000
0000
0000
0000
,
0000
0000
0000
0000
,
0000
0000
0000
0000
,
1001
0000
0000
0000
0100
0000
0010
0000
0100
0000
0000
0010
1000
0000
0010
0000
,
0100
0000
0000
0000
0001
0000
1000
0000
0100
0000
0000
0000
1000
0000
0010
0100
,
0010
0000
0001
0000
0100
0000
0000
0000
0001
0000
0000
0000
1000
0100
1000
0000
,
0002
0000
0000
0000
0003
0010
0010
0010
,
1000
0000
0010
0000
0100
0000
0001
0000
1000
0000
0010
0100
0000
0010
1000
0000
,
0100
0001
1000
0010
0100
0000
0101
0000
,
0010
0000
0001
0000
1000
0000
0001
0000
0010
0000
0100
1000
0000
0100
0010
0000
,
1000
0001
0010
0100
1000
0000
1001
0000
,
0010
0000
1000
0000
0001
0000
0100
0000
0010
0000
1000
0100
0000
1000
0010
0000
,
0001
0000
0100
0000
0010
0000
0100
0000
0001
0000
1000
0000
0000
0010
0000
0000
,
0100
0000
0000
1100
0000
0000
1000
0001
1000
0000
0000
0010
0000
0000
0100
0000
,
0002
0000
0000
0010
0000
0000
1000
0000
0103
0000
0100
0000
0000
0110
0000
0000
,
1000
0010
1000
0001
0100
0010
0001
0000
,
0010
0100
0010
1000
0001
0100
1000
0000
,
0001
0000
0100
0000
0000
0010
0000
0000
0001
0000
0000
1000
0000
0000
0010
0000
,
0100
0000
0010
0000
0000
1000
0000
0000
0001
0000
0000
0010
0000
0000
1000
0000
,
0100
0010
0100
0001
0010
1000
0100
0000
,
0001
1000
0001
0100
0010
1000
0100
0000
,
1000
0000
0100
0000
0000
1000
0000
0000
0010
0000
0000
0100
0000
0000
0001
0000
,
0010
0000
0001
0000
0000
1000
0000
0000
0001
0000
0000
0100
0000
0000
0010
0000
,
0120
0000
0000
0200
0000
0000
0000
0000
0000
0000
0000
0000
0300
0000
0000
0000
,
1000
0000
0000
2000
0000
0000
0000
0000
0000
0000
0000
0000
0030
0000
0000
0000
,
0001
0000
0000
0002
0000
0000
0000
0000
0000
0000
0000
0000
3000
0000
0000
0000
,
0100
0000
0000
0200
0000
0000
0000
0000
0000
0000
0000
0000
0003
0000
0000
0000
,
0010
0000
0000
0020
0000
0000
0000
0000
0000
0000
0000
0000
0300
0000
0000
0000
,
1000
0000
0000
2000
0000
0000
0000
0000
0000
0000
0000
0000
0030
0000
0000
0000
,
0001
0000
0000
0002
0000
0000
0000
0000
0000
0000
0000
0000
3000
0000
0000
0000
,
0103
0000
0001
0100
0010
0100
1001
0000
,
1000
0000
0000
2000
0000
0000
0000
0000
0000
0000
0000
0000
0000
0000
0000
0000
3001
0000
0000
0001
0000
0000
0100
0000
0000
0000
0010
0000
0000
0000
1000
0000
,
0000
0010
0200
0000
0000
0000
0300
0001
0010
0001
0000
1000
0000
0000
0100
1000
,
0010
0000
0000
0020
0000
0000
0000
0000
0000
0000
0000
0000
0000
0000
0000
0000
0130
0000
0000
0100
0000
0000
1000
0000
0000
0000
0001
0000
0000
0000
0100
0000
,
0000
0001
0002
0000
0000
0000
0000
0000
1000
0000
0000
0000
1000
0000
0003
0000
,
0100
0000
0000
0100
0000
0000
0010
0000
0000
1000
0000
0000
0001
0000
0100
0000
,
0000
0000
0001
0010
0000
0000
0001
0000
0000
0000
1000
0000
0100
0000
0010
0000
,
0001
0000
0000
0001
0000
0000
1000
0000
0000
0010
0000
0000
0100
0000
0001
0000
,
0000
0000
0100
0010
0000
0000
0100
0000
0000
0000
0001
0000
1000
0000
0100
0000
,
0110
0000
0000
0010
0000
0000
1000
0000
0100
0000
0010
0000
0100
0000
0001
0000
,
1001
0000
0000
1000
0000
0000
0010
0000
0001
0000
0100
0000
0001
0000
0010
1000
,
0010
0000
0100
0010
0000
0000
1000
0000
0001
1000
0000
0000
0010
0001
0100
0001
,
2000
0000
0000
0000
3000
0100
0100
0100
,
0001
0010
0100
0001
1000
0010
1000
0100
,
0001
0000
0010
0000
0100
0000
0001
0000
0010
0000
0000
0001
0000
0000
1000
0000
,
0010
0000
0010
0100
0000
0000
0010
0000
0000
1000
0000
0000
0001
0000
1000
0000
,
0000
0000
0100
0001
0000
0000
0010
0001
0010
0000
0000
0100
0000
0000
0001
0000
,
0100
0001
1000
0010
1000
0001
0010
0100
,
1000
0000
0100
0000
0001
0000
0010
0000
0100
0000
0000
0001
0000
0000
1000
0000
,
0100
0000
0100
1000
0000
0000
0100
0000
0000
0001
0000
0000
0010
0000
1000
0000
,
0000
0101
0000
1100
0000
0001
0001
0001
,
1000
0010
0100
0001
0100
0010
1000
0100
,
0001
0000
0010
0000
0001
0000
0100
0000
1000
0000
0000
0010
0000
0000
0100
0000
,
0001
0000
0001
0010
0000
0000
0001
0000
0000
1000
0000
0000
0010
0000
0100
0000
,
0000
0000
0001
0100
0000
0000
0010
1000
0010
0000
0000
0100
0000
0000
0001
0000
,
0010
0100
0001
0100
0010
1000
0100
1000
,
0001
0000
0100
0000
0010
0000
1000
0000
0001
0000
0000
0100
0000
0000
0010
0000
,
1000
0000
1000
0001
0000
0000
1000
0000
0000
0010
0000
0000
0100
0000
0010
0000
,
0000
0000
1000
0001
0000
0000
0100
0000
0110
0000
0000
0011
0000
0000
0001
0000
,
2001
0000
3010
0000
0100
1000
0010
0000
,
0002
0000
0103
0000
0010
0001
1000
0000
,
0200
0000
0310
0000
1000
0001
0100
0000
,
0020
0000
0031
0000
0001
0100
1000
0010
,
2000
0000
3001
0000
0100
0010
0001
0000
,
0200
0000
0310
0000
1000
0001
0010
0000
,
0220
0300
1000
1030
,
0001
0000
1000
0000
0010
0000
0100
0000
0010
0000
0000
1010
0000
0000
0000
0000
,
0002
0000
0000
0000
0003
0000
0000
0000
1001
0000
1001
0000
0000
0110
0000
0000
,
1001
0200
0000
0000
,
0000
0000
0000
0000
,
0000
0000
0000
0000
0000
0000
0000
0000
0000
0000
0000
0300
0000
0000
0000
0000
;
